osu file format v14

[General]
AudioFilename: audio.mp3
AudioLeadIn: 0
PreviewTime: 66096
Countdown: 0
SampleSet: Soft
StackLeniency: 0.7
Mode: 2
LetterboxInBreaks: 0
WidescreenStoryboard: 1

[Editor]
Bookmarks: 1253,6253,11253,21253,31253,41253,46253,66253,76253,86253,96253
DistanceSpacing: 0.6
BeatDivisor: 4
GridSize: 8
TimelineZoom: 2.1

[Metadata]
Title:AaAaAaAAaAaAAa (Cut Ver.)
TitleUnicode:あぁあぁあぁああぁあぁああぁ (Cut Ver.)
Artist:Nashimoto Ui
ArtistUnicode:梨本うい
Creator:Mochi -
Version:Mniam's Special
Source:
Tags:hatsune miku vocaloid 初音ミク 梨本p nashimotop japanese rock jrock j-rock original cut short version ver fa featured artist mg mpg mappers' guild stardust prism -hex- -Aku bad_mapper overranked verti sotarks mniam おわり end
BeatmapID:4525534
BeatmapSetID:2147529

[Difficulty]
HPDrainRate:4.5
CircleSize:5.5
OverallDifficulty:9
ApproachRate:7.5
SliderMultiplier:1.5
SliderTickRate:2

[Events]
//Background and Video events
0,0,"bg.jpg",0,0
//Break Periods
//Storyboard Layer 0 (Background)
//Storyboard Layer 1 (Fail)
//Storyboard Layer 2 (Pass)
//Storyboard Layer 3 (Foreground)
//Storyboard Layer 4 (Overlay)
//Storyboard Sound Samples

[TimingPoints]
1253,312.5,4,2,22,50,1,0
5940,-55.5555555555556,4,2,22,60,0,0
6096,-100,4,1,22,69,0,0
6174,-100,4,2,22,69,0,0
6253,-100,4,2,22,69,0,0
6409,-100,4,1,22,69,0,0
6565,-100,4,2,22,69,0,0
6721,-100,4,1,22,69,0,0
7034,-66.6666666666667,4,2,22,69,0,0
7190,-100,4,1,22,69,0,0
7268,-66.6666666666667,4,2,22,69,0,0
7346,-100,4,2,22,69,0,0
7503,-100,4,1,22,69,0,0
7581,-100,4,2,22,69,0,0
8128,-66.6666666666667,4,2,22,69,0,0
8284,-66.6666666666667,4,1,22,69,0,0
8440,-100,4,2,22,69,0,0
8909,-100,4,1,22,69,0,0
9065,-100,4,2,22,69,0,0
9221,-100,4,1,22,69,0,0
9377,-100,4,2,22,69,0,0
9690,-100,4,1,22,69,0,0
9846,-100,4,2,22,69,0,0
11096,-100,4,1,22,69,0,0
11174,-100,4,2,22,69,0,0
11253,-80.6451612903226,4,2,22,60,0,0
11565,-100,4,2,22,60,0,0
12503,-100,4,1,22,60,0,0
12659,-100,4,2,22,60,0,0
15003,-100,4,1,22,60,0,0
15159,-100,4,2,22,60,0,0
17503,-100,4,1,22,60,0,0
17659,-100,4,2,22,60,0,0
18753,-83.3333333333333,4,2,22,60,0,0
19065,-100,4,2,22,60,0,0
20003,-100,4,1,22,60,0,0
20159,-100,4,2,22,60,0,0
21253,-83.3333333333333,4,2,22,50,0,0
21878,-100,4,2,22,50,0,0
22503,-100,4,1,22,50,0,0
22659,-100,4,2,22,50,0,0
22971,-100,4,1,22,50,0,0
23127,-100,4,2,22,50,0,0
25003,-100,4,1,22,50,0,0
25159,-100,4,2,22,50,0,0
25628,-100,4,1,22,50,0,0
25784,-100,4,2,22,50,0,0
27503,-100,4,1,22,50,0,0
27659,-100,4,2,22,50,0,0
27971,-100,4,1,22,50,0,0
28127,-100,4,2,22,50,0,0
30003,-100,4,1,22,50,0,0
30159,-100,4,2,22,50,0,0
30471,-83.3333333333333,4,2,22,50,0,0
30628,-83.3333333333333,4,1,22,50,0,0
30784,-100,4,2,22,50,0,0
31253,-100,4,2,22,60,0,0
41253,-100,4,2,22,69,0,0
42346,-66.6666666666667,4,2,22,69,0,0
42503,-66.6666666666667,4,1,22,69,0,0
42581,-66.6666666666667,4,2,22,69,0,0
42659,-100,4,2,22,69,0,0
42815,-100,4,3,22,69,0,0
42893,-100,4,2,22,69,0,0
43284,-66.6666666666667,4,2,22,69,0,0
43440,-66.6666666666667,4,3,22,69,0,0
43596,-66.6666666666667,4,2,22,69,0,0
43753,-100,4,2,22,69,0,0
45003,-100,4,1,22,69,0,0
45081,-100,4,2,22,69,0,0
45315,-100,4,3,22,69,0,0
45393,-100,4,2,22,69,0,0
46253,-83.3333333333333,4,2,22,50,0,0
46878,-100,4,2,22,50,0,0
47971,-100,4,1,22,50,0,0
48128,-100,4,2,22,50,0,0
50003,-100,4,1,22,50,0,0
50160,-100,4,2,22,50,0,0
52815,-83.3333333333333,4,2,22,50,0,0
52971,-83.3333333333333,4,1,22,50,0,0
53128,-100,4,2,22,50,0,0
55003,-100,4,1,22,50,0,0
55160,-100,4,2,22,50,0,0
55628,-100,4,1,22,50,0,0
55785,-100,4,2,22,50,0,0
56253,-90.0900900900901,4,2,22,50,0,0
56878,-100,4,2,22,50,0,0
57971,-100,4,1,22,50,0,0
58128,-100,4,2,22,50,0,0
60003,-100,4,1,22,50,0,0
60160,-100,4,2,22,50,0,0
62815,-66.6666666666667,4,2,22,50,0,0
62971,-66.6666666666667,4,1,22,50,0,0
63128,-100,4,2,22,50,0,0
64378,-100,4,2,22,60,0,0
65940,-90.0900900900901,4,2,22,60,0,0
66096,-90.0900900900901,4,1,22,60,0,0
66174,-90.0900900900901,4,2,22,60,0,0
66253,-100,4,2,22,69,0,0
66565,-76.9230769230769,4,2,22,69,0,0
66799,-100,4,2,22,69,0,0
67503,-100,4,1,22,69,0,0
67659,-100,4,2,22,69,0,0
68753,-66.6666666666667,4,2,22,69,0,0
69065,-100,4,2,22,69,0,0
69534,-100,4,1,22,69,0,0
69846,-66.6666666666667,4,2,22,69,0,0
70003,-66.6666666666667,4,1,22,69,0,0
70159,-100,4,2,22,69,0,0
70315,-100,4,3,22,69,0,0
70471,-100,4,2,22,69,0,0
70940,-76.9230769230769,4,2,22,69,0,0
71253,-100,4,2,22,69,0,0
72503,-100,4,1,22,69,0,0
72659,-100,4,2,22,69,0,0
73753,-66.6666666666667,4,2,22,69,0,0
74534,-100,4,1,22,69,0,0
74690,-100,4,2,22,69,0,0
74846,-75.187969924812,4,2,22,69,0,0
75003,-100,4,1,22,69,0,0
75159,-100,4,2,22,69,0,0
75940,-90.0900900900901,4,2,22,69,0,0
76253,-100,4,2,22,80,0,1
78596,-100,4,1,22,80,0,1
78674,-100,4,2,22,80,0,1
81096,-100,4,1,22,80,0,1
81174,-100,4,2,22,80,0,1
83596,-100,4,1,22,80,0,1
83674,-100,4,2,22,80,0,1
86096,-100,4,1,22,80,0,1
86174,-100,4,2,22,80,0,1
86253,-100,4,2,22,69,0,1
86565,-66.6666666666667,4,2,22,69,0,1
86721,-100,4,2,22,69,0,1
88596,-100,4,1,22,69,0,1
88674,-100,4,2,22,69,0,1
91096,-100,4,1,22,69,0,1
91174,-100,4,2,22,69,0,1
91253,-66.6666666666667,4,2,22,69,0,1
93128,-100,4,2,22,69,0,1
93596,-100,4,1,22,69,0,1
93674,-100,4,2,22,69,0,1
95003,-100,4,1,22,69,0,1
95081,-100,4,2,22,69,0,1
95159,-76.9230769230769,4,2,22,69,0,1
95315,-100,4,1,22,69,0,1
95393,-100,4,2,22,69,0,1
95471,-100,4,2,22,69,0,1
96253,-100,4,2,22,60,0,0
97346,-66.6666666666667,4,2,22,60,0,0
97503,-66.6666666666667,4,1,22,60,0,0
97581,-66.6666666666667,4,2,22,60,0,0
97815,-66.6666666666667,4,3,22,60,0,0
97893,-66.6666666666667,4,2,22,60,0,0
99065,-100,4,2,22,60,0,0
100003,-66.6666666666667,4,1,22,60,0,0
100081,-66.6666666666667,4,2,22,60,0,0
100159,-58.8235294117647,4,2,22,60,0,0
100315,-66.6666666666667,4,3,22,60,0,0
100393,-100,4,2,22,60,0,0
102503,-66.6666666666667,4,1,22,60,0,0
102581,-100,4,2,22,60,0,0
102815,-100,4,3,22,60,0,0
102893,-100,4,2,22,60,0,0

[Colours]
Combo1 : 217,126,36
Combo2 : 119,131,170
Combo3 : 49,170,191

[HitObjects]
256,351,1253,5,0,1:2:0:0:
352,344,1565,1,0,1:2:0:0:
424,320,1878,1,0,1:2:0:0:
480,264,2190,1,0,1:2:0:0:
496,192,2503,1,0,1:2:0:0:
480,128,2815,1,0,1:2:0:0:
424,72,3128,1,0,1:2:0:0:
352,48,3440,1,0,1:2:0:0:
256,32,3753,1,0,1:2:0:0:
160,40,4065,1,0,1:2:0:0:
88,64,4378,1,0,1:2:0:0:
32,120,4690,1,0,1:2:0:0:
16,192,5003,1,0,1:2:0:0:
32,256,5315,1,0,1:2:0:0:
88,312,5628,1,0,1:2:0:0:
163,329,5784,1,0,1:2:0:0:
313,330,5940,6,0,B|405:302|405:302|356:286|339:217,1,202.499993820191,0|0,1:2|1:2,1:2:0:0:
189,181,6253,6,8,P|205:140|310:108,2,150,8|8|8,1:2|1:2|1:2,1:2:0:0:
339,211,7034,6,0,P|389:159|316:134,1,168.750006437302,8|0,1:2|1:2,1:2:0:0:
424,151,7346,6,0,L|303:150,1,112.5,8|0,1:2|1:2,1:2:0:0:
209,146,7659,6,8,L|126:146,1,75,8|8,1:2|1:2,1:2:0:0:
284,148,7971,5,0,1:2:0:0:
134,146,8128,6,8,B|118:81|136:35|136:35|213:35|213:35|224:78,1,225.000008583069,8|8,1:2|1:2,1:2:0:0:
372,69,8596,5,0,1:2:0:0:
146,243,8753,6,8,B|221:243|221:243|235:209|286:207,2,150,8|8|8,1:2|1:2|1:2,1:2:0:0:
297,190,9534,6,0,B|287:154|287:154|249:150|249:150|239:102,1,112.5,8|0,1:2|1:2,1:2:0:0:
391,38,9846,6,0,B|401:38|401:38|401:267,1,225,4|0,1:2|1:2,2:2:0:0:
297,263,10628,5,0,1:2:0:0:
222,264,10784,5,0,1:2:0:0:
372,266,10940,6,0,L|493:266,1,112.5,8|0,1:2|1:2,2:2:0:0:
333,217,11253,6,0,B|333:199|333:199|183:199|183:199|183:217,1,185.625005664826,4|8,1:2|1:2,0:2:0:0:
258,165,11721,5,0,1:2:0:0:
183,217,11878,6,0,L|174:136,1,75,0|0,1:2|1:2,1:2:0:0:
325,44,12190,5,8,1:2:0:0:
175,41,12346,6,0,P|121:78|173:110,1,150,0|0,1:2|1:2,1:2:0:0:
324,108,12815,6,0,L|408:108,1,75,8|0,1:2|1:2,1:2:0:0:
324,108,13128,6,0,L|240:108,1,75,0|0,1:2|1:2,1:2:0:0:
399,108,13440,6,0,L|315:108,1,75,8|0,1:2|1:2,1:2:0:0:
173,212,13753,6,0,L|329:212,1,150,0|8,1:2|1:2,0:2:0:0:
248,189,14221,5,0,1:2:0:0:
323,212,14378,6,0,L|332:131,1,75,0|0,1:2|1:2,1:2:0:0:
181,67,14690,5,8,1:2:0:0:
331,43,14846,6,0,P|385:80|333:112,1,150,0|0,1:2|1:2,1:2:0:0:
182,109,15315,6,0,L|98:109,1,75,8|0,1:2|1:2,1:2:0:0:
182,109,15628,6,0,L|266:109,1,75,0|0,1:2|1:2,1:2:0:0:
107,109,15940,6,0,L|191:109,1,75,8|0,1:2|1:2,1:2:0:0:
408,218,16253,6,0,L|252:218,1,150,4|8,1:2|1:2,0:2:0:0:
183,180,16721,5,0,1:2:0:0:
258,218,16878,5,0,1:2:0:0:
183,180,17034,5,0,1:2:0:0:
33,288,17190,5,8,1:2:0:0:
183,180,17346,6,0,P|237:143|185:111,1,150,0|0,1:2|1:2,1:2:0:0:
34,145,17815,6,0,L|118:145,1,75,8|0,1:2|1:2,1:2:0:0:
184,145,18128,6,0,L|109:145,1,75,0|0,1:2|1:2,1:2:0:0:
259,126,18440,6,0,P|276:93|262:52,1,75,8|0,1:2|1:2,1:2:0:0:
117,224,18753,6,0,B|196:180|196:180|267:180|267:180|267:211,1,179.999994506836,0|8,1:2|1:2,0:2:0:0:
342,186,19221,5,0,1:2:0:0:
267,224,19378,5,0,1:2:0:0:
342,186,19534,5,0,1:2:0:0:
492,294,19690,5,8,1:2:0:0:
342,186,19846,6,0,P|288:149|340:117,1,150,0|0,1:2|1:2,1:2:0:0:
491,144,20315,6,0,L|407:144,1,75,8|0,1:2|1:2,1:2:0:0:
341,144,20628,6,0,L|416:144,1,75,0|0,1:2|1:2,1:2:0:0:
266,78,20940,6,8,L|313:77,1,37.5,8|0,1:2|1:2,1:2:0:0:
405,75,21096,6,8,L|452:74,1,37.5,8|0,1:2|1:2,1:2:0:0:
291,144,21253,6,0,B|254:144|254:144|254:208|254:208|349:208,2,179.999994506836,6|8|0,1:2|1:2|1:2,0:2:0:0:
366,145,22034,5,0,1:2:0:0:
216,101,22190,5,8,1:2:0:0:
291,99,22346,6,0,B|281:136|294:172|294:172|325:207|296:247,1,150,0|0,1:2|1:2,1:2:0:0:
372,249,22815,6,0,L|217:249,1,150,8|2,1:2|1:2,1:2:0:0:
120,247,23206,5,0,1:2:0:0:
221,191,23284,5,0,1:2:0:0:
296,175,23440,5,8,1:2:0:0:
221,191,23596,5,0,1:2:0:0:
372,98,23753,6,0,B|449:98|449:98|475:129|456:172,2,150,2|8|0,1:2|1:2|1:2,0:2:0:0:
447,96,24534,5,0,1:2:0:0:
297,83,24690,5,8,1:2:0:0:
222,80,24846,6,0,B|212:117|220:154|220:154|216:235,1,150,0|0,1:2|1:2,1:2:0:0:
292,229,25315,5,8,1:2:0:0:
142,253,25471,6,0,B|144:328|144:328|231:327,1,150,0|0,1:2|1:2,1:2:0:0:
370,296,25940,6,0,L|285:296,1,75,8|0,1:2|1:2,1:2:0:0:
69,197,26253,6,0,P|77:154|175:117,2,150,6|8|0,1:2|1:2|1:2,0:2:0:0:
144,197,27034,5,0,1:2:0:0:
294,199,27190,5,8,1:2:0:0:
219,198,27346,6,0,B|244:236|215:266|215:266|187:298|211:340,1,150,0|0,1:2|1:2,1:2:0:0:
133,348,27815,6,0,L|288:348,1,150,8|2,1:2|1:2,1:2:0:0:
385,344,28206,5,0,1:2:0:0:
284,338,28284,5,0,1:2:0:0:
209,301,28440,5,8,1:2:0:0:
284,338,28596,5,0,1:2:0:0:
133,286,28753,6,0,P|83:243|137:206,2,150,2|8|0,1:2|1:2|1:2,0:2:0:0:
208,285,29534,5,0,1:2:0:0:
58,341,29690,5,8,1:2:0:0:
133,341,29846,6,0,B|113:303|136:270|136:270|141:191,1,150,0|0,1:2|1:2,1:2:0:0:
216,198,30315,5,8,1:2:0:0:
66,192,30471,6,0,B|62:142|69:102|69:102|81:146|151:138,1,179.999994506836,0|8,1:2|1:2,1:2:0:0:
293,134,30940,5,8,1:2:0:0:
142,138,31096,6,8,L|183:137,1,37.5,8|8,1:2|1:2,1:2:0:0:
331,134,31253,6,0,L|331:54,1,75,6|0,1:2|1:2,1:2:0:0:
181,122,31565,5,8,1:2:0:0:
256,122,31721,6,0,L|256:202,1,75,0|0,1:2|1:2,1:2:0:0:
331,201,32034,5,0,1:2:0:0:
181,122,32190,5,8,1:2:0:0:
256,122,32346,5,0,1:2:0:0:
105,205,32503,6,0,L|105:125,1,75,0|0,1:2|1:2,1:2:0:0:
255,122,32815,5,8,1:2:0:0:
180,122,32971,6,0,L|180:42,1,75,0|2,1:2|1:2,1:2:0:0:
255,122,33284,5,0,1:2:0:0:
105,120,33440,5,8,1:2:0:0:
180,122,33596,5,0,1:2:0:0:
331,134,33753,6,0,L|331:54,1,75,2|0,1:2|1:2,1:2:0:0:
181,194,34065,5,8,1:2:0:0:
256,197,34221,6,0,L|256:117,1,75,0|0,1:2|1:2,1:2:0:0:
331,122,34534,5,0,1:2:0:0:
181,122,34690,5,8,1:2:0:0:
106,122,34846,5,0,1:2:0:0:
257,197,35003,6,0,L|257:117,1,75,0|0,1:2|1:2,1:2:0:0:
407,135,35315,5,8,1:2:0:0:
332,134,35471,6,0,L|332:54,1,75,0|0,1:2|1:2,1:2:0:0:
407,135,35784,5,0,1:2:0:0:
257,122,35940,5,8,1:2:0:0:
332,134,36096,5,0,1:2:0:0:
106,133,36253,6,0,L|106:53,1,75,6|0,1:2|1:2,1:2:0:0:
256,137,36565,5,8,1:2:0:0:
181,140,36721,6,0,L|181:60,1,75,0|0,1:2|1:2,1:2:0:0:
106,58,37034,5,0,1:2:0:0:
256,137,37190,5,8,1:2:0:0:
181,140,37346,5,0,1:2:0:0:
332,134,37503,6,0,L|332:54,1,75,0|0,1:2|1:2,1:2:0:0:
182,140,37815,5,8,1:2:0:0:
256,137,37971,6,0,L|256:57,1,75,0|2,1:2|1:2,1:2:0:0:
181,57,38284,5,0,1:2:0:0:
331,139,38440,5,8,1:2:0:0:
256,137,38596,5,0,1:2:0:0:
407,141,38753,6,0,L|407:61,1,75,2|0,1:2|1:2,1:2:0:0:
482,63,39065,5,8,1:2:0:0:
332,139,39221,6,0,L|332:59,1,75,0|0,1:2|1:2,1:2:0:0:
257,62,39534,5,0,1:2:0:0:
107,57,39690,5,8,1:2:0:0:
182,54,39846,5,0,1:2:0:0:
31,135,40003,6,0,L|31:55,1,75,0|0,1:2|1:2,1:2:0:0:
181,54,40315,5,8,1:2:0:0:
107,132,40471,6,0,L|107:52,1,75,0|0,1:2|1:2,1:2:0:0:
258,56,40784,5,8,1:2:0:0:
108,57,40940,5,8,1:2:0:0:
492,59,41253,6,0,L|342:59,1,150,4|8,1:2|1:2,0:2:0:0:
334,135,41721,5,0,1:2:0:0:
485,132,41878,5,0,1:2:0:0:
410,133,42034,5,0,1:2:0:0:
260,132,42190,5,8,1:2:0:0:
410,133,42346,6,0,B|501:133|501:133|485:147|485:147|492:219,1,168.750006437302,0|0,1:2|1:2,1:2:0:0:
388,263,42659,6,0,B|315:263|315:263|309:214,1,112.5,0|0,1:2|1:2,3:2:0:0:
209,205,42971,5,0,1:2:0:0:
134,202,43128,5,0,1:2:0:0:
209,205,43284,6,0,B|239:151|206:98|206:98|142:113|125:182,1,225.000008583069,0|0,1:2|1:2,3:2:0:0:
354,175,43753,6,0,P|420:150|378:98,1,150,0|8,1:2|1:2,0:2:0:0:
313,71,44221,5,0,1:2:0:0:
464,69,44378,5,0,1:2:0:0:
314,70,44534,5,0,1:2:0:0:
239,73,44690,5,8,1:2:0:0:
389,270,44846,6,0,P|380:227|318:205,1,112.5,0|0,1:2|1:2,1:2:0:0:
219,273,45159,6,0,P|228:230|290:208,1,112.5,0|0,1:2|1:2,3:2:0:0:
249,207,45471,6,0,L|302:207,1,37.5,0|0,1:2|1:2,1:2:0:0:
438,206,45628,5,4,1:2:0:0:
490,213,45784,5,8,1:2:0:0:
486,251,45862,5,8,1:2:0:0:
440,255,45940,5,8,1:2:0:0:
394,262,46018,5,8,1:2:0:0:
390,300,46096,5,8,1:2:0:0:
164,137,46253,6,0,B|127:137|127:137|127:201|127:201|222:201,2,179.999994506836,6|8|0,1:2|1:2|1:2,0:2:0:0:
239,136,47034,5,0,1:2:0:0:
89,137,47190,6,0,L|166:137,1,75,8|0,1:2|1:2,1:2:0:0:
315,137,47503,6,0,L|321:217,1,75,0|0,1:2|1:2,1:2:0:0:
246,217,47815,6,0,B|173:217|173:217|163:133,1,150,8|2,1:2|1:2,1:2:0:0:
266,128,48206,5,0,1:2:0:0:
165,140,48284,5,0,1:2:0:0:
90,152,48440,5,8,1:2:0:0:
165,140,48596,5,0,1:2:0:0:
316,126,48753,6,0,L|475:126,2,150,2|8|0,1:2|1:2|1:2,0:2:0:0:
391,86,49534,5,0,1:2:0:0:
316,78,49690,5,8,1:2:0:0:
166,83,49846,6,0,P|118:112|178:163,1,150,0|0,1:2|1:2,1:2:0:0:
243,159,50315,5,8,1:2:0:0:
93,219,50471,5,0,1:2:0:0:
18,221,50628,5,0,1:2:0:0:
93,219,50784,5,0,1:2:0:0:
194,215,50862,5,0,1:2:0:0:
93,219,50940,5,8,1:2:0:0:
18,221,51096,5,0,1:2:0:0:
244,214,51253,6,0,P|236:171|138:134,2,150,6|8|0,1:2|1:2|1:2,0:2:0:0:
169,222,52034,5,0,1:2:0:0:
319,212,52190,6,0,L|396:212,1,75,8|0,1:2|1:2,1:2:0:0:
243,131,52503,6,0,L|166:131,1,75,0|0,1:2|1:2,1:2:0:0:
243,131,52815,6,0,B|247:42|247:42|259:63|259:63|326:57,1,179.999994506836,8|2,1:2|1:2,1:2:0:0:
428,52,53206,5,0,1:2:0:0:
327,57,53284,5,0,1:2:0:0:
252,63,53440,5,8,1:2:0:0:
327,57,53596,5,0,1:2:0:0:
176,187,53753,6,0,P|126:144|180:107,2,150,2|8|0,1:2|1:2|1:2,0:2:0:0:
251,187,54534,5,0,1:2:0:0:
176,187,54690,5,8,1:2:0:0:
26,254,54846,6,0,L|185:254,1,150,0|0,1:2|1:2,1:2:0:0:
101,232,55315,5,8,1:2:0:0:
251,227,55471,6,0,B|327:227|327:227|364:200|326:163,1,150,0|8,1:2|1:2,1:2:0:0:
177,157,55940,5,8,1:2:0:0:
327,164,56096,6,8,L|286:163,1,37.5,8|8,1:2|1:2,1:2:0:0:
138,160,56253,6,0,B|96:158|96:158|180:156|180:156|186:110,2,166.500004064941,6|8|0,1:2|1:2|1:2,0:2:0:0:
213,164,57034,5,0,1:2:0:0:
363,169,57190,6,0,L|286:169,1,75,8|0,1:2|1:2,1:2:0:0:
137,240,57503,6,0,L|131:320,1,75,0|0,1:2|1:2,1:2:0:0:
206,320,57815,6,0,B|279:320|279:320|289:236,1,150,8|2,1:2|1:2,1:2:0:0:
186,231,58206,5,0,1:2:0:0:
287,243,58284,5,0,1:2:0:0:
362,255,58440,5,8,1:2:0:0:
287,243,58596,5,0,1:2:0:0:
136,228,58753,6,0,B|137:182|151:154|151:154|230:150,2,150,2|8|0,1:2|1:2|1:2,0:2:0:0:
61,236,59534,5,0,1:2:0:0:
136,228,59690,5,8,1:2:0:0:
286,219,59846,6,0,P|334:248|274:299,1,150,0|0,1:2|1:2,1:2:0:0:
209,302,60315,5,8,1:2:0:0:
359,194,60471,5,0,1:2:0:0:
434,191,60628,5,2,1:2:0:0:
359,194,60784,5,0,1:2:0:0:
258,199,60862,5,0,1:2:0:0:
359,194,60940,5,8,1:2:0:0:
434,191,61096,5,0,1:2:0:0:
208,181,61253,6,0,P|158:138|212:101,2,150,6|8|0,1:2|1:2|1:2,0:2:0:0:
283,182,62034,5,0,1:2:0:0:
133,245,62190,6,0,L|56:245,1,75,8|0,1:2|1:2,1:2:0:0:
209,282,62503,6,0,P|235:254|211:231,1,75,0|0,1:2|1:2,1:2:0:0:
140,203,62815,6,0,B|219:202|219:202|226:48,1,225.000008583069,8|2,1:2|1:2,1:2:0:0:
327,55,63206,5,0,1:2:0:0:
225,56,63284,5,0,1:2:0:0:
151,56,63440,6,0,L|225:56,1,75,8|0,1:2|1:2,1:2:0:0:
74,58,63753,6,0,L|229:58,1,150,2|8,1:2|1:2,0:2:0:0:
478,60,64378,5,0,1:2:0:0:
459,147,64534,5,0,1:2:0:0:
407,206,64690,5,8,1:2:0:0:
332,228,64846,5,0,1:2:0:0:
483,226,65003,6,0,L|486:144,1,75,0|0,1:2|1:2,1:2:0:0:
336,185,65315,6,0,P|340:143|327:105,1,75,8|0,1:2|1:2,1:2:0:0:
180,90,65628,5,0,1:2:0:0:
330,82,65784,5,8,1:2:0:0:
105,116,65940,6,0,B|80:159|111:193|111:193|161:193,1,124.875003048706,8|0,1:2|1:2,1:2:0:0:
304,198,66253,6,0,L|425:198,1,112.5,6|0,1:2|1:2,0:2:0:0:
315,171,66565,6,0,B|239:171|239:171|237:132|196:112,1,146.249993305207,10|0,1:2|1:2,0:2:0:0:
304,198,66878,5,2,1:2:0:0:
379,197,67034,5,0,1:2:0:0:
304,198,67190,5,10,1:2:0:0:
454,201,67346,6,0,L|285:201,1,150,2|2,1:2|1:2,1:2:0:0:
379,169,67815,5,8,1:2:0:0:
229,200,67971,6,0,P|202:154|255:130,1,112.5,2|2,1:2|1:2,0:2:0:0:
345,123,68284,6,2,P|362:85|343:49,1,75,2|10,1:2|1:2,1:2:0:0:
275,47,68596,5,0,1:2:0:0:
49,214,68753,6,2,B|41:158|41:158|98:167|98:167|104:117|104:117|44:130,1,225.000008583069,2|10,1:2|1:2,0:2:0:0:
127,228,69221,5,0,1:2:0:0:
278,237,69378,6,2,B|204:239|204:239|279:228,1,150,2|10,1:2|1:2,1:2:0:0:
429,238,69846,6,0,P|455:199|370:177,1,168.750006437302,2|0,1:2|1:2,1:2:0:0:
269,203,70159,6,0,L|425:203,1,150,2|0,1:2|1:2,3:2:0:0:
344,176,70628,5,0,1:2:0:0:
194,178,70784,5,0,1:2:0:0:
419,203,70940,6,0,P|446:174|374:145,1,146.249993305207,12|0,1:2|1:2,0:2:0:0:
226,192,71253,6,0,L|108:192,1,112.5,6|0,1:2|1:2,0:2:0:0:
215,172,71565,6,0,L|333:172,1,112.5,10|0,1:2|1:2,0:2:0:0:
225,147,71878,5,2,1:2:0:0:
150,149,72034,5,0,1:2:0:0:
225,147,72190,5,10,1:2:0:0:
375,147,72346,6,2,L|206:147,1,150,2|2,1:2|1:2,1:2:0:0:
150,149,72815,5,8,1:2:0:0:
299,303,72971,6,0,P|334:271|290:232,1,112.5,2|0,1:2|1:2,0:2:0:0:
195,231,73284,5,2,1:2:0:0:
120,235,73440,5,10,1:2:0:0:
195,231,73596,5,2,1:2:0:0:
421,240,73753,6,2,B|473:244|473:171|423:178|423:178|354:188|354:188|345:134,1,225.000008583069,2|10,1:2|1:2,0:2:0:0:
346,145,74221,5,0,1:2:0:0:
421,240,74378,6,2,B|473:244|473:171|423:178|423:178|354:188|354:188|345:134,1,225.000008583069,2|10,1:2|1:2,1:2:0:0:
197,144,74846,6,0,B|128:144|128:144|126:174|126:174|111:219|128:278,1,199.499991780854,2|0,1:2|1:2,1:2:0:0:
277,286,75315,6,0,L|362:286,3,75,8|0|0|0,1:2|1:2|1:2|1:2,1:2:0:0:
126,295,75940,6,0,P|107:240|174:219,1,124.875003048706,12|0,1:2|1:2,0:2:0:0:
309,207,76253,5,6,1:2:0:0:
208,160,76409,5,2,1:2:0:0:
51,167,76565,5,10,1:2:0:0:
171,132,76721,5,2,1:2:0:0:
337,111,76878,5,10,1:2:0:0:
187,93,77034,5,2,1:2:0:0:
322,75,77190,5,10,1:2:0:0:
427,67,77346,5,2,1:2:0:0:
269,154,77503,5,10,1:2:0:0:
179,173,77659,5,2,1:2:0:0:
321,212,77815,5,10,1:2:0:0:
216,263,77971,5,2,1:2:0:0:
50,274,78128,5,10,1:2:0:0:
200,291,78284,5,2,1:2:0:0:
65,249,78440,6,0,P|32:205|75:179,1,112.5,8|0,1:2|1:2,1:2:0:0:
221,172,78753,5,6,1:2:0:0:
322,169,78909,5,2,1:2:0:0:
161,127,79065,5,10,1:2:0:0:
41,122,79221,5,2,1:2:0:0:
192,75,79378,5,10,1:2:0:0:
319,73,79534,5,2,1:2:0:0:
469,74,79690,5,10,1:2:0:0:
345,128,79846,5,2,1:2:0:0:
187,168,80003,5,10,1:2:0:0:
284,190,80159,5,2,1:2:0:0:
456,215,80315,5,10,1:2:0:0:
299,248,80471,5,2,1:2:0:0:
442,262,80628,5,10,1:2:0:0:
315,296,80784,5,2,1:2:0:0:
90,321,80940,6,0,P|56:298|97:259,1,112.5,12|0,1:2|1:2,1:2:0:0:
248,161,81253,5,6,1:2:0:0:
136,113,81409,5,2,1:2:0:0:
301,70,81565,5,10,1:2:0:0:
204,25,81721,5,2,1:2:0:0:
53,35,81878,5,10,1:2:0:0:
203,84,82034,5,2,1:2:0:0:
330,86,82190,5,10,1:2:0:0:
165,173,82346,5,2,1:2:0:0:
278,166,82503,5,10,1:2:0:0:
428,164,82659,5,2,1:2:0:0:
278,233,82815,5,10,1:2:0:0:
113,267,82971,5,2,1:2:0:0:
264,298,83128,5,10,1:2:0:0:
129,314,83284,5,2,1:2:0:0:
249,319,83440,6,0,P|268:272|206:255,1,112.5,8|0,1:2|1:2,1:2:0:0:
70,270,83753,5,6,1:2:0:0:
190,189,83909,5,2,1:2:0:0:
355,148,84065,5,10,1:2:0:0:
250,95,84221,5,2,1:2:0:0:
99,84,84378,5,10,1:2:0:0:
189,57,84534,5,2,1:2:0:0:
324,55,84690,5,10,1:2:0:0:
174,126,84846,5,2,1:2:0:0:
340,124,85003,5,10,1:2:0:0:
452,126,85159,5,2,1:2:0:0:
295,231,85315,5,10,1:2:0:0:
198,234,85471,5,2,1:2:0:0:
341,185,85628,5,10,1:2:0:0:
214,162,85784,5,2,1:2:0:0:
439,237,85940,6,0,P|458:190|396:173,1,112.5,12|0,1:2|1:2,1:2:0:0:
260,95,86253,6,2,L|185:95,1,75,6|2,1:2|1:2,1:2:0:0:
335,97,86565,6,2,B|410:97|410:97|410:42,1,112.500004291535,10|2,1:2|1:2,1:2:0:0:
259,263,86878,5,10,1:2:0:0:
409,263,87034,6,2,L|484:263,1,75,10|2,1:2|1:2,1:2:0:0:
334,263,87346,6,2,L|259:263,1,75,10|2,1:2|1:2,1:2:0:0:
410,263,87659,5,10,1:2:0:0:
260,263,87815,6,2,L|185:263,1,75,10|2,1:2|1:2,1:2:0:0:
336,199,88128,6,0,B|358:166|351:129|351:129|305:129,1,112.5,10|0,1:2|1:2,0:2:0:0:
211,195,88440,6,0,B|189:162|196:125|196:125|242:125,1,112.5,8|0,1:2|1:2,1:2:0:0:
387,86,88753,6,2,L|312:86,1,75,6|2,1:2|1:2,1:2:0:0:
162,79,89065,6,2,L|237:79,1,75,10|2,1:2|1:2,1:2:0:0:
388,86,89378,5,10,1:2:0:0:
238,79,89534,6,2,L|313:79,1,75,10|2,1:2|1:2,1:2:0:0:
163,146,89846,6,2,L|238:146,1,75,10|2,1:2|1:2,1:2:0:0:
389,140,90159,5,10,1:2:0:0:
239,146,90315,6,2,L|314:146,1,75,10|2,1:2|1:2,1:2:0:0:
163,302,90628,6,0,B|141:269|148:232|148:232|194:232,1,112.5,10|0,1:2|1:2,0:2:0:0:
288,298,90940,6,0,B|310:265|303:228|303:228|257:228,1,112.5,8|0,1:2|1:2,1:2:0:0:
112,326,91253,6,2,B|37:326|37:326|37:271,1,112.500004291535,6|2,1:2|1:2,1:2:0:0:
187,324,91565,6,2,B|262:324|262:324|262:269,1,112.500004291535,10|2,1:2|1:2,1:2:0:0:
111,158,91878,5,10,1:2:0:0:
261,158,92034,6,2,B|336:158|336:158|336:103,1,112.500004291535,10|2,1:2|1:2,1:2:0:0:
187,158,92346,6,2,B|112:158|112:158|112:103,1,112.500004291535,10|2,1:2|1:2,1:2:0:0:
262,158,92659,5,10,1:2:0:0:
112,157,92815,6,2,B|37:157|37:157|37:102,1,112.500004291535,10|2,1:2|1:2,1:2:0:0:
188,222,93128,6,0,P|216:264|166:291,1,112.5,10|0,1:2|1:2,0:2:0:0:
73,225,93440,6,0,P|45:267|95:294,1,112.5,8|0,1:2|1:2,1:2:0:0:
239,198,93753,6,2,L|156:198,1,75,6|2,1:2|1:2,1:2:0:0:
314,198,94065,6,2,L|231:198,1,75,10|2,1:2|1:2,1:2:0:0:
390,196,94378,5,10,1:2:0:0:
239,198,94534,6,2,L|232:123,1,75,10|0,1:2|1:2,1:2:0:0:
457,95,94846,6,0,L|331:95,1,112.5,14|0,1:2|1:2,1:2:0:0:
193,93,95159,6,0,B|119:87|116:45|116:45|64:92,1,146.249993305207,14|0,1:2|1:2,1:2:0:0:
231,86,95471,6,0,L|268:86,1,37.5,14|0,1:2|1:2,1:2:0:0:
116,76,95628,5,14,1:2:0:0:
41,137,95784,5,8,1:2:0:0:
45,175,95862,5,8,1:2:0:0:
91,179,95940,5,8,1:2:0:0:
137,186,96018,5,8,1:2:0:0:
141,224,96096,5,8,1:2:0:0:
367,222,96253,6,0,P|420:188|365:151,1,150,4|8,1:2|1:2,0:2:0:0:
293,161,96721,5,0,1:2:0:0:
142,162,96878,5,0,1:2:0:0:
217,162,97034,5,0,1:2:0:0:
292,161,97190,5,8,1:2:0:0:
142,162,97346,6,0,B|57:160|57:160|85:157|85:157|109:78,1,168.750006437302,0|0,1:2|1:2,1:2:0:0:
203,150,97659,6,0,P|226:90|138:96,1,168.750006437302,0|0,1:2|1:2,3:2:0:0:
247,90,97971,5,0,1:2:0:0:
322,88,98128,5,0,1:2:0:0:
247,90,98284,5,0,1:2:0:0:
392,92,98440,5,8,1:2:0:0:
317,126,98596,5,0,1:2:0:0:
166,221,98753,6,0,B|138:172|195:194|241:221|241:221|293:245|356:262|316:222|316:222,1,225.000008583069,0|8,1:2|1:2,0:2:0:0:
241,173,99221,5,0,1:2:0:0:
392,156,99378,5,0,1:2:0:0:
317,149,99534,5,0,1:2:0:0:
309,88,99690,5,8,1:2:0:0:
159,151,99846,6,0,P|168:102|238:88,1,112.5,0|0,1:2|1:2,1:2:0:0:
324,83,100159,6,0,B|416:83|416:83|382:89|382:89|367:169,1,191.250003647804,0|0,1:2|1:2,3:2:0:0:
269,202,100471,5,0,1:2:0:0:
261,138,100628,5,0,1:2:0:0:
336,127,100784,5,0,1:2:0:0:
186,76,100940,5,8,1:2:0:0:
111,78,101096,5,0,1:2:0:0:
337,225,101253,6,0,P|390:191|335:154,1,150,4|8,1:2|1:2,0:2:0:0:
263,167,101721,5,0,1:2:0:0:
414,108,101878,5,0,1:2:0:0:
339,88,102034,5,0,1:2:0:0:
264,84,102190,5,8,1:2:0:0:
414,154,102346,6,0,P|453:114|414:95,1,112.5,0|0,1:2|1:2,1:2:0:0:
316,156,102659,6,0,P|277:116|316:97,1,112.5,0|0,1:2|1:2,3:2:0:0:
412,56,102971,5,0,1:2:0:0:
487,56,103128,5,0,1:2:0:0:
412,56,103284,5,0,1:2:0:0:
262,57,103440,5,8,1:2:0:0:
337,52,103596,5,0,1:2:0:0:
186,190,103753,6,0,L|35:190,1,150,0|8,1:2|1:2,0:2:0:0:
111,165,104221,5,0,1:2:0:0:
347,160,104378,5,4,1:2:0:0:
272,160,104534,5,8,1:2:0:0:
171,164,104612,5,8,1:2:0:0:
272,160,104690,5,8,1:2:0:0:
512,160,104846,5,14,1:3:0:0:
