osu file format v14

[General]
AudioFilename: audio.mp3
AudioLeadIn: 0
PreviewTime: 66096
Countdown: 0
SampleSet: Soft
StackLeniency: 0.7
Mode: 2
LetterboxInBreaks: 0
WidescreenStoryboard: 1

[Editor]
DistanceSpacing: 0.6
BeatDivisor: 4
GridSize: 8
TimelineZoom: 2.1

[Metadata]
Title:AaAaAaAAaAaAAa (Cut Ver.)
TitleUnicode:あぁあぁあぁああぁあぁああぁ (Cut Ver.)
Artist:Nashimoto Ui
ArtistUnicode:梨本うい
Creator:Mochi -
Version:Loneliness
Source:
Tags:hatsune miku vocaloid 初音ミク 梨本p nashimotop japanese rock jrock j-rock original cut short version ver fa featured artist mg mpg mappers' guild stardust prism -hex- -Aku bad_mapper overranked verti sotarks mniam おわり end
BeatmapID:4523575
BeatmapSetID:2147529

[Difficulty]
HPDrainRate:6
CircleSize:4.3
OverallDifficulty:9.3
ApproachRate:9.3
SliderMultiplier:2
SliderTickRate:2

[Events]
//Background and Video events
0,0,"bg.jpg",0,0
//Break Periods
//Storyboard Layer 0 (Background)
//Storyboard Layer 1 (Fail)
//Storyboard Layer 2 (Pass)
//Storyboard Layer 3 (Foreground)
//Storyboard Layer 4 (Overlay)
//Storyboard Sound Samples

[TimingPoints]
1253,312.5,4,2,22,52,1,0
1253,-100,4,2,22,52,0,0
5628,-40,4,2,22,52,0,0
6253,-100,4,2,22,62,0,0
9846,-100,4,2,22,62,0,0
10315,-100,4,2,22,52,0,0
10940,-100,4,2,22,62,0,0
11253,-100,4,2,22,72,0,0
21253,-100,4,2,22,62,0,0
66253,-100,4,2,22,72,0,0
76253,-100,4,2,22,82,0,1
80940,-100,4,2,22,82,0,1
83753,-100,4,2,22,82,0,1
86253,-100,4,2,22,82,0,1
96253,-100,4,2,22,62,0,0

[Colours]
Combo1 : 217,126,36
Combo2 : 119,131,170
Combo3 : 49,170,191

[HitObjects]
163,118,1253,6,0,L|388:119,1,200,2|0,1:2|1:2,0:0:0:0:
263,209,1721,1,2,0:0:0:0:
363,212,1878,1,2,1:2:0:0:
203,245,2034,2,0,L|198:354,1,100,0|0,0:0|1:2,0:0:0:0:
428,136,2346,6,0,L|434:255,1,100,2|0,0:0|0:0,0:0:0:0:
272,198,2659,2,0,L|267:88,1,100,2|0,0:0|0:0,0:0:0:0:
367,99,2971,1,2,0:0:0:0:
136,243,3128,2,0,L|130:362,1,100,2|0,1:2|0:0,0:0:0:0:
231,339,3440,1,2,1:2:0:0:
131,342,3596,1,0,0:0:0:0:
372,238,3753,6,0,P|443:195|366:149,1,200,2|0,1:2|1:2,0:0:0:0:
273,156,4221,1,2,0:0:0:0:
373,145,4378,1,2,1:2:0:0:
213,352,4534,2,0,L|105:353,1,100,0|0,0:0|1:2,0:0:0:0:
343,288,4846,6,0,L|461:288,1,100,2|0,0:0|1:2,0:0:0:0:
282,203,5159,2,0,L|277:93,1,100,2|0,0:0|1:2,0:0:0:0:
377,113,5471,1,2,0:0:0:0:
102,280,5628,1,2,1:2:0:0:
95,280,5784,2,0,B|348:278|348:278|348:196|348:196|390:195|390:195|349:192|349:192|351:32,1,500,2|2,0:0|0:0,0:0:0:0:
65,337,6253,54,0,L|184:335,1,100,10|0,1:2|1:2,0:0:0:0:
325,265,6565,2,0,L|215:265,1,100,8|2,0:0|1:2,0:0:0:0:
376,186,6878,1,10,0:0:0:0:
146,62,7034,2,0,L|140:178,1,100,8|0,0:0|1:2,0:0:0:0:
390,135,7346,6,0,L|254:135,1,100,10|0,0:0|0:0,0:0:0:0:
129,283,7659,2,0,L|265:283,1,100,10|8,0:0|0:0,0:0:0:0:
69,207,7971,1,2,1:2:0:0:
300,158,8128,2,0,L|305:53,1,100,10|0,0:0|1:2,0:0:0:0:
464,298,8440,2,0,L|337:297,1,100,8|2,0:0|1:2,0:0:0:0:
113,329,8753,54,0,L|104:210,1,100,10|0,0:0|0:0,0:0:0:0:
266,286,9065,2,0,L|271:176,1,100,8|2,0:0|1:2,0:0:0:0:
110,152,9378,1,10,0:0:0:0:
370,143,9534,2,0,L|375:43,1,100,8|0,0:0|1:2,0:0:0:0:
74,348,9846,54,0,P|239:254|63:98,1,500,14|0,0:0|0:0,0:0:0:0:
55,98,10784,2,0,L|120:98,1,50,0|0,1:0|0:0,0:0:0:0:
345,210,10940,2,0,B|446:210|446:210|446:155,1,150,8|0,0:0|0:0,0:0:0:0:
163,360,11253,54,2,L|155:235,1,100,6|2,1:2|0:0,0:0:0:0:
316,319,11565,2,0,L|322:187,1,100,8|0,0:0|0:0,0:0:0:0:
79,112,11878,1,2,1:2:0:0:
229,113,12034,1,0,1:2:0:0:
79,112,12190,1,8,0:0:0:0:
339,354,12346,6,0,L|225:353,1,100,2|0,0:0|1:2,0:0:0:0:
233,353,12659,1,0,0:0:0:0:
483,148,12815,2,0,L|490:31,1,100,8|0,0:0|1:2,0:0:0:0:
328,257,13128,2,0,L|440:257,1,100,0|0,0:0|1:2,0:0:0:0:
178,336,13440,2,0,L|172:222,1,100,8|0,0:0|0:0,0:0:0:0:
454,92,13753,54,0,L|329:93,1,100,2|0,1:2|0:0,0:0:0:0:
194,346,14065,2,0,L|187:214,1,100,8|0,0:0|0:0,0:0:0:0:
440,270,14378,1,2,1:2:0:0:
290,268,14534,1,0,1:2:0:0:
440,270,14690,1,8,0:0:0:0:
200,162,14846,6,0,L|197:55,1,100,2|0,0:0|1:2,0:0:0:0:
298,72,15159,1,0,0:0:0:0:
48,243,15315,2,0,L|41:360,1,100,8|0,0:0|1:2,0:0:0:0:
203,134,15628,2,0,L|91:134,1,100,0|0,0:0|1:2,0:0:0:0:
353,55,15940,2,0,L|359:169,1,100,8|0,0:0|0:0,0:0:0:0:
77,139,16253,54,0,L|72:25,1,100,2|0,1:2|0:0,0:0:0:0:
232,338,16565,2,0,L|239:204,1,100,8|0,0:0|0:0,0:0:0:0:
478,171,16878,1,2,1:2:0:0:
328,172,17034,1,0,1:2:0:0:
478,171,17190,1,8,0:0:0:0:
218,328,17346,6,0,L|212:217,1,100,2|0,0:0|0:0,0:0:0:0:
313,227,17659,1,0,0:0:0:0:
63,88,17815,2,0,L|180:88,1,100,8|0,0:0|1:2,0:0:0:0:
324,326,18128,2,0,L|329:214,1,100,0|0,0:0|1:2,0:0:0:0:
79,219,18440,2,0,L|73:105,1,100,8|0,0:0|0:0,0:0:0:0:
355,86,18753,6,0,L|468:86,1,100,2|0,1:2|0:0,0:0:0:0:
295,338,19065,2,0,L|289:224,1,100,8|0,0:0|0:0,0:0:0:0:
49,107,19378,1,2,1:2:0:0:
199,106,19534,1,0,1:2:0:0:
49,107,19690,1,8,0:0:0:0:
289,333,19846,6,0,L|400:333,2,100,2|0|0,0:0|1:2|0:0,0:0:0:0:
48,309,20315,2,0,L|42:204,1,100,8|0,0:0|1:2,0:0:0:0:
293,288,20628,2,0,L|398:288,1,100,0|0,0:0|1:2,0:0:0:0:
133,172,20940,2,0,L|129:110,1,50,8|8,0:0|0:0,0:0:0:0:
370,173,21096,2,0,L|373:111,1,50,8|8,0:0|0:0,0:0:0:0:
120,345,21253,54,0,P|23:294|43:218,1,200,6|8,1:2|0:2,0:0:0:0:
141,236,21721,1,0,0:0:0:0:
382,159,21878,1,0,1:2:0:0:
282,163,22034,1,0,1:2:0:0:
382,159,22190,1,8,0:2:0:0:
222,334,22346,6,0,L|215:216,1,100,0|0,1:2|0:0,0:0:0:0:
317,238,22659,1,0,0:0:0:0:
157,141,22815,2,0,L|151:34,1,100,8|0,0:2|1:2,0:0:0:0:
393,306,23128,1,2,1:2:0:0:
443,308,23206,1,0,3:0:0:0:
393,306,23284,1,0,1:2:0:0:
243,169,23440,1,8,0:0:0:0:
393,174,23596,1,0,1:2:0:0:
132,322,23753,54,0,P|131:225|237:212,1,200,2|8,1:2|0:2,0:0:0:0:
317,228,24221,1,0,0:0:0:0:
76,93,24378,1,0,1:2:0:0:
176,89,24534,1,0,1:2:0:0:
76,93,24690,1,8,0:2:0:0:
236,352,24846,6,0,L|242:223,1,100,0|0,1:2|0:0,0:0:0:0:
140,250,25159,1,0,0:0:0:0:
300,169,25315,2,0,L|306:40,1,100,8|0,0:2|1:2,0:0:0:0:
63,322,25628,1,0,1:2:0:0:
59,322,25706,1,0,3:0:0:0:
55,322,25784,1,0,1:2:0:0:
205,326,25940,1,8,0:0:0:0:
55,256,26096,1,0,1:2:0:0:
316,218,26253,54,0,L|75:218,1,200,6|8,1:2|0:2,0:0:0:0:
106,218,26721,1,0,0:0:0:0:
347,113,26878,1,0,1:2:0:0:
247,165,27034,2,0,L|244:52,1,100,0|8,1:2|0:2,0:0:0:0:
404,255,27346,6,0,L|409:369,1,100,0|0,1:2|0:0,0:0:0:0:
308,335,27659,1,0,0:0:0:0:
468,92,27815,2,0,L|362:92,1,100,8|0,0:2|1:2,0:0:0:0:
120,163,28128,1,2,1:2:0:0:
70,163,28206,1,0,3:0:0:0:
120,163,28284,1,0,1:2:0:0:
350,138,28440,1,8,0:0:0:0:
200,52,28596,1,0,1:2:0:0:
447,59,28753,54,0,P|488:164|395:182,1,200,2|8,1:2|0:2,0:0:0:0:
321,190,29221,1,0,0:0:0:0:
80,252,29378,1,0,1:2:0:0:
180,304,29534,2,0,L|183:191,1,100,0|8,1:2|0:2,0:0:0:0:
342,101,29846,6,0,L|213:101,1,100,0|0,1:2|0:0,0:0:0:0:
142,95,30159,1,0,0:0:0:0:
302,316,30315,1,8,0:2:0:0:
313,314,30471,2,0,L|205:314,1,100,0|0,1:2|1:2,0:0:0:0:
454,213,30784,1,8,0:0:0:0:
184,196,30940,1,8,0:0:0:0:
424,114,31096,2,0,L|366:113,1,50,8|8,0:0|0:0,0:0:0:0:
111,343,31253,54,0,P|51:255|138:230,1,200,6|10,1:2|0:2,0:0:0:0:
348,321,31721,2,0,L|352:209,1,100,2|0,0:0|1:2,0:0:0:0:
191,163,32034,1,2,1:2:0:0:
341,161,32190,1,10,0:2:0:0:
191,163,32346,1,2,1:2:0:0:
442,333,32503,6,0,L|333:333,1,100,2|0,1:2|0:0,0:0:0:0:
242,321,32815,2,0,L|236:212,1,100,10|2,0:2|1:2,0:0:0:0:
478,145,33128,2,0,L|484:36,1,100,2|2,1:2|1:2,0:0:0:0:
324,342,33440,2,0,L|318:232,1,100,10|2,0:0|1:2,0:0:0:0:
67,148,33753,6,0,L|272:148,1,200,2|10,1:2|0:2,0:0:0:0:
277,148,34221,1,2,0:0:0:0:
36,324,34378,2,0,L|30:218,1,100,0|2,1:2|1:2,0:0:0:0:
181,314,34690,1,10,0:2:0:0:
31,324,34846,1,2,1:2:0:0:
302,305,35003,6,0,L|309:178,1,100,2|0,1:2|0:0,0:0:0:0:
208,195,35315,1,10,0:2:0:0:
358,123,35471,1,2,1:2:0:0:
97,90,35628,1,2,1:2:0:0:
93,90,35706,1,0,3:0:0:0:
89,90,35784,1,2,1:2:0:0:
239,332,35940,1,10,0:0:0:0:
89,340,36096,1,2,1:2:0:0:
330,247,36253,54,0,P|390:159|303:134,1,200,6|10,1:2|0:2,0:0:0:0:
73,214,36721,2,0,L|69:102,1,100,2|0,0:0|1:2,0:0:0:0:
220,63,37034,1,2,1:2:0:0:
70,61,37190,1,10,0:2:0:0:
220,63,37346,1,2,1:2:0:0:
471,324,37503,6,0,B|236:323,1,200,2|10,1:2|0:2,0:0:0:0:
371,325,37971,1,2,1:2:0:0:
130,135,38128,1,2,1:2:0:0:
80,140,38206,1,0,3:0:0:0:
130,135,38284,1,2,1:2:0:0:
290,350,38440,1,10,0:0:0:0:
140,356,38596,1,2,1:2:0:0:
406,188,38753,6,0,L|410:67,1,100,2|0,1:2|0:0,0:0:0:0:
250,111,39065,1,10,0:2:0:0:
410,342,39221,2,0,L|417:221,1,100,2|0,0:0|1:2,0:0:0:0:
180,285,39534,1,2,1:2:0:0:
330,289,39690,1,10,0:2:0:0:
180,285,39846,1,2,1:2:0:0:
431,118,40003,6,0,L|314:119,1,100,2|0,1:2|0:0,0:0:0:0:
231,121,40315,1,10,0:2:0:0:
391,241,40471,2,0,L|395:350,1,100,2|2,1:2|1:2,0:0:0:0:
123,235,40784,1,10,0:0:0:0:
362,100,40940,1,10,0:0:0:0:
122,331,41096,2,0,L|181:331,1,50,2|0,1:2|0:0,0:0:0:0:
394,150,41253,54,0,P|458:229|374:250,1,200,6|8,1:2|0:2,0:0:0:0:
158,333,41721,1,2,0:0:0:0:
299,332,41878,1,0,1:2:0:0:
159,197,42034,2,0,L|154:85,1,100,0|10,1:2|0:2,0:0:0:0:
414,241,42346,6,0,L|420:368,1,100,2|0,0:0|0:0,0:0:0:0:
278,243,42659,2,0,L|271:370,1,100,2|8,0:0|0:2,0:0:0:0:
133,239,42971,1,2,1:2:0:0:
374,177,43128,2,0,L|380:71,1,100,2|0,0:0|1:2,0:0:0:0:
240,327,43440,2,0,L|354:328,1,100,8|2,0:2|0:0,0:0:0:0:
40,234,43753,54,0,P|16:160|121:127,1,200,2|8,1:2|0:2,0:0:0:0:
371,99,44221,1,2,0:0:0:0:
230,94,44378,1,2,1:2:0:0:
370,229,44534,2,0,L|375:341,1,100,0|10,1:2|0:2,0:0:0:0:
125,191,44846,6,0,L|119:64,1,100,2|0,0:0|1:2,0:0:0:0:
261,190,45159,2,0,L|268:63,1,100,2|8,0:0|0:2,0:0:0:0:
406,186,45471,1,2,1:2:0:0:
144,324,45628,1,0,1:2:0:0:
384,163,45784,6,0,L|388:84,1,50,8|8,0:2|0:2,0:0:0:0:
197,208,45940,2,0,L|143:208,1,50,8|8,0:2|0:2,0:0:0:0:
367,255,46096,2,0,L|429:253,1,50,8|8,0:2|0:2,0:0:0:0:
122,125,46253,54,0,P|31:189|83:250,1,200,6|8,1:2|0:2,0:0:0:0:
165,249,46721,1,0,0:0:0:0:
406,248,46878,1,0,1:2:0:0:
306,244,47034,1,0,1:2:0:0:
406,248,47190,1,8,0:2:0:0:
412,241,47346,1,0,1:2:0:0:
141,61,47503,6,0,L|26:61,1,100,2|0,1:2|0:0,0:0:0:0:
181,236,47815,2,0,L|187:343,1,100,8|0,0:2|1:2,0:0:0:0:
408,121,48128,1,2,1:2:0:0:
412,121,48206,1,0,0:0:0:0:
416,121,48284,1,0,1:2:0:0:
266,241,48440,1,8,0:0:0:0:
406,253,48596,1,0,1:2:0:0:
134,61,48753,54,0,P|133:158|239:171,1,200,2|8,1:2|0:2,0:0:0:0:
319,155,49221,1,0,0:0:0:0:
78,290,49378,1,0,1:2:0:0:
178,294,49534,1,0,1:2:0:0:
78,290,49690,1,8,0:2:0:0:
338,97,49846,6,0,L|344:226,1,100,0|0,1:2|1:0,0:0:0:0:
242,199,50159,1,0,0:0:0:0:
402,331,50315,2,0,L|274:331,1,100,8|0,0:2|1:2,0:0:0:0:
71,101,50628,1,0,1:2:0:0:
67,101,50706,1,0,3:0:0:0:
63,101,50784,1,0,1:2:0:0:
213,79,50940,1,8,0:0:0:0:
63,149,51096,1,0,1:2:0:0:
324,339,51253,54,0,P|358:242|259:222,1,200,6|8,1:2|0:2,0:0:0:0:
188,214,51721,1,0,0:0:0:0:
429,134,51878,1,0,1:2:0:0:
329,134,52034,2,0,L|444:134,1,100,0|8,1:2|0:2,0:0:0:0:
435,134,52346,1,0,1:2:0:0:
164,299,52503,6,0,L|279:299,1,100,2|0,1:2|0:0,0:0:0:0:
124,140,52815,2,0,L|118:34,1,100,8|0,0:2|1:2,0:0:0:0:
381,314,53128,1,2,1:2:0:0:
431,314,53206,1,0,0:0:0:0:
381,314,53284,1,0,1:2:0:0:
231,289,53440,1,8,0:0:0:0:
381,314,53596,1,0,1:2:0:0:
120,224,53753,54,0,P|118:117|234:113,1,200,2|8,1:2|0:2,0:0:0:0:
293,97,54221,1,0,0:0:0:0:
52,344,54378,1,0,1:2:0:0:
152,344,54534,2,0,L|37:344,1,100,0|8,1:2|0:2,0:0:0:0:
292,248,54846,6,0,L|163:248,1,100,0|0,1:2|0:0,0:0:0:0:
184,248,55159,1,0,0:0:0:0:
344,162,55315,1,8,0:2:0:0:
352,162,55471,2,0,L|244:162,1,100,0|0,1:2|1:2,0:0:0:0:
473,309,55784,1,8,0:0:0:0:
203,313,55940,1,8,0:0:0:0:
443,266,56096,2,0,L|385:267,1,50,8|8,0:0|0:0,0:0:0:0:
119,211,56253,54,0,B|107:-21,1,200,6|8,1:2|0:2,0:0:0:0:
348,333,56721,2,0,L|352:221,1,100,0|0,0:0|1:2,0:0:0:0:
192,159,57034,1,0,1:2:0:0:
342,160,57190,1,8,0:2:0:0:
192,159,57346,1,0,1:2:0:0:
453,130,57503,6,0,L|344:130,1,100,2|0,1:2|0:0,0:0:0:0:
193,260,57815,2,0,L|187:368,1,100,8|0,0:2|1:2,0:0:0:0:
348,197,58128,1,2,1:2:0:0:
198,181,58284,1,0,1:2:0:0:
438,253,58440,2,0,L|444:361,1,100,8|0,0:0|1:2,0:0:0:0:
162,91,58753,6,0,L|367:91,1,200,2|8,1:2|0:2,0:0:0:0:
122,347,59221,2,0,L|118:235,1,100,0|0,0:0|1:2,0:0:0:0:
278,173,59534,1,0,1:2:0:0:
128,174,59690,1,8,0:2:0:0:
278,173,59846,1,0,1:2:0:0:
37,297,60003,6,0,P|36:187|149:177,1,200,0|8,1:0|0:2,0:0:0:0:
207,204,60471,1,0,1:2:0:0:
458,92,60628,1,2,1:2:0:0:
462,92,60706,1,0,3:0:0:0:
466,92,60784,1,0,1:2:0:0:
316,68,60940,1,8,0:0:0:0:
466,69,61096,1,0,1:2:0:0:
215,340,61253,54,0,P|232:242|323:226,1,200,6|8,1:2|0:2,0:0:0:0:
159,216,61721,2,0,L|153:90,1,100,0|0,0:0|1:2,0:0:0:0:
395,315,62034,1,0,1:2:0:0:
265,314,62190,1,8,0:2:0:0:
135,317,62346,1,0,1:2:0:0:
406,246,62503,6,0,P|487:198|435:102,1,200,2|8,1:2|0:2,0:0:0:0:
358,107,62971,1,0,1:2:0:0:
127,325,63128,1,2,1:2:0:0:
177,326,63206,1,0,0:0:0:0:
227,329,63284,5,0,1:2:0:0:
67,242,63440,2,0,L|61:116,1,100,8|0,0:0|1:2,0:0:0:0:
344,291,63753,6,0,L|476:291,1,100,2|0,1:2|0:0,0:0:0:0:
284,327,64065,2,0,L|278:224,1,100,8|0,0:2|0:0,0:0:0:0:
38,155,64378,2,0,L|170:155,1,100,0|0,1:2|1:2,0:0:0:0:
378,167,64690,2,0,L|383:64,1,100,8|0,0:2|1:2,0:0:0:0:
142,267,65003,6,0,L|137:164,1,100,2|0,1:2|0:0,0:0:0:0:
387,292,65315,1,10,0:2:0:0:
237,289,65471,1,0,1:2:0:0:
387,292,65628,1,2,1:2:0:0:
117,144,65784,1,8,0:0:0:0:
397,145,65940,1,10,0:0:0:0:
128,340,66096,2,0,L|125:275,1,50,0|0,1:0|0:0,0:0:0:0:
347,293,66253,6,0,L|466:293,1,100,6|0,1:2|0:0,0:0:0:0:
217,294,66565,2,0,L|212:185,1,100,10|0,0:2|0:0,0:0:0:0:
444,85,66878,1,2,1:2:0:0:
294,79,67034,1,0,1:2:0:0:
444,311,67190,1,10,0:2:0:0:
164,339,67346,6,0,L|62:338,1,100,2|0,1:2|1:2,0:0:0:0:
225,260,67659,2,0,L|229:158,1,100,2|8,0:0|0:2,0:0:0:0:
479,337,67971,2,0,L|371:337,1,100,2|0,1:2|0:0,0:0:0:0:
98,101,68284,1,2,1:2:0:0:
248,103,68440,1,10,0:2:0:0:
98,101,68596,1,0,1:2:0:0:
369,249,68753,54,0,L|376:388,1,100,2|0,1:2|0:0,0:0:0:0:
144,346,69065,2,0,L|136:206,1,100,10|0,0:2|0:0,0:0:0:0:
379,145,69378,1,2,1:2:0:0:
249,135,69534,1,0,1:2:0:0:
119,135,69690,1,10,0:2:0:0:
419,215,69846,6,0,P|470:292|403:283,1,200,2|0,1:2|0:0,0:0:0:0:
160,345,70315,2,0,L|157:227,1,100,8|0,0:2|1:2,0:0:0:0:
308,244,70628,1,0,0:0:0:0:
158,245,70784,1,0,1:2:0:0:
418,350,70940,2,0,L|430:175,1,150,12|0,0:2|0:0,0:0:0:0:
176,334,71253,6,0,L|45:334,1,100,6|0,1:2|0:0,0:0:0:0:
326,89,71565,2,0,L|331:198,1,100,10|0,0:2|0:0,0:0:0:0:
99,298,71878,1,2,1:2:0:0:
249,304,72034,1,0,1:2:0:0:
99,72,72190,1,10,0:2:0:0:
379,44,72346,6,0,L|481:45,1,100,2|0,1:2|0:0,0:0:0:0:
318,294,72659,2,0,B|453:293,1,100,2|8,0:0|0:2,0:0:0:0:
158,334,72971,2,0,L|150:215,1,100,2|0,1:2|0:0,0:0:0:0:
402,123,73284,1,2,1:2:0:0:
252,125,73440,1,10,0:2:0:0:
402,123,73596,1,0,1:2:0:0:
151,350,73753,6,0,B|142:215,1,100,2|0,1:2|0:0,0:0:0:0:
376,333,74066,2,0,B|382:198,1,100,10|0,0:2|0:0,0:0:0:0:
151,168,74378,1,2,1:2:0:0:
281,176,74534,1,0,1:2:0:0:
411,175,74690,1,10,0:2:0:0:
141,357,74846,6,0,L|135:249,1,100,2|0,1:2|1:2,0:0:0:0:
286,266,75159,1,0,0:0:0:0:
126,253,75315,2,0,L|122:139,1,100,8|0,0:2|1:2,0:0:0:0:
273,317,75628,1,0,0:0:0:0:
123,314,75784,1,0,1:2:0:0:
423,197,75940,2,0,L|430:72,1,100,12|0,0:2|0:0,0:0:0:0:
167,331,76253,21,2,1:2:0:0:
317,333,76409,1,0,1:2:0:0:
57,188,76565,1,10,0:0:0:0:
337,153,76721,1,0,1:2:0:0:
186,151,76878,53,10,0:0:0:0:
337,153,77034,1,0,1:2:0:0:
87,317,77190,1,10,0:0:0:0:
367,318,77346,1,0,1:2:0:0:
216,318,77503,53,10,0:0:0:0:
456,96,77659,1,0,1:2:0:0:
186,159,77815,1,10,0:0:0:0:
336,97,77971,1,0,1:2:0:0:
65,77,78128,6,0,L|62:196,1,100,10|0,0:0|1:2,0:0:0:0:
312,343,78440,1,8,0:0:0:0:
162,330,78596,2,0,L|156:249,1,50,0|0,1:2|0:0,0:0:0:0:
381,202,78753,54,0,L|498:201,1,100,14|0,0:0|1:2,0:0:0:0:
231,112,79065,1,10,0:0:0:0:
381,111,79221,1,0,1:2:0:0:
110,330,79378,53,10,0:0:0:0:
380,326,79534,1,0,1:2:0:0:
230,319,79690,1,10,0:0:0:0:
380,237,79846,1,0,1:2:0:0:
139,190,80003,53,10,0:0:0:0:
289,194,80159,1,0,1:2:0:0:
39,80,80315,1,10,0:0:0:0:
289,82,80471,1,0,1:2:0:0:
38,247,80628,6,0,L|35:366,1,100,10|0,0:0|1:2,0:0:0:0:
315,332,80940,1,12,0:0:0:0:
165,223,81096,2,0,L|246:223,1,50,0|0,1:2|0:0,0:0:0:0:
458,152,81253,54,0,L|347:151,1,100,14|0,0:0|1:2,0:0:0:0:
98,334,81565,1,10,0:0:0:0:
348,330,81721,1,0,1:2:0:0:
197,293,81878,53,10,0:0:0:0:
457,255,82034,1,0,1:2:0:0:
307,251,82190,1,10,0:0:0:0:
457,255,82346,1,0,1:2:0:0:
186,177,82503,53,10,0:0:0:0:
335,127,82659,1,0,1:2:0:0:
85,333,82815,1,10,0:0:0:0:
365,337,82971,1,0,1:2:0:0:
84,107,83128,6,0,L|78:225,1,100,10|0,0:0|1:2,0:0:0:0:
339,329,83440,2,0,L|350:214,1,100,8|0,0:0|1:2,0:0:0:0:
352,229,83674,1,0,0:0:0:0:
88,226,83753,54,0,L|84:348,1,100,14|0,0:0|1:2,0:0:0:0:
324,128,84065,1,10,0:0:0:0:
174,139,84221,1,0,1:2:0:0:
445,310,84378,53,10,0:0:0:0:
295,317,84534,1,0,1:2:0:0:
445,310,84690,1,10,0:0:0:0:
165,137,84846,1,0,1:2:0:0:
406,138,85003,53,10,0:0:0:0:
87,336,85159,1,0,1:2:0:0:
237,331,85315,1,10,0:0:0:0:
87,336,85471,1,0,1:2:0:0:
378,61,85628,6,0,L|384:179,1,100,10|0,0:0|1:2,0:0:0:0:
84,185,85940,2,0,L|71:53,1,100,12|0,0:0|1:2,0:0:0:0:
70,85,86174,1,0,0:0:0:0:
335,292,86253,54,0,L|448:292,1,100,6|0,1:2|0:0,0:0:0:0:
195,283,86565,2,0,L|86:283,1,100,10|0,1:2|0:0,0:0:0:0:
396,191,86878,1,10,1:2:0:0:
166,189,87034,2,0,L|159:74,1,100,8|2,0:0|1:2,0:0:0:0:
410,74,87346,6,0,L|292:74,1,100,8|2,0:0|1:2,0:0:0:0:
49,340,87659,1,8,0:0:0:0:
289,303,87815,2,0,L|179:303,1,100,10|0,1:2|0:0,0:0:0:0:
430,276,88128,2,0,L|437:137,1,100,10|0,1:2|0:0,0:0:0:0:
170,177,88440,1,8,1:2:0:0:
320,200,88596,2,0,L|325:119,1,50,0|0,1:2|1:0,0:0:0:0:
50,41,88753,6,0,L|41:175,1,100,6|0,1:2|0:0,0:0:0:0:
283,334,89065,2,0,L|403:333,1,100,10|0,1:2|0:0,0:0:0:0:
102,159,89378,1,10,1:2:0:0:
332,166,89534,2,0,L|338:57,1,100,8|2,0:0|1:2,0:0:0:0:
88,338,89846,6,0,L|218:337,1,100,8|2,0:0|1:2,0:0:0:0:
449,322,90159,1,8,0:0:0:0:
219,262,90315,2,0,L|331:262,1,100,10|0,1:2|0:0,0:0:0:0:
78,144,90628,2,0,L|296:144,1,200,10|8,1:2|1:2,0:0:0:0:
128,351,91096,2,0,L|122:270,1,50,0|0,1:2|1:0,0:0:0:0:
387,340,91253,54,0,L|498:340,1,100,6|0,1:2|0:0,0:0:0:0:
252,306,91565,2,0,L|248:195,1,100,10|0,1:2|0:0,0:0:0:0:
22,151,91878,1,10,1:2:0:0:
252,144,92034,2,0,L|143:144,1,100,8|2,0:0|1:2,0:0:0:0:
422,241,92346,6,0,L|425:345,1,100,8|2,0:0|1:2,0:0:0:0:
154,299,92659,1,8,0:0:0:0:
394,154,92815,2,0,L|399:46,1,100,10|0,1:2|0:0,0:0:0:0:
128,336,93128,2,0,L|337:319,1,200,10|8,1:2|1:2,0:0:0:0:
178,235,93596,2,0,L|107:235,1,50,0|0,1:2|1:0,0:0:0:0:
371,291,93753,6,0,L|483:291,1,100,6|0,1:2|0:0,0:0:0:0:
172,300,94065,2,0,L|165:193,1,100,10|0,1:2|0:0,0:0:0:0:
407,179,94378,1,10,1:2:0:0:
127,172,94534,2,0,L|121:64,1,100,8|2,0:0|1:2,0:0:0:0:
382,147,94846,6,0,L|386:30,1,100,12|0,0:0|0:0,0:0:0:0:
124,336,95159,2,0,L|118:229,1,100,12|0,0:0|0:0,0:0:0:0:
348,172,95471,1,12,0:0:0:0:
117,145,95628,5,8,0:0:0:0:
267,340,95784,1,8,0:0:0:0:
272,340,95862,1,8,0:0:0:0:
102,95,95940,1,0,1:0:0:0:
382,207,96096,2,0,L|301:207,1,50,0|0,1:0|0:0,0:0:0:0:
99,326,96253,22,0,P|39:242|109:217,1,200,6|8,1:2|0:2,0:0:0:0:
329,110,96721,1,2,0:0:0:0:
188,108,96878,1,2,1:2:0:0:
328,337,97034,2,0,L|332:229,1,100,0|10,1:2|0:2,0:0:0:0:
52,243,97346,6,0,L|45:368,1,100,2|0,1:2|0:0,0:0:0:0:
278,54,97659,2,0,L|284:179,1,100,2|8,0:0|0:2,0:0:0:0:
143,134,97971,1,2,1:2:0:0:
384,320,98128,1,2,1:2:0:0:
434,325,98206,1,0,3:2:0:0:
384,320,98284,1,0,1:2:0:0:
134,349,98440,2,0,L|130:231,1,100,8|2,0:2|1:2,0:0:0:0:
372,132,98753,6,0,L|174:103,1,200,2|8,1:2|0:2,0:0:0:0:
414,320,99221,1,2,0:0:0:0:
273,326,99378,1,2,1:2:0:0:
413,189,99534,2,0,L|417:294,1,100,0|10,1:2|0:2,0:0:0:0:
187,116,99846,6,0,L|323:116,1,100,2|0,1:2|0:0,0:0:0:0:
46,252,100159,2,0,L|162:252,2,100,2|8|2,0:0|0:2|1:2,0:0:0:0:
307,336,100628,1,2,1:2:0:0:
311,336,100706,1,0,3:2:0:0:
315,336,100784,1,0,1:2:0:0:
175,155,100940,1,8,0:2:0:0:
415,72,101096,2,0,L|419:132,1,50,2|0,1:2|0:0,0:0:0:0:
165,321,101253,54,0,L|383:303,1,200,6|8,1:2|0:2,0:0:0:0:
125,163,101721,1,2,0:0:0:0:
266,245,101878,1,2,1:2:0:0:
126,321,102034,2,0,L|119:208,1,100,0|10,1:2|0:2,0:0:0:0:
399,120,102346,6,0,L|273:120,1,100,2|0,1:2|0:0,0:0:0:0:
68,81,102659,2,0,L|194:81,1,100,2|8,0:0|0:2,0:0:0:0:
408,337,102971,1,2,1:2:0:0:
177,315,103128,1,2,1:2:0:0:
227,315,103206,1,0,3:2:0:0:
277,316,103284,1,0,1:2:0:0:
47,247,103440,2,0,L|40:372,1,100,8|2,0:2|1:2,0:0:0:0:
343,294,103753,6,0,L|142:276,1,200,2|8,1:2|0:2,0:0:0:0:
284,206,104221,1,2,0:0:0:0:
53,121,104378,5,6,1:2:0:0:
333,333,104534,1,8,0:0:0:0:
343,333,104612,1,8,0:0:0:0:
114,331,104690,1,8,0:0:0:0:
394,89,104846,1,2,1:2:0:0:
