osu file format v14

[General]
AudioFilename: audio.mp3
AudioLeadIn: 0
PreviewTime: 66096
Countdown: 0
SampleSet: Soft
StackLeniency: 0.7
Mode: 2
LetterboxInBreaks: 0
WidescreenStoryboard: 1

[Editor]
DistanceSpacing: 0.6
BeatDivisor: 4
GridSize: 8
TimelineZoom: 1

[Metadata]
Title:AaAaAaAAaAaAAa (Cut Ver.)
TitleUnicode:あぁあぁあぁああぁあぁああぁ (Cut Ver.)
Artist:Nashimoto Ui
ArtistUnicode:梨本うい
Creator:Mochi -
Version:Hex's Platter
Source:
Tags:hatsune miku vocaloid 初音ミク 梨本p nashimotop japanese rock jrock j-rock original cut short version ver fa featured artist mg mpg mappers' guild stardust prism -hex- -Aku bad_mapper overranked verti sotarks mniam おわり end
BeatmapID:4523574
BeatmapSetID:2147529

[Difficulty]
HPDrainRate:4
CircleSize:3.5
OverallDifficulty:8
ApproachRate:8
SliderMultiplier:1.55
SliderTickRate:1

[Events]
//Background and Video events
0,0,"bg.jpg",0,0
//Break Periods
//Storyboard Layer 0 (Background)
//Storyboard Layer 1 (Fail)
//Storyboard Layer 2 (Pass)
//Storyboard Layer 3 (Foreground)
//Storyboard Layer 4 (Overlay)
//Storyboard Sound Samples

[TimingPoints]
1253,312.5,4,2,22,52,1,0
1253,-100,4,2,22,52,0,0
6253,-100,4,2,22,62,0,0
9846,-100,4,2,22,62,0,0
10315,-100,4,2,22,52,0,0
10940,-100,4,2,22,62,0,0
11253,-100,4,2,22,72,0,0
21253,-100,4,2,22,62,0,0
66253,-100,4,2,22,72,0,0
76253,-100,4,2,22,82,0,1
80940,-100,4,2,22,82,0,1
81174,-100,4,2,22,82,0,1
81253,-100,4,2,22,82,0,1
85940,-100,4,2,22,82,0,1
86174,-100,4,2,22,5,0,1
86253,-100,4,2,22,82,0,1
96253,-100,4,2,22,62,0,0

[Colours]
Combo1 : 217,126,36
Combo2 : 119,131,170
Combo3 : 49,170,191

[HitObjects]
65,232,1253,6,0,P|33:179|94:103,1,155,2|0,1:2|1:2,0:0:0:0:
155,99,1721,2,0,L|237:89,2,77.5,2|2|0,0:0|1:2|0:0,0:0:0:0:
311,268,2346,6,0,L|474:284,2,155,2|2|2,0:0|0:0|0:0,0:0:0:0:
233,216,3128,1,2,1:2:0:0:
311,153,3284,1,0,0:0:0:0:
466,58,3596,1,0,0:0:0:0:
310,42,3753,6,0,L|303:129,1,77.5,2|0,1:2|0:0,0:0:0:0:
458,248,4221,1,2,0:0:0:0:
379,249,4378,1,2,1:2:0:0:
301,248,4534,1,0,0:0:0:0:
147,88,4846,6,0,P|198:94|291:145,2,155,2|2|2,0:0|0:0|0:0,0:0:0:0:
224,51,5628,1,2,1:2:0:0:
224,51,5784,1,0,0:0:0:0:
68,121,5940,2,0,L|57:223,1,77.5,2|0,1:2|0:0,0:0:0:0:
287,317,6253,6,0,L|445:307,1,155,10|8,1:2|0:0,0:0:0:0:
363,240,6721,1,2,1:2:0:0:
207,229,6878,2,0,L|102:227,2,77.5,10|8|0,0:0|0:0|1:2,0:0:0:0:
361,149,7346,6,0,P|411:102|345:64,1,155,10|10,0:0|0:0,0:0:0:0:
282,61,7815,1,8,0:0:0:0:
357,59,7971,1,2,1:2:0:0:
201,171,8128,2,0,L|45:167,1,155,10|8,0:0|0:0,0:0:0:0:
124,241,8596,1,2,1:2:0:0:
280,339,8753,6,0,P|317:298|262:227,1,155,10|8,0:0|0:0,0:0:0:0:
190,216,9221,1,2,1:2:0:0:
33,108,9378,2,0,L|140:107,2,77.5,10|8|0,0:0|0:0|1:2,0:0:0:0:
258,23,9846,6,0,P|393:106|265:327,1,465,14|0,0:0|1:0,0:0:0:0:
113,344,10940,2,0,L|104:251,1,77.5,8|0,0:0|0:0,0:0:0:0:
347,99,11253,6,2,P|415:122|477:192,2,155,6|8|2,1:2|0:0|1:2,0:0:0:0:
269,91,12034,1,0,1:2:0:0:
192,87,12190,1,8,0:0:0:0:
347,324,12346,5,2,0:0:0:0:
426,241,12503,2,0,L|272:238,1,155,0|8,1:2|0:0,0:0:0:0:
351,168,12971,2,0,P|386:132|332:53,1,155,0|0,1:2|1:2,0:0:0:0:
261,49,13440,1,8,0:0:0:0:
338,44,13596,1,0,0:0:0:0:
180,214,13753,6,0,L|22:232,2,155,2|8|2,1:2|0:0|1:2,0:0:0:0:
258,167,14534,1,0,1:2:0:0:
180,119,14690,1,8,0:0:0:0:
335,19,14846,1,2,0:0:0:0:
414,92,15003,6,0,L|254:105,1,155,0|8,1:2|0:0,0:0:0:0:
181,177,15471,2,0,L|348:191,1,155,0|0,1:2|1:2,0:0:0:0:
180,306,15940,2,0,L|74:304,1,77.5,8|0,0:0|0:0,0:0:0:0:
329,235,16253,6,0,P|386:242|479:282,2,155,2|8|2,1:2|0:0|1:2,0:0:0:0:
405,159,17034,1,0,1:2:0:0:
328,130,17190,1,8,0:0:0:0:
172,41,17346,1,2,0:0:0:0:
92,98,17503,6,0,L|251:113,1,155,0|8,0:0|0:0,0:0:0:0:
167,183,17971,2,0,P|114:229|170:269,1,155,0|0,1:2|1:2,0:0:0:0:
246,346,18440,2,0,L|136:340,1,77.5,8|0,0:0|0:0,0:0:0:0:
321,250,18753,6,0,L|485:236,2,155,2|8|2,1:2|0:0|1:2,0:0:0:0:
243,170,19534,2,0,L|233:86,1,77.5,0|8,1:2|0:0,0:0:0:0:
389,19,19846,1,2,0:0:0:0:
468,99,20003,6,0,P|396:110|278:118,1,155,0|8,1:2|0:0,0:0:0:0:
236,121,20471,2,0,P|185:155|239:213,1,155,0|0,1:2|1:2,0:0:0:0:
387,252,20940,2,0,L|440:254,2,38.75,8|8|8,0:0|0:0|0:0,0:0:0:0:
147,339,21253,6,0,L|-16:322,2,155,6|8|0,1:2|0:2|1:2,0:0:0:0:
224,356,22034,1,0,1:2:0:0:
301,360,22190,1,8,0:2:0:0:
224,356,22346,6,0,P|180:283|228:234,1,155,0|0,1:2|0:0,0:0:0:0:
295,162,22815,1,8,0:2:0:0:
218,157,22971,1,0,1:2:0:0:
62,162,23128,1,2,1:2:0:0:
34,92,23284,1,0,1:2:0:0:
69,26,23440,1,8,0:0:0:0:
143,11,23596,1,0,1:2:0:0:
299,21,23753,6,0,L|473:40,2,155,2|8|0,1:2|0:2|1:2,0:0:0:0:
223,8,24534,1,0,1:2:0:0:
302,73,24690,1,8,0:2:0:0:
380,116,24846,6,0,P|418:183|371:252,1,155,0|0,1:2|0:0,0:0:0:0:
302,273,25315,1,8,0:2:0:0:
380,359,25471,2,0,L|204:365,1,155,0|0,1:2|1:2,0:0:0:0:
303,287,25940,1,8,0:0:0:0:
382,226,26096,1,0,1:2:0:0:
153,63,26253,6,0,L|-6:40,2,155,6|8|0,1:2|0:2|1:2,0:0:0:0:
232,68,27034,1,0,1:2:0:0:
152,118,27190,1,8,0:2:0:0:
228,180,27346,6,0,L|393:192,1,155,0|0,1:2|0:0,0:0:0:0:
302,282,27815,1,8,0:2:0:0:
226,270,27971,1,0,1:2:0:0:
384,359,28128,1,2,1:2:0:0:
419,292,28284,1,0,1:2:0:0:
395,221,28440,1,8,0:0:0:0:
327,190,28596,1,0,1:2:0:0:
169,292,28753,6,0,P|130:310|9:347,2,155,2|8|0,1:2|0:2|1:2,0:0:0:0:
245,224,29534,1,0,1:2:0:0:
164,156,29690,1,8,0:2:0:0:
87,81,29846,6,0,P|133:70|231:2,1,155,0|0,1:2|0:0,0:0:0:0:
66,21,30315,2,0,L|59:118,1,77.5,8|0,0:2|1:2,0:0:0:0:
138,101,30628,1,0,1:2:0:0:
292,255,30784,2,0,L|385:259,2,77.5,8|8|8,0:0|0:0|0:0,0:0:0:0:
62,151,31253,6,0,P|42:102|120:54,1,155,6|10,1:2|0:2,0:0:0:0:
191,23,31721,2,0,P|142:30|18:0,1,155,2|2,0:0|1:2,0:0:0:0:
116,119,32190,1,10,0:2:0:0:
40,182,32346,1,2,1:2:0:0:
119,254,32503,6,0,P|193:263|296:304,1,155,2|10,1:2|0:2,0:0:0:0:
348,360,32971,1,2,1:2:0:0:
190,360,33128,1,2,1:2:0:0:
112,271,33284,2,0,L|189:270,2,77.5,2|10|2,1:2|0:0|1:2,0:0:0:0:
269,195,33753,6,0,L|445:190,1,155,2|10,1:2|0:2,0:0:0:0:
339,119,34221,2,0,P|393:106|509:123,1,155,2|2,0:0|1:2,0:0:0:0:
413,30,34690,1,10,0:2:0:0:
489,139,34846,1,2,1:2:0:0:
409,230,35003,6,0,P|360:245|222:245,1,155,2|10,1:2|0:2,0:0:0:0:
334,343,35471,2,0,L|336:243,1,77.5,2|2,1:2|1:2,0:0:0:0:
176,196,35784,2,0,L|62:185,2,77.5,2|10|2,1:2|0:0|1:2,0:0:0:0:
402,34,36253,6,0,P|439:81|402:168,1,155,6|10,1:2|0:2,0:0:0:0:
331,192,36721,2,0,P|309:236|332:342,1,155,2|2,0:0|1:2,0:0:0:0:
409,363,37190,1,10,0:2:0:0:
330,341,37346,1,2,1:2:0:0:
253,314,37503,6,0,P|302:276|425:254,1,155,2|10,1:2|0:2,0:0:0:0:
313,192,37971,2,0,P|258:188|187:101,1,155,2|2,1:2|1:2,0:0:0:0:
269,54,38440,2,0,L|164:48,1,77.5,10|2,0:0|1:2,0:0:0:0:
33,168,38753,6,0,P|62:212|162:252,1,155,2|10,1:2|0:2,0:0:0:0:
230,305,39221,2,0,P|187:331|81:365,1,155,2|2,0:0|1:2,0:0:0:0:
12,257,39690,1,10,0:2:0:0:
90,324,39846,1,2,1:2:0:0:
248,352,40003,6,0,P|238:291|153:225,1,155,2|10,1:2|0:2,0:0:0:0:
94,233,40471,2,0,L|89:139,1,77.5,2|2,1:2|1:2,0:0:0:0:
248,119,40784,1,10,0:0:0:0:
93,104,40940,2,0,L|90:25,1,77.5,10|2,0:0|1:2,0:0:0:0:
333,25,41253,6,0,L|519:22,1,155,6|8,1:2|0:2,0:0:0:0:
333,95,41721,2,0,L|240:96,2,77.5,2|0|0,0:0|1:2|1:2,0:0:0:0:
83,306,42346,6,0,L|256:320,2,155,2|2|2,0:0|0:0|1:2,0:0:0:0:
161,177,43128,2,0,L|59:169,1,77.5,2|0,0:0|1:2,0:0:0:0:
20,93,43440,2,0,L|115:91,1,77.5,8|2,0:2|0:0,0:0:0:0:
256,172,43753,6,0,P|300:209|237:280,1,155,2|8,1:2|0:2,0:0:0:0:
178,276,44221,1,2,0:0:0:0:
335,341,44378,2,0,L|428:342,1,77.5,2|0,1:2|1:2,0:0:0:0:
167,128,44846,6,0,P|105:145|8:215,2,155,2|2|2,0:0|0:0|1:2,0:0:0:0:
392,114,45628,1,0,1:2:0:0:
469,119,45784,2,0,L|482:184,2,38.75,8|8|8,0:2|0:2|0:2,0:0:0:0:
392,114,46096,1,8,0:2:0:0:
151,269,46253,6,0,P|37:307|9:344,2,155,6|8|0,1:2|0:2|1:2,0:0:0:0:
229,195,47034,1,0,1:2:0:0:
151,189,47190,1,8,0:2:0:0:
76,171,47346,1,0,1:2:0:0:
234,28,47503,6,0,P|284:69|220:120,1,155,2|8,1:2|0:2,0:0:0:0:
159,128,47971,1,0,1:2:0:0:
313,295,48128,2,0,L|124:288,1,155,2|8,1:2|0:0,0:0:0:0:
80,289,48596,1,0,1:2:0:0:
238,118,48753,6,0,L|396:154,2,155,2|8|0,1:2|0:2|1:2,0:0:0:0:
162,110,49534,1,0,1:2:0:0:
240,157,49690,1,8,0:2:0:0:
163,215,49846,6,0,L|155:378,1,155,0|0,1:2|0:0,0:0:0:0:
236,367,50315,1,8,0:2:0:0:
315,299,50471,2,0,P|356:272|304:198,1,155,0|0,1:2|1:2,0:0:0:0:
154,195,50940,2,0,L|148:101,1,77.5,8|0,0:0|1:2,0:0:0:0:
375,54,51253,6,0,P|430:63|506:132,2,155,6|8|0,1:2|0:2|1:2,0:0:0:0:
298,99,52034,1,0,1:2:0:0:
374,167,52190,1,8,0:2:0:0:
450,252,52346,1,0,1:2:0:0:
296,326,52503,6,0,L|113:316,1,155,2|8,1:2|0:2,0:0:0:0:
220,245,52971,1,0,1:2:0:0:
65,246,53128,2,0,P|29:206|93:144,1,155,2|8,1:2|0:0,0:0:0:0:
162,159,53596,1,0,1:2:0:0:
316,94,53753,6,0,P|372:114|453:204,2,155,2|8|0,1:2|0:2|1:2,0:0:0:0:
239,86,54534,1,0,1:2:0:0:
315,143,54690,1,8,0:2:0:0:
238,223,54846,6,0,L|409:243,1,155,0|0,1:2|0:0,0:0:0:0:
236,338,55315,1,8,0:2:0:0:
160,330,55471,2,0,L|155:247,1,77.5,0|0,1:2|1:2,0:0:0:0:
315,153,55784,1,8,0:0:0:0:
390,165,55940,1,8,0:0:0:0:
390,165,56096,1,8,0:0:0:0:
164,165,56253,6,0,P|64:177|13:224,2,155,6|8|0,1:2|0:2|1:2,0:0:0:0:
166,263,57034,1,0,1:2:0:0:
87,313,57190,1,8,0:2:0:0:
159,255,57346,1,0,1:2:0:0:
307,196,57503,6,0,P|335:163|290:65,1,155,2|8,1:2|0:2,0:0:0:0:
226,70,57971,1,0,1:2:0:0:
382,28,58128,2,0,P|448:43|509:121,1,155,2|8,1:2|0:0,0:0:0:0:
427,151,58596,1,0,1:2:0:0:
273,260,58753,6,0,P|193:287|129:348,2,155,2|8|0,1:2|0:2|1:2,0:0:0:0:
351,247,59534,1,0,1:2:0:0:
273,327,59690,1,8,0:2:0:0:
195,333,59846,6,0,L|188:170,1,155,0|0,1:2|0:0,0:0:0:0:
257,149,60315,1,8,0:2:0:0:
284,78,60471,1,0,1:2:0:0:
252,10,60627,1,2,1:2:0:0:
180,0,60784,1,0,1:2:0:0:
23,79,60940,2,0,L|25:177,1,77.5,8|0,0:0|1:2,0:0:0:0:
252,306,61253,6,0,P|358:332|408:350,2,155,6|8|0,1:2|0:2|1:2,0:0:0:0:
174,245,62034,1,0,1:2:0:0:
252,205,62190,1,8,0:2:0:0:
331,190,62346,1,0,1:2:0:0:
176,21,62503,6,0,P|122:67|172:114,1,155,2|8,1:2|0:2,0:0:0:0:
246,153,62971,1,0,1:2:0:0:
403,260,63128,2,0,P|340:279|229:281,1,155,2|8,1:2|0:0,0:0:0:0:
328,365,63596,1,0,1:2:0:0:
481,275,63753,6,0,P|409:253|315:262,2,155,2|8|0,1:2|0:2|1:2,0:0:0:0:
403,174,64534,2,0,L|309:168,2,77.5,0|8|0,1:2|0:2|1:2,0:0:0:0:
250,34,65003,6,0,L|250:132,1,77.5,2|0,1:2|0:0,0:0:0:0:
327,132,65315,2,0,L|329:240,1,77.5,10|0,0:2|1:2,0:0:0:0:
407,241,65628,1,2,1:2:0:0:
251,301,65784,1,8,0:0:0:0:
407,241,65940,2,0,L|407:347,1,77.5,10|0,0:0|1:0,0:0:0:0:
164,102,66253,6,0,L|-1:92,2,155,6|10|2,1:2|0:2|1:2,0:0:0:0:
242,150,67034,1,0,1:2:0:0:
164,211,67190,1,10,0:2:0:0:
323,340,67346,6,0,L|158:329,1,155,2|2,1:2|0:0,0:0:0:0:
244,277,67815,1,8,0:2:0:0:
396,278,67971,2,0,P|431:247|380:169,1,155,2|2,1:2|1:2,0:0:0:0:
224,174,68440,2,0,L|216:86,1,77.5,10|0,0:2|1:2,0:0:0:0:
371,54,68753,6,0,P|433:79|500:159,2,155,2|10|2,1:2|0:2|1:2,0:0:0:0:
291,49,69534,1,0,1:2:0:0:
370,132,69690,1,10,0:2:0:0:
213,196,69846,6,0,L|43:210,1,155,2|0,1:2|0:0,0:0:0:0:
137,118,70315,1,8,0:2:0:0:
213,104,70471,2,0,P|250:145|276:250,1,155,0|0,1:2|1:2,0:0:0:0:
51,250,70940,2,0,L|43:335,1,77.5,12|0,0:2|0:0,0:0:0:0:
284,346,71253,6,0,L|464:299,2,155,6|10|2,1:2|0:2|1:2,0:0:0:0:
206,281,72034,1,0,1:2:0:0:
283,243,72190,1,10,0:2:0:0:
436,169,72346,6,0,P|480:119|408:59,1,155,2|2,1:2|0:0,0:0:0:0:
358,63,72815,1,8,0:2:0:0:
204,204,72971,2,0,P|256:223|366:213,1,155,2|2,1:2|1:2,0:0:0:0:
198,50,73440,2,0,L|197:134,1,77.5,10|0,0:2|1:2,0:0:0:0:
351,299,73753,6,0,L|511:305,2,155,2|10|2,1:2|0:2|1:2,0:0:0:0:
429,224,74534,2,0,L|333:218,1,77.5,0|10,1:2|0:2,0:0:0:0:
193,43,74846,6,0,P|154:83|202:165,1,155,2|0,1:2|0:0,0:0:0:0:
264,165,75315,1,8,0:2:0:0:
336,295,75471,2,0,L|165:296,1,155,0|0,1:2|1:2,0:0:0:0:
407,348,75940,2,0,L|412:261,1,77.5,12|0,0:2|0:0,0:0:0:0:
171,71,76253,6,0,L|172:159,1,77.5,2|0,1:2|1:2,0:0:0:0:
247,213,76565,2,0,L|153:214,1,77.5,10|0,0:0|1:2,0:0:0:0:
93,281,76878,2,0,L|199:282,1,77.5,10|0,0:0|1:2,0:0:0:0:
93,352,77190,2,0,L|92:249,1,77.5,10|0,0:0|1:2,0:0:0:0:
247,241,77503,6,0,L|339:241,3,77.5,10|0|10|0,0:0|1:2|0:0|1:2,0:0:0:0:
481,41,78128,2,0,L|482:225,1,155,10|8,0:0|0:0,0:0:0:0:
98,172,78753,6,0,L|2:173,1,77.5,14|0,0:0|1:2,0:0:0:0:
98,252,79065,2,0,L|211:249,1,77.5,10|0,0:0|1:2,0:0:0:0:
98,352,79378,2,0,L|95:257,1,77.5,10|0,0:0|1:2,0:0:0:0:
175,168,79690,2,0,L|80:171,1,77.5,10|0,0:0|1:2,0:0:0:0:
254,259,80003,6,0,L|348:257,3,77.5,10|0|10|0,0:0|1:2|0:0|1:2,0:0:0:0:
176,135,80628,2,0,L|172:44,1,77.5,10|0,0:0|1:2,0:0:0:0:
397,24,80940,2,0,L|400:113,1,77.5,12|0,0:0|0:0,0:0:0:0:
156,301,81253,6,0,L|42:299,1,77.5,14|0,0:0|1:2,0:0:0:0:
158,219,81565,2,0,L|242:221,1,77.5,10|0,0:0|1:2,0:0:0:0:
314,128,81878,2,0,L|215:129,1,77.5,10|0,0:0|1:2,0:0:0:0:
313,59,82190,2,0,L|397:57,1,77.5,10|0,0:0|1:2,0:0:0:0:
237,236,82503,6,0,L|138:236,3,77.5,10|0|10|0,0:0|1:2|0:0|1:2,0:0:0:0:
11,27,83128,2,0,L|9:184,1,155,10|8,0:0|0:0,0:0:0:0:
397,337,83753,6,0,L|498:336,1,77.5,14|0,0:0|1:2,0:0:0:0:
396,261,84065,2,0,L|394:161,1,77.5,10|0,0:0|1:2,0:0:0:0:
315,131,84378,2,0,L|408:131,1,77.5,10|0,0:0|1:2,0:0:0:0:
470,48,84690,2,0,L|383:49,1,77.5,10|0,0:0|1:2,0:0:0:0:
236,183,85003,6,0,L|132:181,3,77.5,10|0|10|0,0:0|1:2|0:0|1:2,0:0:0:0:
314,90,85628,2,0,L|407:90,1,77.5,10|0,0:0|1:2,0:0:0:0:
167,263,85940,2,0,L|78:265,1,77.5,12|0,0:0|0:0,0:0:0:0:
331,349,86253,6,0,L|415:349,1,77.5,6|0,1:2|0:0,0:0:0:0:
331,349,86565,2,0,L|246:350,1,77.5,10|0,1:2|0:0,0:0:0:0:
410,138,86878,1,10,1:2:0:0:
482,143,87034,2,0,L|486:232,1,77.5,8|2,0:0|1:2,0:0:0:0:
329,250,87346,6,0,L|165:249,1,155,8|8,0:0|0:0,0:0:0:0:
252,171,87815,1,10,1:2:0:0:
329,173,87971,1,0,0:0:0:0:
486,335,88128,2,0,P|495:281|458:167,1,155,10|8,1:2|1:2,0:0:0:0:
80,14,88753,6,0,L|82:102,1,77.5,6|0,1:2|0:0,0:0:0:0:
162,162,89065,2,0,L|70:164,1,77.5,10|0,1:2|0:0,0:0:0:0:
241,233,89378,1,10,1:2:0:0:
163,230,89534,2,0,L|160:334,1,77.5,8|2,0:0|1:2,0:0:0:0:
317,362,89846,6,0,L|474:366,1,155,8|8,0:0|0:0,0:0:0:0:
394,299,90315,1,10,1:2:0:0:
317,299,90471,1,0,0:0:0:0:
161,287,90628,2,0,L|157:189,1,77.5,10|0,1:2|0:0,0:0:0:0:
313,143,90940,2,0,L|320:41,1,77.5,8|0,1:2|1:2,0:0:0:0:
91,9,91253,6,0,L|84:96,1,77.5,6|0,1:2|0:0,0:0:0:0:
153,96,91565,2,0,L|60:97,1,77.5,10|0,1:2|0:0,0:0:0:0:
230,188,91878,1,10,1:2:0:0:
151,194,92034,2,0,L|151:274,1,77.5,8|2,0:0|1:2,0:0:0:0:
307,356,92346,6,0,L|472:339,1,155,8|8,0:0|0:0,0:0:0:0:
382,277,92815,1,10,1:2:0:0:
304,278,92971,1,0,0:0:0:0:
146,266,93128,2,0,P|94:232|96:123,1,155,10|8,1:2|1:2,0:0:0:0:
472,23,93753,6,0,L|476:105,1,77.5,6|0,1:2|0:0,0:0:0:0:
400,148,94065,2,0,L|491:152,1,77.5,10|0,1:2|0:0,0:0:0:0:
321,218,94378,1,10,1:2:0:0:
396,216,94534,2,0,L|400:305,1,77.5,8|2,0:0|1:2,0:0:0:0:
175,345,94846,6,0,L|344:361,2,155,12|12|12,0:0|0:0|0:0,0:0:0:0:
401,265,95628,1,8,0:0:0:0:
480,209,95784,2,0,L|492:151,2,38.75,8|8|0,0:0|0:0|1:0,0:0:0:0:
401,265,96096,1,0,1:0:0:0:
173,30,96253,6,0,P|130:64|188:134,1,155,6|8,1:2|0:2,0:0:0:0:
249,156,96721,2,0,L|347:159,2,77.5,2|2|0,0:0|1:2|1:2,0:0:0:0:
97,299,97346,6,0,P|176:306|246:340,2,155,2|2|2,1:2|0:0|1:2,0:0:0:0:
177,220,98128,2,0,L|93:211,1,77.5,2|0,1:2|1:2,0:0:0:0:
255,55,98596,1,2,1:2:0:0:
410,65,98753,6,0,L|415:150,1,77.5,2|0,1:2|0:0,0:0:0:0:
260,256,99221,1,2,0:0:0:0:
337,262,99377,1,2,1:2:0:0:
414,269,99533,1,0,1:2:0:0:
256,361,99846,6,0,L|431:363,2,155,2|2|2,1:2|0:0|1:2,0:0:0:0:
178,292,100628,1,2,1:2:0:0:
255,243,100784,1,0,1:2:0:0:
413,199,100940,2,0,L|416:103,1,77.5,8|2,0:2|1:2,0:0:0:0:
187,33,101253,6,0,L|22:25,1,155,6|8,1:2|0:2,0:0:0:0:
111,96,101721,2,0,L|116:179,1,77.5,2|2,0:0|1:2,0:0:0:0:
39,200,102034,1,0,1:2:0:0:
195,324,102346,6,0,L|33:361,2,155,2|2|2,1:2|0:0|1:2,0:0:0:0:
273,241,103128,2,0,L|182:224,1,77.5,2|0,1:2|1:2,0:0:0:0:
349,43,103596,1,2,1:2:0:0:
192,36,103753,6,0,L|185:124,1,77.5,2|0,1:2|0:0,0:0:0:0:
344,225,104221,1,2,0:0:0:0:
116,201,104378,1,6,1:2:0:0:
39,107,104534,2,0,L|34:69,2,38.75,8|8|8,0:0|0:0|0:0,0:0:0:0:
280,21,104846,5,2,1:2:0:0:
