osu file format v14

[General]
AudioFilename: audio.mp3
AudioLeadIn: 0
PreviewTime: 66096
Countdown: 0
SampleSet: Soft
StackLeniency: 0.7
Mode: 2
LetterboxInBreaks: 0
WidescreenStoryboard: 1

[Editor]
DistanceSpacing: 0.6
BeatDivisor: 4
GridSize: 8
TimelineZoom: 1

[Metadata]
Title:AaAaAaAAaAaAAa (Cut Ver.)
TitleUnicode:あぁあぁあぁああぁあぁああぁ (Cut Ver.)
Artist:Nashimoto Ui
ArtistUnicode:梨本うい
Creator:Mochi -
Version:Aku's Rain
Source:
Tags:hatsune miku vocaloid 初音ミク 梨本p nashimotop japanese rock jrock j-rock original cut short version ver fa featured artist mg mpg mappers' guild stardust prism -hex- -Aku bad_mapper overranked verti sotarks mniam おわり end
BeatmapID:4523572
BeatmapSetID:2147529

[Difficulty]
HPDrainRate:4.5
CircleSize:3.8
OverallDifficulty:9
ApproachRate:9
SliderMultiplier:1.9
SliderTickRate:2

[Events]
//Background and Video events
0,0,"bg.jpg",0,0
//Break Periods
//Storyboard Layer 0 (Background)
//Storyboard Layer 1 (Fail)
//Storyboard Layer 2 (Pass)
//Storyboard Layer 3 (Foreground)
//Storyboard Layer 4 (Overlay)
//Storyboard Sound Samples

[TimingPoints]
1253,312.5,4,2,22,52,1,0
6253,-100,4,2,22,62,0,0
10315,-100,4,2,22,52,0,0
10940,-100,4,2,22,62,0,0
11253,-100,4,2,22,72,0,0
21253,-100,4,2,22,62,0,0
66253,-100,4,2,22,72,0,0
76253,-100,4,2,22,82,0,1
86174,-100,4,2,22,5,0,1
86253,-100,4,2,22,82,0,1
96253,-100,4,2,22,62,0,0

[Colours]
Combo1 : 217,126,36
Combo2 : 119,131,170
Combo3 : 49,170,191

[HitObjects]
256,213,1253,6,0,L|448:213,1,190,2|0,1:2|1:2,0:0:0:0:
351,165,1721,1,2,0:0:0:0:
198,84,1878,1,2,1:2:0:0:
103,131,2034,2,0,P|40:187|110:241,1,190,0|2,0:0|0:0,0:0:0:0:
256,213,2503,6,0,L|256:309,1,95,0|2,0:0|0:0,0:0:0:0:
161,289,2815,2,0,L|161:385,1,95,0|2,0:0|0:0,0:0:0:0:
314,236,3128,1,2,1:2:0:0:
219,199,3284,2,0,L|219:104,1,95,0|2,0:0|1:2,0:0:0:0:
314,236,3596,1,0,0:0:0:0:
467,332,3753,6,0,L|275:332,1,190,2|0,1:2|1:2,0:0:0:0:
372,286,4221,1,2,0:0:0:0:
219,199,4378,2,0,P|156:143|226:89,1,190,2|0,1:2|1:2,0:0:0:0:
372,286,4846,6,0,L|276:286,1,95,2|0,0:0|1:2,0:0:0:0:
182,323,5159,2,0,L|182:227,1,95,2|0,0:0|1:2,0:0:0:0:
277,286,5471,1,2,0:0:0:0:
124,165,5628,2,0,L|29:165,1,95,2|2,1:2|0:0,0:0:0:0:
181,68,5940,2,0,L|341:68,1,142.5
160,46,6253,6,0,L|32:46,1,95,10|0,1:2|1:2,0:0:0:0:
293,192,6565,2,0,L|389:192,1,95,8|2,0:0|1:2,0:0:0:0:
236,325,6878,1,10,0:0:0:0:
388,192,7034,2,0,L|388:287,1,95,8|0,0:0|1:2,0:0:0:0:
160,283,7346,6,0,P|97:227|167:173,1,190,10|10,0:0|0:0,0:0:0:0:
313,180,7815,2,0,L|408:180,1,95,8|2,0:0|1:2,0:0:0:0:
179,89,8128,2,0,L|83:89,1,95,10|0,0:0|1:2,0:0:0:0:
236,8,8440,2,0,L|140:8,1,95,8|2,0:0|1:2,0:0:0:0:
370,155,8753,6,0,P|433:211|363:265,1,190,10|8,0:0|0:0,0:0:0:0:
275,237,9221,1,2,1:2:0:0:
122,311,9378,1,10,0:0:0:0:
275,237,9534,2,0,L|179:237,1,95,8|0,0:0|1:2,0:0:0:0:
408,34,9846,6,0,P|506:109|407:183,1,285,14|0,0:0|0:0,0:0:0:0:
256,270,10628,1,0,0:0:0:0:
351,312,10784,1,0,1:0:0:0:
199,384,10940,2,0,P|155:356|220:306,1,142.5,8|0,0:0|0:0,0:0:0:0:
363,324,11253,6,2,P|426:268|356:214,1,190,6|8,1:2|0:0,0:0:0:0:
268,174,11721,1,0,0:0:0:0:
421,100,11878,2,0,L|326:100,2,95,2|0|8,1:2|1:2|0:0,0:0:0:0:
193,27,12346,6,0,P|130:83|200:137,1,190,2|0,0:0|0:0,0:0:0:0:
346,209,12815,1,8,0:0:0:0:
193,27,12971,2,0,L|417:27,1,190,0|0,1:2|1:2,0:0:0:0:
230,79,13440,2,0,L|230:175,1,95,8|0,0:0|0:0,0:0:0:0:
459,292,13753,6,0,L|267:292,1,190,2|8,1:2|0:0,0:0:0:0:
364,353,14221,1,0,0:0:0:0:
211,265,14378,2,0,L|211:162,1,95,2|0,1:2|1:2,0:0:0:0:
306,121,14690,1,8,0:0:0:0:
78,310,14846,6,0,P|15:254|85:200,1,190,2|0,0:0|0:0,0:0:0:0:
231,184,15315,1,8,0:0:0:0:
78,310,15471,2,0,L|270:310,1,190,0|0,1:2|1:2,0:0:0:0:
115,233,15940,2,0,L|20:233,1,95,8|0,0:0|0:0,0:0:0:0:
249,104,16253,6,0,L|25:104,1,190,2|8,1:2|0:0,0:0:0:0:
154,64,16721,1,0,0:0:0:0:
307,151,16878,2,0,L|211:151,2,95,2|0|8,1:2|1:2|0:0,0:0:0:0:
78,310,17346,6,0,P|15:254|85:200,1,190,2|0,0:0|0:0,0:0:0:0:
231,253,17815,1,8,0:0:0:0:
78,310,17971,2,0,L|270:310,1,190,0|0,1:2|1:2,0:0:0:0:
421,370,18440,2,0,L|325:370,1,95,8|0,0:0|0:0,0:0:0:0:
97,293,18753,6,0,P|34:237|104:183,1,190,2|8,1:2|0:0,0:0:0:0:
192,144,19221,1,0,0:0:0:0:
345,71,19378,2,0,L|217:71,1,95,2|0,1:2|1:2,0:0:0:0:
155,5,19690,1,8,0:0:0:0:
383,122,19846,6,0,P|446:178|376:232,1,190,2|0,0:0|0:0,0:0:0:0:
230,196,20315,2,0,L|230:292,1,95,8|0,0:0|1:2,0:0:0:0:
325,261,20628,2,0,L|325:357,1,95,0|0,0:0|1:2,0:0:0:0:
97,227,20940,2,0,L|97:291,1,47.5,8|8,0:0|0:0,0:0:0:0:
258,280,21096,2,0,L|330:280,1,47.5,8|8,0:0|0:0,0:0:0:0:
142,92,21253,6,0,P|79:148|149:202,1,190,6|8,1:2|0:2,0:0:0:0:
295,170,21878,2,0,L|391:170,2,95,0|0|8,1:2|1:2|0:2,0:0:0:0:
142,92,22346,6,0,L|334:92,1,190,0|0,1:2|0:0,0:0:0:0:
237,148,22815,2,0,L|237:244,1,95,8|0,0:2|1:2,0:0:0:0:
390,170,23128,2,0,L|411:230,2,47.5,2|0|0,1:2|3:0|1:2,0:0:0:0:
295,170,23440,2,0,L|391:170,1,95,8|0,0:0|1:2,0:0:0:0:
161,356,23753,6,0,P|98:300|168:246,1,190,2|8,1:2|0:2,0:0:0:0:
314,107,24378,2,0,L|218:107,1,95,0|0,1:2|1:2,0:0:0:0:
124,42,24690,1,8,0:2:0:0:
276,15,24846,6,0,P|339:71|269:125,1,190,0|0,1:2|0:0,0:0:0:0:
180,167,25315,2,0,L|180:263,1,95,8|0,0:2|1:2,0:0:0:0:
275,262,25628,1,0,1:2:0:0:
227,262,25706,1,0,3:0:0:0:
180,262,25784,1,0,1:2:0:0:
28,360,25940,2,0,L|124:360,1,95,8|0,0:0|1:2,0:0:0:0:
352,229,26253,6,0,L|160:229,1,190,6|8,1:2|0:2,0:0:0:0:
314,146,26878,2,0,L|314:50,1,95,0|0,1:2|1:2,0:0:0:0:
219,10,27190,1,8,0:2:0:0:
371,83,27346,6,0,P|434:139|364:193,1,190,0|0,1:2|0:0,0:0:0:0:
276,83,27815,2,0,L|372:83,1,95,8|0,0:2|1:2,0:0:0:0:
218,180,28128,2,0,L|196:240,2,47.5,2|0|0,1:2|3:0|1:2,0:0:0:0:
313,180,28440,2,0,L|217:180,1,95,8|0,0:0|1:2,0:0:0:0:
447,116,28753,6,0,L|447:308,1,190,2|8,1:2|0:2,0:0:0:0:
295,360,29378,2,0,L|295:253,1,95,0|0,1:2|1:2,0:0:0:0:
390,227,29690,1,8,0:2:0:0:
238,195,29846,6,0,P|175:139|245:85,1,190,0|0,1:2|0:0,0:0:0:0:
334,107,30315,2,0,L|334:11,1,95,8|0,0:2|1:2,0:0:0:0:
238,195,30628,1,0,1:2:0:0:
390,262,30784,1,8,0:0:0:0:
238,195,30940,1,8,0:0:0:0:
390,262,31096,2,0,L|326:262,1,47.5,8|8,0:0|0:0,0:0:0:0:
179,367,31253,6,0,P|116:311|186:257,1,190,6|10,1:2|0:2,0:0:0:0:
331,282,31721,2,0,P|394:226|324:172,1,190,2|2,0:0|1:2,0:0:0:0:
179,367,32190,2,0,L|179:265,1,95,10|2,0:2|1:2,0:0:0:0:
408,313,32503,6,0,P|471:257|401:203,1,190,2|10,1:2|0:2,0:0:0:0:
313,161,32971,1,2,1:2:0:0:
160,107,33128,2,0,L|139:46,2,47.5,2|0|2,1:2|0:0|1:2,0:0:0:0:
313,161,33440,1,10,0:0:0:0:
160,107,33596,1,2,1:2:0:0:
389,342,33753,6,0,P|452:286|382:232,1,190,2|10,1:2|0:2,0:0:0:0:
237,312,34221,2,0,L|461:312,1,190,2|2,0:0|1:2,0:0:0:0:
274,276,34690,2,0,L|178:276,1,95,10|2,0:2|1:2,0:0:0:0:
408,186,35003,6,0,P|471:130|401:76,1,190,2|10,1:2|0:2,0:0:0:0:
313,44,35471,1,2,1:2:0:0:
160,112,35628,1,2,1:2:0:0:
112,112,35706,1,0,3:0:0:0:
65,112,35784,1,2,1:2:0:0:
217,209,35940,1,10,0:0:0:0:
65,112,36096,1,2,1:2:0:0:
294,8,36253,6,0,P|357:64|287:118,1,190,6|10,1:2|0:2,0:0:0:0:
142,196,36721,2,0,L|334:196,1,190,2|2,0:0|1:2,0:0:0:0:
179,248,37190,2,0,L|179:344,1,95,10|2,0:2|1:2,0:0:0:0:
408,380,37503,6,0,P|471:324|401:270,1,190,2|10,1:2|0:2,0:0:0:0:
313,230,37971,1,2,1:2:0:0:
160,175,38128,2,0,L|138:114,2,47.5,2|0|2,1:2|3:0|1:2,0:0:0:0:
313,230,38440,1,10,0:0:0:0:
160,175,38596,1,2,1:2:0:0:
389,24,38753,6,0,P|452:80|382:134,1,190,2|10,1:2|0:2,0:0:0:0:
237,90,39221,2,0,P|174:146|244:200,1,190,2|2,0:0|1:2,0:0:0:0:
389,24,39690,2,0,L|261:24,1,95,10|2,0:2|1:2,0:0:0:0:
65,176,40003,6,0,L|289:176,1,190,2|10,1:2|0:2,0:0:0:0:
407,269,40471,2,0,L|279:269,1,95,2|2,1:2|1:2,0:0:0:0:
83,359,40784,1,10,0:0:0:0:
312,269,40940,2,0,L|408:269,1,95,10|2,0:0|1:2,0:0:0:0:
178,341,41253,6,0,P|115:285|185:231,1,190,6|8,1:2|0:2,0:0:0:0:
330,180,41721,1,2,0:0:0:0:
178,341,41878,2,0,L|178:245,1,95,0|0,1:2|1:2,0:0:0:0:
273,212,42190,1,10,0:2:0:0:
45,191,42346,6,0,L|45:95,1,95,2|0,0:0|0:0,0:0:0:0:
198,142,42659,2,0,L|198:46,1,95,2|8,0:0|0:2,0:0:0:0:
45,191,42971,1,2,1:2:0:0:
274,112,43128,2,0,L|370:112,1,95,2|0,0:0|1:2,0:0:0:0:
217,14,43440,2,0,L|121:14,1,95,8|2,0:2|0:0,0:0:0:0:
351,129,43753,6,0,P|414:185|344:239,1,190,2|8,1:2|0:2,0:0:0:0:
199,316,44221,1,2,0:0:0:0:
351,129,44378,2,0,L|256:129,2,95,2|0|10,1:2|1:2|0:2,0:0:0:0:
123,250,44846,6,0,L|-5:250,1,95,2|0,0:0|1:2,0:0:0:0:
181,182,45159,2,0,L|181:86,1,95,2|8,0:0|0:2,0:0:0:0:
28,250,45471,1,2,1:2:0:0:
257,367,45628,1,0,1:2:0:0:
352,314,45784,2,0,L|416:314,1,47.5,8|8,0:2|0:2,0:0:0:0:
238,211,45940,2,0,L|174:211,1,47.5,8|8,0:2|0:2,0:0:0:0:
143,171,46096,1,8,0:2:0:0:
372,34,46253,6,0,P|435:90|365:144,1,190,6|8,1:2|0:2,0:0:0:0:
219,261,46878,2,0,L|315:261,1,95,0|0,1:2|1:2,0:0:0:0:
409,330,47190,1,8,0:2:0:0:
257,356,47346,6,0,P|194:300|264:246,1,190,0|0,1:2|0:0,0:0:0:0:
353,212,47815,2,0,L|353:116,1,95,8|0,0:2|1:2,0:0:0:0:
200,151,48128,1,2,1:2:0:0:
152,151,48206,1,0,0:0:0:0:
105,151,48284,1,0,1:2:0:0:
200,151,48440,2,0,L|200:55,1,95,8|0,0:0|1:2,0:0:0:0:
429,14,48753,6,0,P|492:70|422:124,1,190,2|8,1:2|0:2,0:0:0:0:
276,225,49378,2,0,L|148:225,2,95,0|0|8,1:2|1:2|0:2,0:0:0:0:
428,366,49846,6,0,L|236:366,1,190,0|0,1:2|0:0,0:0:0:0:
333,366,50315,2,0,L|428:366,1,95,8|0,0:2|1:2,0:0:0:0:
333,366,50628,2,0,L|311:305,2,47.5,0|0|0,1:2|3:0|1:2,0:0:0:0:
485,240,50940,2,0,L|389:240,1,95,8|0,0:0|1:2,0:0:0:0:
161,141,51253,6,0,L|385:141,1,190,6|8,1:2|0:2,0:0:0:0:
199,35,51878,2,0,L|103:35,2,95,0|0|8,1:2|1:2|0:2,0:0:0:0:
351,88,52346,6,0,P|414:144|344:198,1,190,0|0,1:2|0:0,0:0:0:0:
256,88,52815,2,0,L|352:88,1,95,8|0,0:2|1:2,0:0:0:0:
198,233,53128,2,0,L|176:293,2,47.5,2|0|0,1:2|0:0|1:2,0:0:0:0:
293,233,53440,2,0,L|197:233,1,95,8|0,0:0|1:2,0:0:0:0:
427,328,53753,6,0,P|490:272|420:218,1,190,2|8,1:2|0:2,0:0:0:0:
275,188,54378,2,0,L|275:60,1,95,0|0,1:2|1:2,0:0:0:0:
370,58,54690,1,8,0:2:0:0:
218,124,54846,6,0,P|155:180|225:234,1,190,0|0,1:2|0:0,0:0:0:0:
314,216,55315,2,0,L|314:312,1,95,8|0,0:2|1:2,0:0:0:0:
218,124,55628,1,0,1:2:0:0:
370,58,55784,1,8,0:0:0:0:
218,124,55940,1,8,0:0:0:0:
370,58,56096,2,0,L|306:58,1,47.5,8|8,0:0|0:0,0:0:0:0:
159,6,56253,6,0,P|96:62|166:116,1,190,6|8,1:2|0:2,0:0:0:0:
312,212,56878,2,0,L|216:212,1,95,0|0,1:2|1:2,0:0:0:0:
122,263,57190,1,8,0:2:0:0:
274,354,57346,6,0,P|337:298|267:244,1,190,0|0,1:2|0:0,0:0:0:0:
179,354,57815,2,0,L|275:354,1,95,8|0,0:2|1:2,0:0:0:0:
121,281,58128,2,0,L|99:220,2,47.5,2|0|0,1:2|0:0|1:2,0:0:0:0:
216,281,58440,2,0,L|120:281,1,95,8|0,0:0|1:2,0:0:0:0:
350,201,58753,6,0,P|413:145|343:91,1,190,2|8,1:2|0:2,0:0:0:0:
198,152,59378,2,0,L|294:152,2,95,0|0|8,1:2|1:2|0:2,0:0:0:0:
350,201,59846,6,0,P|413:145|343:91,1,190,0|0,1:2|0:0,0:0:0:0:
255,201,60315,2,0,L|351:201,1,95,8|0,0:2|1:2,0:0:0:0:
197,289,60628,1,2,1:2:0:0:
149,289,60706,1,0,3:0:0:0:
102,289,60784,1,0,1:2:0:0:
197,289,60940,2,0,L|197:385,1,95,8|0,0:0|1:2,0:0:0:0:
426,213,61253,6,0,L|234:213,1,190,6|8,1:2|0:2,0:0:0:0:
389,127,61878,2,0,L|389:31,1,95,0|0,1:2|1:2,0:0:0:0:
294,1,62190,1,8,0:2:0:0:
142,92,62346,6,0,P|79:148|149:202,1,190,0|0,1:2|0:0,0:0:0:0:
233,174,62815,2,0,L|329:174,1,95,8|0,0:2|1:2,0:0:0:0:
175,290,63128,2,0,L|153:350,2,47.5,2|0|0,1:2|0:0|1:2,0:0:0:0:
270,290,63440,2,0,L|174:290,1,95,8|0,0:0|1:2,0:0:0:0:
404,364,63753,6,0,L|499:364,1,95,2|0,1:2|0:0,0:0:0:0:
347,265,64065,2,0,L|347:169,1,95,8|0,0:2|0:0,0:0:0:0:
194,208,64378,2,0,L|194:112,1,95,0|0,1:2|1:2,0:0:0:0:
41,151,64690,2,0,L|41:55,1,95,8|0,0:2|1:2,0:0:0:0:
194,208,65003,6,0,L|297:208,1,95,2|0,1:2|0:0,0:0:0:0:
137,118,65315,2,0,L|137:22,1,95,10|0,0:2|1:2,0:0:0:0:
289,208,65628,1,2,1:2:0:0:
61,308,65784,1,8,0:0:0:0:
289,208,65940,2,0,L|385:208,1,95,10|0,0:0|1:0,0:0:0:0:
155,290,66253,6,0,P|92:234|162:180,1,190,6|10,1:2|0:2,0:0:0:0:
306,121,66721,1,0,0:0:0:0:
155,290,66878,2,0,L|251:290,2,95,2|0|10,1:2|1:2|0:2,0:0:0:0:
384,208,67346,6,0,L|480:208,1,95,2|0,1:2|1:2,0:0:0:0:
326,317,67659,2,0,L|230:317,1,95,2|8,0:0|0:2,0:0:0:0:
384,208,67971,2,0,L|384:112,1,95,2|0,1:2|0:0,0:0:0:0:
231,317,68284,1,2,1:2:0:0:
384,208,68440,2,0,L|288:208,1,95,10|0,0:2|1:2,0:0:0:0:
60,131,68753,6,0,L|252:131,1,190,2|10,1:2|0:2,0:0:0:0:
345,93,69221,1,0,0:0:0:0:
192,54,69378,2,0,L|192:150,1,95,2|0,1:2|1:2,0:0:0:0:
289,208,69690,1,10,0:2:0:0:
61,250,69846,6,0,L|61:346,1,95,2|0,1:2|0:0,0:0:0:0:
214,384,70159,1,0,0:0:0:0:
119,311,70315,2,0,L|119:215,1,95,8|0,0:2|1:2,0:0:0:0:
272,275,70628,2,0,L|156:275,1,95,0|0,0:0|1:2,0:0:0:0:
405,185,70940,2,0,P|449:157|384:107,1,142.5,12|0,0:2|0:0,0:0:0:0:
241,31,71253,6,0,L|113:31,1,95,6|0,1:2|0:0,0:0:0:0:
298,92,71565,2,0,L|394:92,1,95,10|0,0:2|0:0,0:0:0:0:
241,31,71878,2,0,L|241:127,1,95,2|0,1:2|1:2,0:0:0:0:
393,92,72190,1,10,0:2:0:0:
165,188,72346,6,0,P|102:244|172:298,1,190,2|2,1:2|0:0,0:0:0:0:
318,252,72815,1,8,0:2:0:0:
165,188,72971,2,0,L|51:188,2,95,2|0|2,1:2|0:0|1:2,0:0:0:0:
318,252,73440,1,10,0:2:0:0:
165,188,73596,1,0,1:2:0:0:
393,92,73753,6,0,L|521:92,1,95,2|0,1:2|0:0,0:0:0:0:
336,218,74065,2,0,L|240:218,1,95,10|0,0:2|0:0,0:0:0:0:
488,92,74378,2,0,L|488:188,1,95,2|0,1:2|1:2,0:0:0:0:
393,92,74690,1,10,0:2:0:0:
165,31,74846,6,0,P|102:87|172:141,1,190,2|0,1:2|0:0,0:0:0:0:
318,118,75315,2,0,L|318:214,1,95,8|0,0:2|1:2,0:0:0:0:
223,205,75628,2,0,L|223:301,1,95,0|0,0:0|1:2,0:0:0:0:
451,241,75940,2,0,L|451:401,1,142.5,12|0,0:2|0:0,0:0:0:0:
287,291,76253,6,0,L|191:291,1,95,2|0,1:2|1:2,0:0:0:0:
344,201,76565,2,0,L|440:201,1,95,10|0,0:0|1:2,0:0:0:0:
287,291,76878,1,10,0:0:0:0:
439,201,77034,1,0,1:2:0:0:
211,82,77190,2,0,L|115:82,1,95,10|0,0:0|1:2,0:0:0:0:
344,201,77503,6,0,L|440:201,1,95,10|0,0:0|1:2,0:0:0:0:
287,291,77815,1,10,0:0:0:0:
439,201,77971,1,0,1:2:0:0:
211,82,78128,2,0,L|115:82,1,95,10|0,0:0|1:2,0:0:0:0:
268,182,78440,2,0,L|364:182,1,95,8|0,0:0|1:2,0:0:0:0:
134,302,78753,6,0,L|230:302,1,95,14|0,0:0|1:2,0:0:0:0:
381,382,79065,2,0,L|285:382,1,95,10|0,0:0|1:2,0:0:0:0:
134,302,79378,1,10,0:0:0:0:
286,382,79534,1,0,1:2:0:0:
58,333,79690,2,0,L|58:205,1,95,10|0,0:0|1:2,0:0:0:0:
286,382,80003,6,0,L|382:382,1,95,10|0,0:0|1:2,0:0:0:0:
229,264,80315,1,10,0:0:0:0:
381,382,80471,1,0,1:2:0:0:
153,333,80628,2,0,L|57:333,1,95,10|0,0:0|1:2,0:0:0:0:
286,382,80940,2,0,L|446:382,1,142.5,12|0,0:0|0:0,0:0:0:0:
265,114,81253,6,0,L|137:114,1,95,14|0,0:0|1:2,0:0:0:0:
322,209,81565,2,0,L|450:209,1,95,10|0,0:0|1:2,0:0:0:0:
265,114,81878,1,10,0:0:0:0:
417,209,82034,1,0,1:2:0:0:
189,152,82190,2,0,L|61:152,1,95,10|0,0:0|1:2,0:0:0:0:
322,209,82503,6,0,L|418:209,1,95,10|0,0:0|1:2,0:0:0:0:
265,114,82815,1,10,0:0:0:0:
417,209,82971,1,0,1:2:0:0:
189,152,83128,2,0,L|189:57,1,95,10|0,0:0|1:2,0:0:0:0:
341,192,83440,2,0,L|341:64,1,95,8|0,0:0|1:2,0:0:0:0:
112,193,83753,6,0,L|240:193,1,95,14|0,0:0|1:2,0:0:0:0:
359,311,84065,2,0,L|455:311,1,95,10|0,0:0|1:2,0:0:0:0:
301,384,84378,1,10,0:0:0:0:
454,311,84534,1,0,1:2:0:0:
226,220,84690,2,0,L|130:220,1,95,10|0,0:0|1:2,0:0:0:0:
359,311,85003,6,0,L|455:311,1,95,10|0,0:0|1:2,0:0:0:0:
301,384,85315,1,10,0:0:0:0:
454,311,85471,1,0,1:2:0:0:
226,220,85628,2,0,L|130:220,1,95,10|0,0:0|1:2,0:0:0:0:
359,311,85940,2,0,P|403:283|338:233,1,142.5,12|0,0:0|0:0,0:0:0:0:
195,245,86253,6,0,L|99:245,1,95,6|0,1:2|0:0,0:0:0:0:
328,113,86565,2,0,L|328:8,1,95,10|0,1:2|0:0,0:0:0:0:
175,67,86878,1,10,1:2:0:0:
403,168,87034,2,0,L|498:168,1,95,8|2,0:0|1:2,0:0:0:0:
270,366,87346,6,0,L|270:270,1,95,8|2,0:0|1:2,0:0:0:0:
423,219,87659,1,8,0:0:0:0:
195,173,87815,2,0,L|195:77,1,95,10|0,1:2|0:0,0:0:0:0:
423,219,88128,2,0,L|423:123,1,95,10|0,1:2|0:0,0:0:0:0:
271,161,88440,2,0,L|143:161,1,95,8|0,1:2|1:2,0:0:0:0:
405,256,88753,6,0,L|309:256,1,95,6|0,1:2|0:0,0:0:0:0:
81,161,89065,2,0,L|177:161,1,95,10|0,1:2|0:0,0:0:0:0:
329,87,89378,1,10,1:2:0:0:
101,136,89534,2,0,L|101:40,1,95,8|2,0:0|1:2,0:0:0:0:
329,87,89846,6,0,L|233:87,1,95,8|2,0:0|1:2,0:0:0:0:
81,23,90159,1,8,0:0:0:0:
309,113,90315,2,0,L|405:113,1,95,10|0,1:2|0:0,0:0:0:0:
176,23,90628,2,0,L|80:23,1,95,10|0,1:2|0:0,0:0:0:0:
234,87,90940,2,0,L|330:87,1,95,8|0,1:2|1:2,0:0:0:0:
100,253,91253,6,0,L|196:253,1,95,6|0,1:2|0:0,0:0:0:0:
423,309,91565,2,0,L|423:210,1,95,10|0,1:2|0:0,0:0:0:0:
270,153,91878,1,10,1:2:0:0:
498,123,92034,2,0,L|498:27,1,95,8|2,0:0|1:2,0:0:0:0:
270,153,92346,6,0,L|174:153,1,95,8|2,0:0|1:2,0:0:0:0:
328,286,92659,1,8,0:0:0:0:
100,197,92815,2,0,L|100:101,1,95,10|0,1:2|0:0,0:0:0:0:
328,286,93128,2,0,L|424:286,1,95,10|0,1:2|0:0,0:0:0:0:
271,374,93440,2,0,L|175:374,1,95,8|0,1:2|1:2,0:0:0:0:
405,245,93753,6,0,L|405:137,1,95,6|0,1:2|0:0,0:0:0:0:
176,374,94065,2,0,L|272:374,1,95,10|0,1:2|0:0,0:0:0:0:
424,262,94378,1,10,1:2:0:0:
195,197,94534,2,0,L|195:101,1,95,8|2,0:0|1:2,0:0:0:0:
424,262,94846,5,12,0:0:0:0:
158,349,95159,1,12,0:0:0:0:
424,262,95471,1,12,0:0:0:0:
194,236,95628,2,0,L|84:236,1,95,8|8,0:0|0:0,0:0:0:0:
146,203,95862,1,8,0:0:0:0:
308,159,95940,2,0,L|372:159,1,47.5,0|0,1:0|0:0,0:0:0:0:
403,193,96096,1,0,1:0:0:0:
174,319,96253,6,0,P|111:263|181:209,1,190,6|8,1:2|0:2,0:0:0:0:
326,134,96721,1,2,0:0:0:0:
174,319,96878,2,0,L|270:319,2,95,2|0|10,1:2|1:2|0:2,0:0:0:0:
402,248,97346,6,0,L|402:151,1,95,2|0,1:2|0:0,0:0:0:0:
249,200,97659,2,0,L|249:104,1,95,2|8,0:0|0:2,0:0:0:0:
402,248,97971,1,2,1:2:0:0:
173,171,98128,1,2,1:2:0:0:
125,171,98206,1,0,3:2:0:0:
78,171,98284,1,0,1:2:0:0:
230,73,98440,1,8,0:2:0:0:
78,171,98596,1,2,1:2:0:0:
307,364,98753,6,0,P|370:308|300:254,1,190,2|8,1:2|0:2,0:0:0:0:
155,208,99221,1,2,0:0:0:0:
307,364,99378,2,0,L|307:236,1,95,2|0,1:2|1:2,0:0:0:0:
212,238,99690,1,10,0:2:0:0:
440,168,99846,6,0,L|440:73,1,95,2|0,1:2|0:0,0:0:0:0:
287,138,100159,2,0,L|191:138,1,95,2|8,0:0|0:2,0:0:0:0:
344,47,100471,1,2,1:2:0:0:
115,7,100628,2,0,L|93:67,2,47.5,2|0|0,1:2|3:2|1:2,0:0:0:0:
267,108,100940,1,8,0:2:0:0:
115,7,101096,1,2,1:2:0:0:
344,231,101253,6,0,L|120:231,1,190,6|8,1:2|0:2,0:0:0:0:
249,316,101721,1,2,0:0:0:0:
402,260,101878,2,0,L|306:260,2,95,2|0|10,1:2|1:2|0:2,0:0:0:0:
174,207,102346,6,0,L|78:207,1,95,2|0,1:2|0:0,0:0:0:0:
232,113,102659,2,0,L|328:113,1,95,2|8,0:0|0:2,0:0:0:0:
174,207,102971,1,2,1:2:0:0:
403,146,103128,1,2,1:2:0:0:
450,146,103206,1,0,3:2:0:0:
498,146,103284,1,0,1:2:0:0:
346,35,103440,1,8,0:2:0:0:
498,146,103596,1,2,1:2:0:0:
269,240,103753,6,0,P|206:296|276:350,1,190,2|8,1:2|0:2,0:0:0:0:
421,317,104221,1,2,0:0:0:0:
192,272,104378,1,6,1:2:0:0:
421,317,104534,2,0,L|442:256,2,47.5,8|8|8,0:0|0:0|0:0,0:0:0:0:
192,272,104846,5,2,1:2:0:0:
