osu file format v14

[General]
AudioFilename: audio.mp3
AudioLeadIn: 0
PreviewTime: 64747
Countdown: 0
SampleSet: Soft
StackLeniency: 0.7
Mode: 0
LetterboxInBreaks: 0
WidescreenStoryboard: 0

[Editor]
DistanceSpacing: 1
BeatDivisor: 4
GridSize: 4
TimelineZoom: 3.299998

[Metadata]
Title:Dance in the Fake
TitleUnicode:Dance in the Fake
Artist:Nashetania Loei Piena Augustra (CV: Yoko Hisaka)
ArtistUnicode:ナッシェタニア・ルーイ・ピエナ・アウグストラ(CV:日笠陽子)
Creator:Not Tomori
Version:Normal
Source:六花の勇者
Tags:Kyle Y rokka no yuusha braves of the six 6 flowers ending ed two 2 tv size
BeatmapID:1006727
BeatmapSetID:464895

[Difficulty]
HPDrainRate:3
CircleSize:3
OverallDifficulty:4
ApproachRate:5
SliderMultiplier:0.9
SliderTickRate:1

[Events]
//Background and Video events
0,0,"FlamieWaifu.png",0,0
//Break Periods
//Storyboard Layer 0 (Background)
//Storyboard Layer 1 (Fail)
//Storyboard Layer 2 (Pass)
//Storyboard Layer 3 (Foreground)
//Storyboard Sound Samples

[TimingPoints]
1180,324.324324324324,4,2,1,100,1,0
6369,-100,4,2,1,80,0,0
11234,-100,4,2,1,90,0,0
11558,-100,4,2,1,100,0,0
16747,-100,4,3,1,80,0,0
19666,-100,4,2,1,80,0,0
21288,-100,4,3,1,80,0,0
21612,-100,4,3,1,100,0,0
21936,-100,4,3,1,90,0,0
22747,-100,4,2,1,90,0,0
24531,-100,4,3,1,90,0,0
25342,-100,4,2,1,90,0,0
27125,-100,4,3,1,90,0,0
27936,-100,4,2,1,90,0,0
29720,-100,4,2,1,100,0,0
65882,-100,4,2,1,100,0,1
86477,-100,4,2,1,100,0,0
86639,-100,4,2,1,90,0,0
86801,-100,4,2,1,80,0,0
86963,-100,4,2,1,70,0,0
87125,-100,4,2,1,60,0,0
87288,-100,4,2,1,50,0,0
87450,-100,4,2,1,40,0,0
87612,-100,4,2,1,30,0,0
87774,-100,4,2,1,20,0,0
87936,-100,4,2,1,10,0,0
88098,-100,4,2,1,5,0,0

[Colours]
Combo1 : 255,0,255
Combo2 : 0,255,255
Combo3 : 0,0,255
Combo4 : 128,0,255

[HitObjects]
120,160,6369,6,0,P|188:172|248:144,1,135,6|2,0:0|0:0,0:0:0:0:
347,56,7342,2,0,B|335:160|335:160|347:188,1,135,2|2,0:0|0:0,0:0:0:0:
394,263,8152,2,0,L|302:275,1,90,2|2,0:0|0:0,0:0:0:0:
260,281,8639,1,2,0:0:0:0:
196,345,8963,6,0,P|170:282|192:222,1,135,2|2,0:0|0:0,0:0:0:0:
325,204,9936,2,0,B|237:180|237:180|209:144,1,135,2|2,0:0|0:0,0:0:0:0:
164,67,10747,1,2,0:0:0:0:
244,27,11071,2,0,L|347:12,1,90,0|8,0:0|0:0,0:0:0:0:
359,50,11558,6,0,P|367:94|359:142,1,90,2|8,0:0|0:0,0:0:0:0:
395,222,12207,2,0,P|351:230|307:214,1,90,2|8,0:0|0:0,0:0:0:0:
219,214,12855,2,0,B|219:166|259:138|259:138|175:106|175:106|215:70|206:21,1,270,2|8,0:0|0:0,0:0:0:0:
117,35,14152,6,0,P|93:70|87:121,1,90,2|8,0:0|0:0,0:0:0:0:
90,206,14801,2,0,P|135:192|184:203,1,90,2|8,0:0|0:0,0:0:0:0:
141,282,15450,2,0,B|187:303|229:277|229:277|313:309|313:309|364:289|401:321,1,270,2|8,0:0|0:0,0:0:0:0:
416,229,16747,6,0,L|428:137,1,90,2|8,0:0|0:0,0:0:0:0:
351,91,17396,2,0,L|339:184,1,90,2|8,0:0|0:0,0:0:0:0:
249,186,18044,2,0,L|157:174,1,90,2|8,0:0|0:0,0:0:0:0:
160,84,18693,2,0,L|252:96,1,90,2|8,0:0|0:0,0:0:0:0:
338,107,19342,6,0,P|386:75|290:79,1,270,2|8,0:0|0:0,0:0:0:0:
248,95,20477,2,0,B|192:107|192:107|152:67|152:67|152:163|152:163|112:123|112:123|64:135,1,315,6|8,0:0|0:0,0:0:0:0:
60,224,21936,6,0,L|88:312,1,90,8|8,0:0|0:0,0:0:0:0:
126,331,22423,2,0,P|174:327|214:339,1,90,8|2,0:0|0:0,0:0:0:0:
256,356,22909,1,8,0:0:0:0:
280,268,23234,2,0,B|296:168|296:168|320:144,1,135,2|0,0:0|0:0,0:0:0:0:
356,116,23882,1,2,0:0:0:0:
276,72,24207,1,8,0:0:0:0:
204,124,24531,6,0,L|188:224,1,90,8|8,0:0|0:0,0:0:0:0:
178,256,25017,2,0,P|144:280|96:286,1,90,8|2,0:0|0:0,0:0:0:0:
57,262,25504,1,8,0:0:0:0:
108,188,25828,2,0,B|123:98,1,90,2|8,0:0|0:0,0:0:0:0:
207,129,26477,2,0,B|222:219,1,90,2|8,0:0|0:0,0:0:0:0:
244,304,27125,6,0,L|338:329,1,90,8|8,0:0|0:0,0:0:0:0:
374,339,27612,2,0,P|377:293|401:248,1,90,8|2,0:0|0:0,0:0:0:0:
427,222,28098,1,8,0:0:0:0:
339,199,28423,2,0,B|250:176,1,90,2|8,0:0|0:0,0:0:0:0:
208,166,28909,1,2,0:0:0:0:
288,274,29396,1,8,0:0:0:0:
339,199,29720,6,0,L|323:107,1,90,6|0,0:0|0:0,0:0:0:0:
259,47,30369,2,0,L|227:139,1,90,6|2,0:0|0:0,0:0:0:0:
243,223,31017,2,0,P|351:299|439:199,1,270,6|8,0:0|0:0,0:0:0:0:
446,129,32315,6,0,L|354:109,1,90,2|8,0:0|0:0,0:0:0:0:
314,99,32801,2,0,P|272:83|250:45,1,90,2|2,0:0|0:0,0:0:0:0:
251,0,33288,1,8,0:0:0:0:
165,28,33612,2,0,B|68:57,1,90,2|8,0:0|0:0,0:0:0:0:
25,126,34261,2,0,P|17:170|33:212,1,90,2|8,0:0|0:0,0:0:0:0:
117,247,34909,6,0,P|124:203|109:162,1,90,2|8,0:0|0:0,0:0:0:0:
153,155,35396,2,0,L|242:140,1,90,2|2,0:0|0:0,0:0:0:0:
286,132,35882,1,8,0:0:0:0:
359,184,36207,2,0,P|375:139|366:94,1,90,2|8,0:0|0:0,0:0:0:0:
286,132,36855,2,0,B|270:174|270:174|274:221,1,90,2|8,0:0|0:0,0:0:0:0:
352,262,37504,6,0,P|376:306|376:346,1,90,4|0,0:0|0:0,0:0:0:0:
351,382,37990,2,0,B|263:370|263:370|280:351|281:323,1,135,4|4,0:0|0:0,0:0:0:0:
191,313,38801,1,4,0:0:0:0:
59,190,39450,6,0,L|38:119,2,67.5,6|2|0,0:0|0:0|0:0,0:0:0:0:
75,231,40098,5,4,0:0:0:0:
145,175,40423,1,0,0:0:0:0:
230,146,40747,2,0,P|281:142|326:167,1,90
351,240,41396,1,0,0:0:0:0:
261,234,41720,1,0,0:0:0:0:
171,229,42044,6,2,L|98:224,2,67.5
216,231,42693,6,0,L|318:237,1,90,6|8,0:0|0:0,0:0:0:0:
395,245,43342,2,0,P|389:202|361:164,1,90,2|8,0:0|0:0,0:0:0:0:
322,143,43828,2,0,B|299:103|299:103|294:59,1,90,2|2,0:0|0:0,0:0:0:0:
251,74,44315,2,0,B|214:99|214:99|159:110,1,90,8|2,0:0|0:0,0:0:0:0:
178,18,44963,1,8,0:0:0:0:
95,53,45288,6,0,L|75:145,1,90,6|8,0:0|0:0,0:0:0:0:
165,139,45936,2,0,L|185:231,1,90,6|8,0:0|0:0,0:0:0:0:
94,238,46585,2,0,L|58:342,1,90,6|8,0:0|0:0,0:0:0:0:
154,317,47234,2,0,L|222:305,2,67.5,6|2|2,0:0|0:0|0:0,0:0:0:0:
109,325,47882,6,0,B|65:313|65:313|19:318,1,90,6|8,0:0|0:0,0:0:0:0:
51,233,48531,2,0,P|62:194|56:145,1,90,2|8,0:0|0:0,0:0:0:0:
89,114,49017,2,0,B|121:106|121:106|183:117,1,90,2|2,0:0|0:0,0:0:0:0:
210,146,49504,2,0,B|236:154|236:154|317:144,1,90,8|2,0:0|0:0,0:0:0:0:
387,131,50152,1,8,0:0:0:0:
444,200,50477,6,0,L|424:296,1,90,6|8,0:0|0:0,0:0:0:0:
349,335,51125,2,0,L|329:239,1,90,6|8,0:0|0:0,0:0:0:0:
252,201,51774,2,0,L|232:297,1,90,6|8,0:0|0:0,0:0:0:0:
153,330,52423,2,0,P|121:335|83:331,2,67.5,6|2|0,0:0|0:0|0:0,0:0:0:0:
189,303,53071,6,0,L|209:207,1,90,6|8,0:0|0:0,0:0:0:0:
252,201,53558,2,0,P|296:201|344:173,1,90,2|2,0:0|0:0,0:0:0:0:
354,139,54044,1,8,0:0:0:0:
351,93,54207,2,0,B|330:88|295:97|275:115|275:115|252:110|231:113|215:120,1,135,2|8,0:0|0:0,0:0:0:0:
246,30,55017,2,0,P|282:14|313:8,2,67.5,2|2|2,0:0|0:0|0:0,0:0:0:0:
212,59,55666,6,0,L|116:71,1,90,2|8,0:0|0:0,0:0:0:0:
78,77,56152,2,0,P|58:117|58:169,1,90,2|2,0:0|0:0,0:0:0:0:
71,204,56639,1,8,0:0:0:0:
109,226,56801,2,0,B|158:242|207:218|207:218|205:241|217:263,1,135,2|8,0:0|0:0,0:0:0:0:
296,221,57612,2,0,L|304:177,2,45,2|0|8,0:0|0:0|0:0,0:0:0:0:
377,184,58261,6,0,P|355:262|295:213,1,180,6|8,0:0|0:0,0:0:0:0:
170,77,59558,2,0,B|210:97|258:77|258:77|302:61|346:77,1,180,6|8,0:0|0:0,0:0:0:0:
256,192,60855,12,0,64585,0:0:0:0:
193,212,65882,6,0,B|224:200|256:206|256:206|289:215|324:200,1,135,6|8,0:0|0:0,0:0:0:0:
359,170,66531,1,0,0:0:0:0:
368,125,66693,2,0,P|327:114|280:126,1,90,0|8,0:0|0:0,0:0:0:0:
242,146,67179,2,0,L|228:282,1,135,2|8,0:0|0:0,0:0:0:0:
156,335,67990,1,2,0:0:0:0:
144,245,68315,1,8,0:0:0:0:
228,280,68639,6,0,P|274:295|317:287,1,90,6|8,0:0|0:0,0:0:0:0:
352,264,69125,2,0,P|394:245|442:252,1,90,2|2,0:0|0:0,0:0:0:0:
473,276,69612,1,8,0:0:0:0:
495,314,69774,2,0,B|478:333|437:344|407:332|407:332|394:341|378:349|360:350,1,135,2|8,0:0|0:0,0:0:0:0:
285,319,70585,2,0,P|265:270|273:227,1,90,0|8,0:0|0:0,0:0:0:0:
299,149,71234,6,0,L|198:138,1,90,6|8,0:0|0:0,0:0:0:0:
164,136,71720,2,0,P|131:167|82:183,1,90,2|2,0:0|0:0,0:0:0:0:
44,186,72207,1,8,0:0:0:0:
19,223,72369,2,0,P|11:273|29:314,1,90,2|0,0:0|0:0,0:0:0:0:
62,333,72855,1,8,0:0:0:0:
112,258,73179,1,2,0:0:0:0:
201,263,73504,1,8,0:0:0:0:
290,251,73828,6,0,P|321:210|324:170,1,90,6|8,0:0|0:0,0:0:0:0:
234,180,74477,2,0,P|174:204|105:183,2,135,6|6|8,0:0|0:0|0:0,0:0:0:0:
303,122,75774,1,8,0:0:0:0:
435,93,76261,6,0,B|445:124|435:157|435:157|423:189|435:225,1,135,6|8,0:0|0:0,0:0:0:0:
455,265,76909,1,0,0:0:0:0:
434,305,77071,2,0,L|345:318,1,90,2|8,0:0|0:0,0:0:0:0:
301,305,77558,2,0,B|279:298|253:305|234:322|234:322|214:334|197:337|172:334,1,135,2|8,0:0|0:0,0:0:0:0:
102,277,78369,1,2,0:0:0:0:
186,245,78693,1,8,0:0:0:0:
236,170,79017,6,0,P|192:154|144:166,1,90,6|8,0:0|0:0,0:0:0:0:
108,177,79504,2,0,L|100:75,1,90,2|2,0:0|0:0,0:0:0:0:
99,42,79990,1,8,0:0:0:0:
136,16,80152,2,0,B|177:12|177:12|226:24|226:24|275:20,1,135,2|8,0:0|0:0,0:0:0:0:
359,14,80963,1,2,0:0:0:0:
396,95,81288,1,8,0:0:0:0:
361,177,81612,6,0,L|226:191,2,135,6|4|8,0:0|0:0|0:0,0:0:0:0:
405,172,82747,1,4,0:0:0:0:
405,172,84044,6,0,P|368:203|322:209,1,90,6|0,0:0|0:0,0:0:0:0:
284,195,84531,2,0,L|275:305,2,90,8|2|8,0:0|0:0|0:0,0:0:0:0:
328,115,85504,2,0,P|346:96|367:84,2,45,6|0|8,0:0|0:0|0:0,0:0:0:0:
298,149,85990,6,0,P|257:172|214:172,1,90,0|2,0:0|0:0,0:0:0:0:
172,157,86477,1,4,0:0:0:0:
