osu file format v14

[General]
AudioFilename: audio.mp3
AudioLeadIn: 0
PreviewTime: 64747
Countdown: 0
SampleSet: Soft
StackLeniency: 0.7
Mode: 0
LetterboxInBreaks: 0
WidescreenStoryboard: 0

[Editor]
DistanceSpacing: 1
BeatDivisor: 4
GridSize: 4
TimelineZoom: 3.299998

[Metadata]
Title:Dance in the Fake
TitleUnicode:Dance in the Fake
Artist:Nashetania Loei Piena Augustra (CV: Yoko Hisaka)
ArtistUnicode:ナッシェタニア・ルーイ・ピエナ・アウグストラ(CV:日笠陽子)
Creator:Not Tomori
Version:Hyper
Source:六花の勇者
Tags:Kyle Y rokka no yuusha braves of the six 6 flowers ending ed two 2 tv size
BeatmapID:1083227
BeatmapSetID:464895

[Difficulty]
HPDrainRate:4
CircleSize:3.8
OverallDifficulty:5
ApproachRate:7
SliderMultiplier:1.1
SliderTickRate:1

[Events]
//Background and Video events
0,0,"FlamieWaifu.png",0,0
//Break Periods
//Storyboard Layer 0 (Background)
//Storyboard Layer 1 (Fail)
//Storyboard Layer 2 (Pass)
//Storyboard Layer 3 (Foreground)
//Storyboard Sound Samples

[TimingPoints]
1180,324.324324324324,4,2,1,100,1,0
6369,-100,4,2,1,80,0,0
11234,-100,4,2,1,90,0,0
11558,-100,4,2,1,100,0,0
16747,-100,4,3,1,80,0,0
19666,-100,4,2,1,80,0,0
21288,-100,4,3,1,80,0,0
21612,-100,4,3,1,100,0,0
21936,-100,4,3,1,90,0,0
22747,-100,4,2,1,90,0,0
24531,-100,4,3,1,90,0,0
25342,-100,4,2,1,90,0,0
27125,-100,4,3,1,90,0,0
27936,-100,4,2,1,90,0,0
29720,-100,4,2,1,100,0,0
65882,-100,4,2,1,100,0,1
86477,-100,4,2,1,100,0,0
86639,-100,4,2,1,90,0,0
86801,-100,4,2,1,80,0,0
86963,-100,4,2,1,70,0,0
87125,-100,4,2,1,60,0,0
87288,-100,4,2,1,50,0,0
87450,-100,4,2,1,40,0,0
87612,-100,4,2,1,30,0,0
87774,-100,4,2,1,20,0,0
87936,-100,4,2,1,10,0,0
88098,-100,4,2,1,5,0,0

[Colours]
Combo1 : 255,0,255
Combo2 : 0,255,255
Combo3 : 0,0,255
Combo4 : 128,0,255

[HitObjects]
368,344,6369,6,0,P|402:264|355:199,1,165,6|2,0:0|0:0,0:0:0:0:
311,185,7017,1,0,0:0:0:0:
203,164,7342,2,0,B|281:266|281:266|318:277,1,165,2|2,0:0|0:0,0:0:0:0:
423,297,8152,2,0,P|422:243|391:194,1,110,2|2,0:0|0:0,0:0:0:0:
342,173,8639,1,2,0:0:0:0:
316,276,8963,6,0,P|291:296|266:303,1,55,2|0,0:0|0:0,0:0:0:0:
241,306,9207,1,0,0:0:0:0:
214,308,9288,1,2,0:0:0:0:
160,297,9450,2,0,P|105:291|58:320,1,110,2|0,0:0|0:0,0:0:0:0:
23,359,9936,2,0,L|14:243,1,110,2|2,0:0|0:0,0:0:0:0:
11,194,10423,1,2,0:0:0:0:
108,143,10747,1,2,0:0:0:0:
211,180,11071,5,2,0:0:0:0:
238,178,11152,1,0,0:0:0:0:
265,178,11234,2,0,L|303:174,1,27.5,8|0,0:0|0:0,0:0:0:0:
319,173,11396,2,0,L|357:170,1,27.5,8|0,0:0|0:0,0:0:0:0:
374,169,11558,6,0,P|402:217|394:289,1,110,2|8,0:0|0:0,0:0:0:0:
327,351,12207,2,0,B|297:367|297:367|219:359,1,110,2|8,0:0|0:0,0:0:0:0:
113,340,12855,2,0,P|83:298|75:237,1,110,2|8,0:0|0:0,0:0:0:0:
104,135,13504,1,2,0:0:0:0:
150,234,13828,1,8,0:0:0:0:
203,138,14152,6,0,L|231:15,1,110,2|8,0:0|0:0,0:0:0:0:
319,91,14801,2,0,L|343:198,1,110,2|8,0:0|0:0,0:0:0:0:
371,304,15450,2,0,P|319:306|266:278,2,110,2|8|2,0:0|0:0|0:0,0:0:0:0:
473,263,16423,1,8,0:0:0:0:
438,158,16747,6,0,P|383:163|340:196,1,110,2|8,0:0|0:0,0:0:0:0:
268,280,17396,2,0,P|239:237|234:179,1,110,2|8,0:0|0:0,0:0:0:0:
240,70,18044,6,0,P|185:75|142:108,1,110,2|8,0:0|0:0,0:0:0:0:
70,192,18693,2,0,P|41:149|36:91,1,110,2|8,0:0|0:0,0:0:0:0:
95,1,19179,1,0,0:0:0:0:
95,1,19261,1,0,0:0:0:0:
95,1,19342,6,0,P|187:24|141:108,1,220,2|8,0:0|0:0,0:0:0:0:
35,92,20315,1,8,0:0:0:0:
35,92,20477,2,0,B|69:103|69:103|106:97|106:97|141:108|141:108|178:103|178:103|213:114|213:114|250:107,1,220,6|0,0:0|0:0,0:0:0:0:
301,92,21288,2,0,P|331:82|367:84,2,55,8|8|8,0:0|0:0|0:0,0:0:0:0:
269,137,21774,1,0,0:0:0:0:
251,190,21936,6,0,P|256:254|283:293,1,110,8|8,0:0|0:0,0:0:0:0:
319,330,22423,2,0,B|286:324|286:324|208:343,1,110,8|2,0:0|0:0,0:0:0:0:
158,356,22909,1,8,0:0:0:0:
114,322,23071,1,0,0:0:0:0:
82,276,23234,2,0,P|58:207|104:126,1,165,2|0,0:0|0:0,0:0:0:0:
148,106,23882,1,2,0:0:0:0:
242,162,24207,1,8,0:0:0:0:
327,92,24531,6,0,P|384:73|444:89,1,110,8|8,0:0|0:0,0:0:0:0:
471,120,25017,2,0,L|489:237,1,110,8|2,0:0|0:0,0:0:0:0:
499,282,25504,1,8,0:0:0:0:
448,260,25666,1,0,0:0:0:0:
395,245,25828,2,0,P|370:245|338:255,2,55,2|0|8,0:0|0:0|0:0,0:0:0:0:
385,354,26477,2,0,P|360:362|329:362,2,55,2|0|8,0:0|0:0|0:0,0:0:0:0:
483,305,27125,6,0,L|496:188,1,110,8|8,0:0|0:0,0:0:0:0:
501,140,27612,2,0,B|470:151|470:151|390:142,1,110,8|2,0:0|0:0,0:0:0:0:
338,135,28098,1,8,0:0:0:0:
291,105,28261,1,0,0:0:0:0:
246,73,28423,2,0,P|226:124|235:179,1,110,2|8,0:0|0:0,0:0:0:0:
263,223,28909,1,2,0:0:0:0:
102,185,29396,1,8,0:0:0:0:
42,277,29720,6,0,B|75:292|75:292|160:289,1,110,6|0,0:0|0:0,0:0:0:0:
208,197,30369,2,0,B|175:182|175:182|90:185,1,110,6|0,0:0|0:0,0:0:0:0:
148,289,31017,2,0,B|256:310|256:310|363:289,1,220,6|8,0:0|0:0,0:0:0:0:
467,250,31990,2,0,L|430:203,1,55,8|0,0:0|0:0,0:0:0:0:
414,186,32234,1,0,0:0:0:0:
388,173,32315,6,0,P|340:173|282:205,1,110,2|8,0:0|0:0,0:0:0:0:
251,244,32801,2,0,B|257:216|257:216|231:135,1,110,2|2,0:0|0:0,0:0:0:0:
215,85,33288,1,8,0:0:0:0:
105,72,33612,2,0,P|115:133|145:172,1,110,2|8,0:0|0:0,0:0:0:0:
239,223,34261,1,2,0:0:0:0:
339,178,34585,1,8,0:0:0:0:
433,233,34909,6,0,P|390:275|342:287,1,110,2|8,0:0|0:0,0:0:0:0:
287,282,35396,2,0,P|234:271|175:289,1,110,2|2,0:0|0:0,0:0:0:0:
137,318,35882,1,8,0:0:0:0:
158,209,36207,2,0,P|148:153|113:111,1,110,2|8,0:0|0:0,0:0:0:0:
5,102,36855,1,2,0:0:0:0:
39,206,37179,1,8,0:0:0:0:
4,310,37504,6,0,B|31:319|31:319|118:308,1,110,4|0,0:0|0:0,0:0:0:0:
166,304,37990,2,0,B|193:197|193:197|159:203|130:191,1,165,4|4,0:0|0:0,0:0:0:0:
171,89,38801,1,4,0:0:0:0:
171,89,39450,6,0,P|214:82|249:62,2,82.5,6|2|0,0:0|0:0|0:0,0:0:0:0:
116,81,40098,5,4,0:0:0:0:
37,158,40423,1,0,0:0:0:0:
138,194,40747,2,0,P|178:236|184:289,1,110
134,383,41396,1,0,0:0:0:0:
239,352,41720,1,0,0:0:0:0:
347,369,42044,6,2,P|395:362|426:335,2,82.5
324,352,42612,1,0,0:0:0:0:
307,329,42693,6,0,B|285:278|285:278|277:219,1,110,6|8,0:0|0:0,0:0:0:0:
315,120,43342,2,0,P|259:133|206:121,1,110,2|8,0:0|0:0,0:0:0:0:
158,99,43828,2,0,P|112:81|52:90,1,110,2|2,0:0|0:0,0:0:0:0:
5,117,44315,1,8,0:0:0:0:
55,214,44639,1,2,0:0:0:0:
39,322,44963,1,8,0:0:0:0:
144,288,45288,6,0,L|252:255,1,110,6|8,0:0|0:0,0:0:0:0:
354,224,45936,2,0,P|323:174|278:149,1,110,6|8,0:0|0:0,0:0:0:0:
169,160,46585,2,0,L|61:193,1,110,6|8,0:0|0:0,0:0:0:0:
111,92,47234,6,0,P|115:51|105:11,2,82.5,6|2|2,0:0|0:0|0:0,0:0:0:0:
105,118,47801,1,0,0:0:0:0:
96,145,47882,6,0,B|146:130|146:130|207:130,1,110,6|8,0:0|0:0,0:0:0:0:
298,75,48531,2,0,P|314:127|301:180,1,110,2|8,0:0|0:0,0:0:0:0:
265,222,49017,2,0,P|242:282|254:331,1,110,2|2,0:0|0:0,0:0:0:0:
283,370,49504,1,8,0:0:0:0:
177,340,49828,1,0,0:0:0:0:
69,360,50152,1,8,0:0:0:0:
100,254,50477,6,0,L|129:142,1,110,6|8,0:0|0:0,0:0:0:0:
67,55,51125,2,0,P|125:37|178:50,1,110,6|8,0:0|0:0,0:0:0:0:
252,122,51774,2,0,P|270:180|257:233,1,110,6|8,0:0|0:0,0:0:0:0:
182,305,52423,6,0,L|93:326,2,82.5,6|2|0,0:0|0:0|0:0,0:0:0:0:
235,291,53071,6,0,P|294:294|337:326,1,110,6|8,0:0|0:0,0:0:0:0:
356,373,53558,2,0,B|375:353|375:353|454:327,1,110,2|2,0:0|0:0,0:0:0:0:
506,312,54044,1,8,0:0:0:0:
482,261,54207,2,0,B|470:240|470:209|480:183|480:183|492:155|491:122|476:98,1,165,2|8,0:0|0:0,0:0:0:0:
377,145,55017,2,0,P|362:192|364:233,2,82.5,2|2|2,0:0|0:0|0:0,0:0:0:0:
400,95,55666,6,0,B|372:108|372:108|284:99,1,110,2|8,0:0|0:0,0:0:0:0:
238,93,56152,2,0,B|210:80|210:80|122:89,1,110,2|2,0:0|0:0,0:0:0:0:
76,96,56639,1,8,0:0:0:0:
50,144,56801,2,0,B|32:180|41:221|71:243|71:243|100:264|106:300,1,165,2|8,0:0|0:0,0:0:0:0:
212,290,57612,2,0,P|206:258|190:226,2,55,2|0|8,0:0|0:0|0:0,0:0:0:0:
312,335,58261,6,0,P|361:283|310:214,1,165,6|2,0:0|0:0,0:0:0:0:
262,200,58909,2,0,P|213:148|264:79,1,165,8|8,0:0|0:0,0:0:0:0:
312,69,59558,2,0,B|268:52|224:69|224:69|176:89|136:69,1,165,6|2,0:0|0:0,0:0:0:0:
100,52,60207,2,0,B|83:96|100:140|100:140|120:188|100:228,1,165,8|8,0:0|0:0,0:0:0:0:
256,192,60855,12,0,64585,0:0:0:0:
268,158,64909,6,0,P|340:112|370:258,1,275
342,271,65882,6,0,B|303:247|264:260|264:260|215:273|173:250,1,165,6|8,0:0|0:0,0:0:0:0:
128,215,66531,1,0,0:0:0:0:
118,149,66693,2,0,P|129:118|145:101,2,55,2|0|8,0:0|0:0|0:0,0:0:0:0:
128,215,67179,2,0,P|119:302|57:353,1,165,2|8,0:0|0:0,0:0:0:0:
194,329,67990,1,2,0:0:0:0:
323,355,68315,1,8,0:0:0:0:
452,330,68639,6,0,P|468:278|455:223,1,110,6|8,0:0|0:0,0:0:0:0:
408,178,69125,2,0,P|391:126|408:70,1,110,2|2,0:0|0:0,0:0:0:0:
441,18,69612,1,8,0:0:0:0:
375,9,69774,2,0,B|343:6|316:13|297:28|297:28|277:41|251:49|210:43,1,165,2|8,0:0|0:0,0:0:0:0:
151,34,70423,1,0,0:0:0:0:
148,99,70585,2,0,P|177:124|206:132,2,55,2|0|8,0:0|0:0|0:0,0:0:0:0:
21,137,71234,6,0,B|10:165|10:165|27:248,1,110,6|8,0:0|0:0,0:0:0:0:
39,307,71720,2,0,B|69:295|69:295|155:314,1,110,2|2,0:0|0:0,0:0:0:0:
208,329,72207,1,8,0:0:0:0:
221,264,72369,2,0,L|239:153,1,110,2|0,0:0|0:0,0:0:0:0:
249,90,72855,1,8,0:0:0:0:
378,112,73179,1,2,0:0:0:0:
498,57,73504,1,8,0:0:0:0:
447,178,73828,6,0,P|400:205|342:200,1,110,6|8,0:0|0:0,0:0:0:0:
238,123,74477,2,0,P|212:203|244:288,2,165,6|6|8,0:0|0:0|0:0,0:0:0:0:
337,35,75774,2,0,B|310:42|310:42|226:33,1,110,8|8,0:0|0:0,0:0:0:0:
195,30,76179,1,0,0:0:0:0:
162,27,76261,6,0,B|145:41|138:74|146:99|146:99|154:128|147:158|128:182,1,165,6|8,0:0|0:0,0:0:0:0:
77,223,76909,1,0,0:0:0:0:
115,276,77071,2,0,P|176:266|210:231,1,110,2|8,0:0|0:0,0:0:0:0:
236,170,77558,2,0,P|305:112|383:118,1,165,2|8,0:0|0:0,0:0:0:0:
430,152,78207,1,0,0:0:0:0:
467,209,78369,2,0,P|469:237|456:268,1,55,2|0,0:0|0:0,0:0:0:0:
399,287,78693,2,0,P|371:285|340:298,1,55,8|0,0:0|0:0,0:0:0:0:
290,329,79017,6,0,L|268:217,1,110,6|8,0:0|0:0,0:0:0:0:
228,168,79504,2,0,B|260:177|260:177|344:155,1,110,2|2,0:0|0:0,0:0:0:0:
356,95,79990,1,8,0:0:0:0:
402,141,80152,2,0,B|413:193|413:193|400:259|400:259|408:303,1,165,2|8,0:0|0:0,0:0:0:0:
425,366,80801,1,0,0:0:0:0:
359,366,80963,2,0,L|300:359,1,55,2|0,0:0|0:0,0:0:0:0:
238,353,81288,2,0,L|179:360,1,55,8|0,0:0|0:0,0:0:0:0:
120,305,81612,6,0,P|104:221|141:145,2,165,6|4|8,0:0|0:0|0:0,0:0:0:0:
183,359,82747,1,4,0:0:0:0:
183,359,84044,6,0,L|305:337,1,110,6|8,0:0|0:0,0:0:0:0:
372,322,84531,2,0,P|387:289|390:264,1,55,2|8,0:0|0:0,0:0:0:0:
380,188,84855,1,0,0:0:0:0:
317,133,85017,1,8,0:0:0:0:
236,113,85179,2,0,P|201:118|175:131,1,55,2|8,0:0|0:0,0:0:0:0:
126,186,85504,2,0,P|114:220|115:259,2,55,6|0|8,0:0|0:0|0:0,0:0:0:0:
183,125,85990,6,0,P|236:113|292:124,1,110,0|2,0:0|0:0,0:0:0:0:
358,169,86477,1,4,0:0:0:0:
