osu file format v14

[General]
AudioFilename: audio.mp3
AudioLeadIn: 0
PreviewTime: 58597
Countdown: 0
SampleSet: Soft
StackLeniency: 0.4
Mode: 0
LetterboxInBreaks: 0
WidescreenStoryboard: 1

[Editor]
Bookmarks: 1503,20962,46908,53394,59881,82584,89070,115016,121502,127989,153935,166908,176638
DistanceSpacing: 0.7
BeatDivisor: 6
GridSize: 4
TimelineZoom: 1.150002

[Metadata]
Title:Because of
TitleUnicode:Because of
Artist:Nase Yukana (CV: Akino Hana)
ArtistUnicode:名瀬ゆかな (CV: 秋野花)
Creator:Akino Hana
Version:Normal
Source:妹のセイイキ
Tags:imouto no seiiki ending theme ed feng eroge opening vn visual novel galgame honto no tokoro kemu Horie Shouta japanese Video Game 堀江晶太
BeatmapID:2314338
BeatmapSetID:1107354

[Difficulty]
HPDrainRate:3
CircleSize:3.5
OverallDifficulty:4
ApproachRate:5
SliderMultiplier:1.2
SliderTickRate:1

[Events]
//Background and Video events
0,0,"imouto.jpg",0,0
//Break Periods
2,82584,86654
2,179881,183546
//Storyboard Layer 0 (Background)
//Storyboard Layer 1 (Fail)
//Storyboard Layer 2 (Pass)
//Storyboard Layer 3 (Foreground)
//Storyboard Layer 4 (Overlay)
//Storyboard Sound Samples

[TimingPoints]
1503,810.810810810811,4,2,1,30,1,0
1503,-66.6666666666667,4,2,1,30,0,0
19746,-50,4,2,1,35,0,0
20151,-50,4,2,1,35,0,0
20557,-50,4,2,1,40,0,0
20962,-50,4,2,1,40,0,0
44475,-50,4,2,1,45,0,0
46908,-50,4,2,1,50,0,0
53394,-50,4,2,1,55,0,0
55016,-50,4,2,1,60,0,0
59881,-50,4,2,1,70,0,1
80557,-50,4,2,1,60,0,0
80692,-50,4,2,1,35,0,0
89070,-50,4,2,1,43,0,0
112989,-50,4,2,1,47,0,0
115016,-50,4,2,1,54,0,0
121502,-50,4,2,1,58,0,0
123124,-50,4,2,1,63,0,0
124746,-50,4,2,1,35,0,0
126367,-50,4,2,1,60,0,0
127989,-50,4,2,1,70,0,1
153935,-50,4,2,1,60,0,0
166908,-50,4,2,1,75,0,1
176638,-50,4,2,1,65,0,0
176773,-50,4,2,1,20,0,0
184611,750,4,2,1,65,1,0
184746,839.160839160839,4,2,1,35,1,0
184746,-52.6315789473684,4,2,1,35,0,0
185445,-55.5555555555556,4,2,1,45,0,0
185585,-55.5555555555556,4,2,1,25,0,0
186284,-50,4,2,1,30,0,0
187543,-50,4,2,1,20,0,0
188662,-50,4,2,1,10,0,0
189501,-50,4,2,1,5,0,0

[Colours]
Combo1 : 255,194,235
Combo2 : 228,128,140
Combo3 : 105,107,158
Combo4 : 220,177,145

[HitObjects]
136,248,1503,5,2,3:2:0:0:
271,35,3124,2,0,B|383:47,1,90.0000034332277,2|0,3:2|3:0,0:0:0:0:
306,225,4746,5,2,3:2:0:0:
108,68,6367,2,0,B|200:60,2,90.0000034332277,2|0|0,0:0|3:0|0:0,0:0:0:0:
56,183,7989,5,2,3:2:0:0:
246,346,9611,2,0,L|254:234,2,90.0000034332277,2|0|0,3:2|3:0|0:0,0:0:0:0:
367,312,11232,6,0,P|426:213|411:136,1,180.000006866455,2|0,3:2|0:0,0:0:0:0:
317,77,12854,2,0,P|249:77|210:58,2,90.0000034332277,2|0|0,3:2|3:0|0:0,0:0:0:0:
321,202,14475,5,2,3:2:0:0:
244,302,15286,1,0,0:0:0:0:
140,229,16097,2,0,L|34:250,1,90.0000034332277,2|0,3:2|3:0,0:0:0:0:
73,122,17313,1,0,0:0:0:0:
73,122,17719,6,0,P|113:66|236:56,1,180.000006866455,2|0,3:2|0:0,0:0:0:0:
260,256,19746,2,0,P|320:284|386:270,2,120,0|8|0,3:0|1:2|0:0,0:0:0:0:
333,160,20962,6,0,P|321:104|265:48,1,120,4|0,0:0|0:0,0:0:0:0:
210,154,21773,2,0,P|154:150|90:186,1,120,0|2,1:0|0:0,0:0:0:0:
60,292,22584,1,0,3:0:0:0:
60,292,22989,1,0,3:0:0:0:
176,262,23394,2,0,P|252:262|308:286,1,120,0|0,1:0|0:0,0:0:0:0:
393,342,24205,6,0,L|413:210,1,120,0|0,3:0|0:0,0:0:0:0:
309,158,25016,2,0,L|289:26,1,120,0|2,1:0|0:0,0:0:0:0:
207,125,25827,1,0,3:0:0:0:
207,125,26232,1,0,3:0:0:0:
104,62,26638,2,0,P|32:95|0:158,1,120,0|2,1:0|0:0,0:0:0:0:
116,180,27448,6,0,P|125:237|83:309,1,120,0|0,3:0|0:0,0:0:0:0:
189,373,28259,2,0,P|251:363|311:362,1,120,0|2,1:0|0:0,0:0:0:0:
426,366,29070,2,0,P|473:308|477:249,1,120,0|0,3:0|3:0,0:0:0:0:
358,263,29881,2,0,P|338:207|335:130,1,120,0|2,1:0|0:0,0:0:0:0:
431,78,30692,5,0,3:0:0:0:
431,78,31097,1,0,0:0:0:0:
317,40,31502,2,0,P|228:51|185:36,1,120,2|0,1:2|0:0,0:0:0:0:
109,122,32313,1,0,3:0:0:0:
109,122,32719,1,2,3:2:0:0:
209,186,33124,2,0,P|243:255|237:317,1,120,2|2,1:2|0:0,0:0:0:0:
126,263,33935,6,0,P|70:270|12:313,1,120,4|0,0:0|0:0,0:0:0:0:
113,378,34746,1,0,1:0:0:0:
226,338,35151,2,0,P|308:345|348:374,1,120,0|0,0:0|3:0,0:0:0:0:
367,247,35962,2,0,L|354:120,1,120,0|0,3:0|1:0,0:0:0:0:
428,36,36773,6,0,P|480:66|467:135,1,120,0|0,0:0|3:0,0:0:0:0:
472,240,37584,1,0,0:0:0:0:
372,176,37989,1,0,1:0:0:0:
372,176,38394,2,0,P|301:198|232:184,1,120,2|0,0:0|3:0,0:0:0:0:
172,106,39205,1,0,3:0:0:0:
126,217,39611,2,0,L|161:349,1,120,0|0,1:0|0:0,0:0:0:0:
47,284,40421,6,0,P|24:224|45:158,1,120,0|0,3:0|0:0,0:0:0:0:
39,51,41232,2,0,P|98:88|146:81,1,120,0|2,1:0|0:0,0:0:0:0:
226,169,42043,2,0,L|350:178,1,120,0|0,3:0|3:0,0:0:0:0:
392,288,42854,1,0,1:0:0:0:
483,210,43259,2,0,P|486:148|438:75,1,120,0|2,0:0|0:0,0:0:0:0:
362,29,44070,1,2,0:0:0:0:
264,98,44475,2,0,P|176:77|150:47,1,120,2|0,1:2|0:0,0:0:0:0:
62,131,45286,6,0,P|34:196|45:232,1,80,2|0,0:0|1:0,0:0:0:0:
45,241,45692,2,0,P|84:289|82:368,1,120,0|2,3:0|1:2,0:0:0:0:
184,272,46502,1,0,3:0:0:0:
288,336,46908,6,0,P|344:360|400:336,1,120,4|0,0:0|0:0,0:0:0:0:
400,220,47719,2,0,P|344:196|288:220,1,120,2|0,1:2|0:0,0:0:0:0:
217,122,48530,1,2,3:2:0:0:
217,122,48935,1,0,3:0:0:0:
280,20,49340,2,0,P|360:20|412:64,1,120,2|0,1:2|0:0,0:0:0:0:
484,116,50151,6,0,P|416:128|360:172,1,120,2|0,3:2|0:0,0:0:0:0:
348,272,50962,2,0,P|416:260|472:216,1,120,2|0,1:2|0:0,0:0:0:0:
456,352,51773,1,2,3:2:0:0:
456,352,52178,2,0,L|368:368,1,80,2|0,3:2|0:0,0:0:0:0:
336,360,52584,2,0,L|244:348,1,80,2|0,1:2|0:0,0:0:0:0:
216,360,52989,1,0,3:0:0:0:
168,252,53394,5,4,0:0:0:0:
84,336,53800,1,0,3:0:0:0:
16,236,54205,1,0,3:0:0:0:
100,152,54611,1,0,3:0:0:0:
80,32,55016,5,0,3:0:0:0:
200,48,55421,1,0,3:0:0:0:
316,20,55827,1,2,3:2:0:0:
412,92,56232,1,2,3:2:0:0:
278,161,58259,6,0,L|292:240,1,80,0|0,1:0|1:0,0:0:0:0:
376,324,58935,5,0,3:0:0:0:
376,324,59070,2,0,P|428:292|460:256,1,80,2|0,3:2|3:0,0:0:0:0:
480,264,59475,2,0,P|444:212|440:168,1,80,0|0,3:0|0:0,0:0:0:0:
441,156,59881,6,0,P|409:90|365:64,1,120,4|0,0:0|0:0,0:0:0:0:
324,176,60692,2,0,P|232:208|196:192,1,120,8|0,1:2|0:0,0:0:0:0:
163,263,61367,1,0,0:0:0:0:
163,263,61502,2,0,P|88:257|35:266,1,120,2|0,0:0|3:0,0:0:0:0:
16,148,62313,2,0,L|32:-8,1,120,10|0,1:2|0:0,0:0:0:0:
104,60,62989,1,0,0:0:0:0:
104,60,63124,6,0,P|132:124|184:148,1,120,2|0,3:2|0:0,0:0:0:0:
280,200,63935,2,0,P|276:124|296:108,1,80,10|0,1:2|0:0,0:0:0:0:
272,86,64340,1,0,0:0:0:0:
360,4,64746,2,0,L|504:16,1,120,2|0,3:2|3:0,0:0:0:0:
492,132,65557,2,0,P|468:192|448:268,1,120,10|0,1:2|0:0,0:0:0:0:
336,216,66367,6,0,P|236:212|200:240,1,120,2|0,3:2|0:0,0:0:0:0:
172,328,67178,2,0,P|96:324|28:284,1,120,10|0,1:2|0:0,0:0:0:0:
96,236,67854,1,0,0:0:0:0:
96,236,67989,2,0,L|60:124,1,80,2|2,3:2|0:0,0:0:0:0:
88,124,68394,1,0,3:2:0:0:
208,128,68800,2,0,P|201:63|228:-1,1,120,10|0,1:2|0:0,0:0:0:0:
314,84,69611,6,0,L|321:221,1,120,2|0,3:2|0:0,0:0:0:0:
400,292,70421,2,0,P|452:252|464:200,1,120,10|0,1:2|0:0,0:0:0:0:
503,87,71232,2,0,P|443:43|401:-12,1,120,2|0,3:2|3:0,0:0:0:0:
359,114,72043,1,8,1:2:0:0:
279,114,72313,2,0,P|215:84|161:43,1,120,10|0,1:2|0:0,0:0:0:0:
164,16,72854,6,0,P|112:52|88:128,1,120,4|0,0:0|0:0,0:0:0:0:
148,208,73665,2,0,P|84:244|24:256,1,120,10|0,1:2|0:0,0:0:0:0:
76,328,74340,1,0,0:0:0:0:
76,328,74475,2,0,P|148:368|212:364,1,120,2|0,3:2|3:0,0:0:0:0:
256,272,75286,2,0,L|348:280,1,80,10|0,1:2|0:0,0:0:0:0:
360,312,75692,2,0,L|452:344,1,80,2|0,0:0|0:0,0:0:0:0:
476,336,76097,6,0,P|500:272|472:204,1,120,2|0,3:2|0:0,0:0:0:0:
380,172,76908,2,0,L|336:32,1,120,10|0,1:2|0:0,0:0:0:0:
264,76,77584,1,2,0:0:0:0:
264,76,77719,2,0,P|220:24|176:28,1,80,4|0,0:0|3:0,0:0:0:0:
176,36,78124,2,0,P|72:68|48:48,1,120,2|8,0:0|1:2,0:0:0:0:
24,132,78800,2,0,L|32:180,1,40,8|0,1:2|3:0,0:0:0:0:
60,288,79340,5,0,3:0:0:0:
148,204,79746,1,0,3:0:0:0:
264,238,80151,1,0,3:0:0:0:
292,355,80557,1,2,3:2:0:0:
292,352,87854,6,0,L|384:304,1,80,8|8,0:0|0:0,0:0:0:0:
284,176,88665,1,0,1:0:0:0:
196,260,89070,6,0,P|140:232|92:176,1,120,4|0,0:0|0:0,0:0:0:0:
0,124,89881,2,0,P|44:84|112:72,1,120,0|2,1:0|0:0,0:0:0:0:
204,136,90692,2,0,P|248:88|300:52,1,120,0|0,3:0|3:0,0:0:0:0:
380,136,91502,2,0,L|528:160,1,120,0|2,1:0|0:0,0:0:0:0:
436,260,92313,5,0,3:0:0:0:
436,260,92719,1,0,0:0:0:0:
360,352,93124,2,0,P|324:308|316:236,1,120,0|2,1:0|0:0,0:0:0:0:
220,324,93935,1,0,3:0:0:0:
220,324,94340,1,0,3:0:0:0:
160,219,94746,2,0,P|200:171|210:92,1,120,2|2,1:2|0:0,0:0:0:0:
92,121,95557,6,0,P|32:141|0:97,1,120,0|0,3:0|0:0,0:0:0:0:
80,12,96367,2,0,B|228:0|224:0,1,120,0|2,1:0|0:0,0:0:0:0:
308,52,97178,2,0,P|412:88|428:104,1,120,0|0,3:0|3:0,0:0:0:0:
328,172,97989,1,2,1:2:0:0:
420,248,98394,1,2,0:0:0:0:
420,248,98800,6,0,P|368:296|328:352,1,120,0|0,3:0|0:0,0:0:0:0:
252,252,99611,2,0,P|220:192|228:112,1,120,2|0,1:2|0:0,0:0:0:0:
116,200,100421,2,0,L|-4:232,1,120,0|2,3:0|3:2,0:0:0:0:
24,112,101232,1,2,1:2:0:0:
24,112,101638,1,2,0:0:0:0:
144,104,102043,6,0,P|196:72|260:68,1,120,4|0,0:0|0:0,0:0:0:0:
368,104,102854,1,0,1:0:0:0:
328,216,103259,2,0,P|324:264|348:344,1,120,2|0,0:0|3:0,0:0:0:0:
224,308,104070,2,0,P|184:248|144:224,1,120,0|0,3:0|1:0,0:0:0:0:
28,260,104881,6,0,L|12:104,1,120,2|0,0:0|3:0,0:0:0:0:
64,30,105692,1,0,0:0:0:0:
134,127,106097,1,2,1:2:0:0:
235,63,106502,2,0,P|288:63|332:118,1,120,2|0,0:0|3:0,0:0:0:0:
284,221,107313,1,0,3:0:0:0:
403,237,107719,2,0,P|441:304|478:332,1,120,0|0,1:0|0:0,2:0:0:0:
358,362,108530,6,0,L|230:380,1,120,0|0,3:0|0:0,0:0:0:0:
212,262,109340,1,0,1:0:0:0:
99,304,109746,2,0,P|47:260|23:200,1,120,2|0,0:0|3:0,0:0:0:0:
40,96,110557,1,0,3:0:0:0:
148,148,110962,1,0,1:0:0:0:
148,148,111367,2,0,P|232:160|268:136,1,120,2|0,0:0|3:0,0:0:0:0:
368,88,112178,1,2,0:0:0:0:
368,88,112584,1,0,1:0:0:0:
436,188,112989,6,0,P|408:256|352:264,1,120,0|2,0:0|3:2,0:0:0:0:
304,316,113665,1,8,0:0:0:0:
304,316,113800,2,0,L|164:332,1,120,2|10,3:2|1:2,0:0:0:0:
104,324,114475,2,0,L|48:308,1,40,2|0,0:0|3:0,0:0:0:0:
100,196,115016,6,0,P|52:136|-4:140,1,120,6|2,0:0|0:0,0:0:0:0:
84,36,115827,2,0,P|148:44|212:24,1,120,2|0,1:2|0:0,0:0:0:0:
204,148,116638,1,2,3:2:0:0:
204,148,117043,1,0,3:0:0:0:
320,116,117448,2,0,P|398:131|435:173,1,120,2|0,1:2|0:0,0:0:0:0:
334,236,118259,6,0,P|266:252|198:292,1,120,2|0,3:2|0:0,0:0:0:0:
159,377,119070,2,0,P|99:333|35:341,1,120,2|0,1:2|0:0,0:0:0:0:
20,220,119881,2,0,L|104:192,1,80,2|0,3:2|0:0,0:0:0:0:
108,156,120286,2,0,P|168:104|160:44,1,120,2|2,3:2|1:2,0:0:0:0:
244,40,120962,2,0,L|276:84,1,40,0|0,0:0|3:0,0:0:0:0:
256,192,121502,5,4,0:0:0:0:
328,288,121908,1,0,3:0:0:0:
440,244,122313,1,0,3:0:0:0:
368,148,122719,1,0,3:0:0:0:
256,192,123124,5,0,3:0:0:0:
201,84,123530,1,0,3:0:0:0:
92,136,123935,1,0,3:0:0:0:
66,17,124341,1,2,3:2:0:0:
66,17,126367,6,0,L|56:120,1,80,0|0,1:0|1:0,0:0:0:0:
84,212,127043,5,0,3:0:0:0:
84,212,127178,2,0,P|152:200|192:208,1,80,10|0,1:2|0:0,0:0:0:0:
172,240,127584,2,0,P|224:280|260:268,1,80,0|0,3:0|0:0,0:0:0:0:
272,276,127989,6,0,P|368:276|400:320,1,120,4|0,0:0|0:0,0:0:0:0:
456,192,128800,2,0,P|472:124|472:48,1,120,8|0,1:2|0:0,0:0:0:0:
404,36,129475,1,0,0:0:0:0:
404,36,129611,2,0,P|332:48|268:16,1,120,2|0,3:2|3:0,0:0:0:0:
216,128,130421,2,0,L|80:164,1,120,10|0,1:2|0:0,0:0:0:0:
52,268,131232,6,0,P|80:312|144:316,1,120,2|0,3:2|0:0,0:0:0:0:
261,339,132043,2,0,L|273:215,1,120,10|0,1:2|0:0,0:0:0:0:
201,181,132719,1,0,0:0:0:0:
201,181,132854,2,0,P|133:157|107:129,1,80,2|0,3:2|0:0,0:0:0:0:
93,172,133259,2,0,L|59:51,1,120,0|8,3:0|1:2,0:0:0:0:
180,47,134070,2,0,P|243:49|278:30,1,80,0|0,0:0|0:0,0:0:0:0:
295,30,134475,6,0,P|353:84|354:145,1,120,2|0,3:2|0:0,0:0:0:0:
355,241,135286,2,0,P|410:280|477:282,1,120,10|0,1:2|0:0,0:0:0:0:
366,359,136097,2,0,P|296:371|257:358,1,80,0|2,3:0|0:0,0:0:0:0:
258,343,136502,1,0,3:0:0:0:
138,356,136908,2,0,P|89:346|59:280,1,120,10|0,1:2|0:0,0:0:0:0:
144,205,137719,6,0,P|124:126|74:123,1,120,2|0,3:2|0:0,0:0:0:0:
195,50,138530,2,0,L|336:16,1,120,10|0,1:2|0:0,0:0:0:0:
383,56,139205,1,0,0:0:0:0:
383,56,139340,2,0,L|379:167,1,80,2|2,3:2|0:0,0:0:0:0:
378,176,139746,1,0,3:0:0:0:
441,284,140151,2,0,P|395:283|352:296,1,80,8|10,1:2|0:0,0:0:0:0:
333,320,140557,2,0,P|293:344|223:339,1,80,0|0,3:0|3:0,0:0:0:0:
227,370,140962,6,0,L|195:248,1,120,4|0,0:0|0:0,0:0:0:0:
85,299,141773,2,0,P|69:238|-4:195,1,120,10|0,1:2|0:0,0:0:0:0:
139,162,142584,2,0,P|205:123|212:73,1,120,2|2,3:2|3:2,0:0:0:0:
296,171,143394,2,0,L|333:282,1,80,10|2,1:2|0:0,0:0:0:0:
335,284,143800,1,0,0:0:0:0:
454,276,144205,6,0,P|480:198|515:186,1,120,2|0,3:2|0:0,0:0:0:0:
436,91,145016,2,0,L|302:74,1,120,10|0,1:2|0:0,0:0:0:0:
275,144,145692,2,0,L|232:169,1,40,0|4,0:0|0:0,0:0:0:0:
195,98,146097,2,0,L|158:78,1,40,0|0,1:0|3:0,0:0:0:0:
142,197,146638,2,0,P|118:238|122:292,1,80,10|0,1:2|0:0,0:0:0:0:
151,287,147043,2,0,L|139:372,1,80,0|0,3:0|0:0,0:0:0:0:
99,368,147448,6,0,P|32:329|-11:332,1,120,4|0,0:0|0:0,0:0:0:0:
8,212,148259,2,0,P|60:167|64:97,1,120,10|0,1:2|0:0,0:0:0:0:
149,116,148935,1,0,0:0:0:0:
149,116,149070,2,0,P|202:86|250:93,1,80,2|8,3:2|1:2,0:0:0:0:
260,88,149475,1,0,0:0:0:0:
224,204,149881,2,0,L|240:304,1,80,10|0,1:2|3:0,0:0:0:0:
252,320,150286,1,2,0:0:0:0:
335,234,150692,6,0,P|403:222|475:246,1,120,4|8,0:0|0:0,0:0:0:0:
485,161,151367,2,0,L|498:16,1,120,4|0,0:0|3:0,0:0:0:0:
464,15,151908,1,2,1:2:0:0:
352,59,152313,2,0,P|304:61|241:48,1,80,0|0,3:0|3:0,0:0:0:0:
232,51,152719,2,0,L|209:135,1,80,2|0,1:2|0:0,0:0:0:0:
174,144,153124,2,0,P|125:192|82:170,1,120,0|0,1:0|1:0,0:0:0:0:
39,285,153935,6,0,P|108:289|169:307,1,120,4|0,0:0|0:0,0:0:0:0:
261,237,154746,1,10,1:2:0:0:
261,237,155151,1,0,0:0:0:0:
163,168,155557,2,0,L|31:153,1,120,0|0,3:0|3:0,0:0:0:0:
121,63,156367,2,0,P|179:33|231:53,1,120,10|0,1:2|0:0,0:0:0:0:
293,150,157178,6,0,P|360:151|421:129,1,120,2|0,3:2|0:0,0:0:0:0:
378,250,157989,2,0,P|318:249|261:267,1,120,10|0,1:2|0:0,0:0:0:0:
167,192,158800,1,2,3:2:0:0:
167,192,159205,1,0,3:0:0:0:
57,241,159611,2,0,L|68:369,1,120,10|2,1:2|0:0,0:0:0:0:
174,303,160421,6,0,P|188:238|157:182,1,120,2|0,3:2|0:0,0:0:0:0:
74,114,161232,1,10,1:2:0:0:
168,40,161638,1,2,0:0:0:0:
255,122,162043,2,0,L|376:107,1,120,2|0,3:2|3:0,0:0:0:0:
463,187,162854,1,10,1:2:0:0:
463,187,163259,1,0,0:0:0:0:
401,290,163665,2,0,P|340:248|288:258,1,120,2|2,3:2|0:0,0:0:0:0:
199,322,164475,2,0,P|191:255|170:182,1,120,10|2,1:2|0:0,0:0:0:0:
104,240,165151,1,2,0:0:0:0:
104,240,165286,6,0,P|53:225|14:187,1,80,0|0,3:0|0:0,0:0:0:0:
14,173,165692,1,0,3:0:0:0:
120,118,166097,2,0,L|152:38,1,80,8|10,1:2|1:2,0:0:0:0:
186,29,166502,1,0,3:0:0:0:
250,131,166908,6,0,P|222:179|223:261,1,120,4|0,0:0|0:0,0:0:0:0:
304,325,167719,2,0,P|239:364|171:357,1,120,8|0,1:2|0:0,0:0:0:0:
81,329,168530,2,0,L|59:194,1,120,2|0,3:2|3:0,0:0:0:0:
157,138,169340,2,0,P|99:87|81:55,1,80,8|0,1:2|3:0,0:0:0:0:
118,50,169746,2,0,L|197:43,1,80,0|0,0:0|0:0,0:0:0:0:
230,20,170151,6,0,P|272:71|274:143,1,120,2|0,3:2|0:0,0:0:0:0:
355,215,170962,2,0,L|496:200,1,120,8|2,1:2|0:0,0:0:0:0:
472,282,171638,1,0,0:0:0:0:
472,282,171773,2,0,P|429:332|394:335,1,80,4|0,0:0|1:0,0:0:0:0:
381,350,172178,2,0,P|319:340|283:348,1,80,0|0,3:0|3:0,0:0:0:0:
271,317,172584,2,0,L|142:324,1,120,8|0,1:2|3:0,0:0:0:0:
220,228,173394,6,0,L|87:220,1,120,4|0,0:0|3:0,0:0:0:0:
44,116,174205,1,0,3:0:0:0:
162,120,174611,1,0,3:0:0:0:
105,13,175016,6,0,L|234:18,1,120,0|0,3:0|3:0,0:0:0:0:
282,123,175828,1,0,3:0:0:0:
220,228,176232,1,0,3:0:0:0:
162,120,176638,5,2,1:2:0:0:
159,154,184746,6,0,P|165:226|193:274,1,113.999996955872,2|0,1:2|0:0,0:0:0:0:
258,234,185445,1,0,3:0:0:0:
258,234,185585,2,0,P|314:214|390:226,1,107.999996704102,2|0,0:0|3:0,0:0:0:0:
256,192,186424,12,0,190200,3:2:0:0:
