osu file format v14

[General]
AudioFilename: audio.mp3
AudioLeadIn: 0
PreviewTime: 58597
Countdown: 0
SampleSet: Soft
StackLeniency: 0.4
Mode: 0
LetterboxInBreaks: 0
WidescreenStoryboard: 0

[Editor]
Bookmarks: 1503,20962,46908,53394,59881,82584,89070,115016,121502,127989,153935,166908,176638
DistanceSpacing: 0.7
BeatDivisor: 6
GridSize: 4
TimelineZoom: 2.250002

[Metadata]
Title:Because of
TitleUnicode:Because of
Artist:Nase Yukana (CV: Akino Hana)
ArtistUnicode:名瀬ゆかな (CV: 秋野花)
Creator:Akino Hana
Version:I need you, I love you!!
Source:妹のセイイキ
Tags:imouto no seiiki ending theme ed feng eroge opening vn visual novel galgame honto no tokoro kemu Horie Shouta japanese Video Game 堀江晶太
BeatmapID:2314337
BeatmapSetID:1107354

[Difficulty]
HPDrainRate:6
CircleSize:4
OverallDifficulty:7
ApproachRate:8
SliderMultiplier:1.8
SliderTickRate:1

[Events]
//Background and Video events
0,0,"imouto.jpg",0,0
//Break Periods
2,82584,86698
2,179881,183861
//Storyboard Layer 0 (Background)
//Storyboard Layer 1 (Fail)
//Storyboard Layer 2 (Pass)
//Storyboard Layer 3 (Foreground)
//Storyboard Layer 4 (Overlay)
//Storyboard Sound Samples

[TimingPoints]
1503,810.810810810811,4,2,1,70,1,0
1503,-100,4,2,1,30,0,0
20151,-50,4,2,1,35,0,0
20557,-100,4,2,1,40,0,0
20962,-66.6666666666667,4,2,1,40,0,0
44475,-66.6666666666667,4,2,1,45,0,0
46908,-66.6666666666667,4,2,1,50,0,0
53394,-66.6666666666667,4,2,1,55,0,0
55016,-66.6666666666667,4,2,1,60,0,0
56638,-66.6666666666667,4,2,1,35,0,0
58259,-66.6666666666667,4,2,1,60,0,0
59881,-50,4,2,1,70,0,1
80557,-50,4,2,1,60,0,0
80692,-100,4,2,1,35,0,0
89070,-66.6666666666667,4,2,1,43,0,0
112989,-66.6666666666667,4,2,1,47,0,0
115016,-66.6666666666667,4,2,1,54,0,0
121502,-66.6666666666667,4,2,1,58,0,0
123124,-66.6666666666667,4,2,1,63,0,0
124746,-66.6666666666667,4,2,1,35,0,0
126367,-66.6666666666667,4,2,1,60,0,0
127989,-50,4,2,1,70,0,1
153935,-50,4,2,1,60,0,0
166908,-50,4,2,1,75,0,1
176638,-50,4,2,1,65,0,0
176773,-100,4,2,1,20,0,0
184611,750,4,2,1,65,1,0
184611,-50,4,2,1,65,0,0
184746,839.160839160839,4,2,1,35,1,0
184746,-71.4285714285714,4,2,1,35,0,0
185445,-71.4285714285714,4,2,1,45,0,0
185585,-83.3333333333333,4,2,1,25,0,0
186424,-83.3333333333333,4,2,1,20,0,0
186494,-71.4285714285714,4,2,1,30,0,0
187543,-71.4285714285714,4,2,1,20,0,0
188662,-71.4285714285714,4,2,1,10,0,0
189501,-71.4285714285714,4,2,1,5,0,0

[Colours]
Combo1 : 255,194,235
Combo2 : 228,128,140
Combo3 : 105,107,158
Combo4 : 220,177,145

[HitObjects]
56,308,1503,5,2,3:2:0:0:
56,228,2313,1,0,0:0:0:0:
56,64,3124,2,0,P|92:80|160:76,2,90,2|0|0,3:2|3:0|0:0,0:0:0:0:
220,64,4746,5,2,3:2:0:0:
256,136,5557,1,0,0:0:0:0:
364,256,6367,2,0,P|412:264|456:256,2,90,2|0|0,0:0|3:0|0:0,0:0:0:0:
220,320,7989,5,2,3:2:0:0:
256,248,8800,1,0,0:0:0:0:
96,252,9611,2,0,P|104:192|96:156,1,90,2|0,3:2|3:0,0:0:0:0:
80,84,10421,1,0,0:0:0:0:
96,252,11232,5,2,3:2:0:0:
212,368,12043,1,0,0:0:0:0:
256,212,12854,1,2,3:2:0:0:
256,212,13259,1,0,3:0:0:0:
256,212,13665,1,0,0:0:0:0:
292,64,14475,5,2,3:2:0:0:
192,192,15286,1,0,0:0:0:0:
324,284,16097,1,2,3:2:0:0:
400,316,16502,1,0,3:0:0:0:
472,284,16908,2,0,P|480:232|468:184,1,90,0|0,0:0|0:0,0:0:0:0:
512,124,17719,5,2,3:2:0:0:
440,88,18530,2,0,P|388:83|338:92,1,90,0|0,0:0|0:0,0:0:0:0:
332,328,19746,6,0,P|320:284|288:260,1,60,0|0,3:0|3:0,0:0:0:0:
256,328,20151,2,0,P|208:308|172:240,1,120,8|2,1:2|0:0,0:0:0:0:
173,251,20557,2,0,L|83:251,1,60,0|0,0:0|0:0,0:0:0:0:
72,252,20962,5,4,0:0:0:0:
44,120,21367,1,0,0:0:0:0:
196,176,21773,1,0,1:0:0:0:
156,20,22178,1,2,0:0:0:0:
196,176,22584,2,0,P|264:192|336:176,1,135.000005149842,0|0,3:0|3:0,0:0:0:0:
415,316,23394,2,0,P|347:300|307:312,1,90.0000034332277,0|0,1:0|0:0,0:0:0:0:
299,331,23800,1,0,0:0:0:0:
140,340,24205,5,0,3:0:0:0:
156,216,24611,1,0,0:0:0:0:
52,368,25016,1,0,1:0:0:0:
12,204,25421,1,2,0:0:0:0:
152,212,25827,2,0,P|151:150|142:124,1,90.0000034332277,0|2,3:0|0:0,0:0:0:0:
131,90,26232,1,0,3:0:0:0:
304,220,26638,2,0,P|308:149|323:118,1,90.0000034332277,0|0,1:0|0:0,0:0:0:0:
329,99,27043,1,2,0:0:0:0:
148,328,27448,6,0,L|283:307,1,135.000005149842,0|0,3:0|0:0,0:0:0:0:
436,320,28259,1,0,1:0:0:0:
488,196,28665,1,2,0:0:0:0:
353,213,29070,2,0,P|272:180|200:180,1,135.000005149842,0|0,3:0|3:0,0:0:0:0:
320,84,29881,1,0,1:0:0:0:
393,135,30151,1,0,0:0:0:0:
393,135,30286,1,2,0:0:0:0:
224,176,30692,5,0,3:0:0:0:
224,176,31097,1,0,0:0:0:0:
276,328,31503,2,0,P|195:295|123:295,1,135.000005149842,2|0,1:2|0:0,0:0:0:0:
4,328,32313,1,0,3:0:0:0:
24,196,32719,1,2,3:2:0:0:
172,176,33124,1,2,1:2:0:0:
300,80,33530,2,0,P|353:97|397:126,1,90.0000034332277,2|0,0:0|0:0,0:0:0:0:
448,161,33935,5,4,0:0:0:0:
448,161,34340,1,0,0:0:0:0:
448,312,34746,2,0,P|373:296|308:297,1,135.000005149842,0|0,1:0|0:0,0:0:0:0:
184,320,35557,2,0,L|141:200,1,90.0000034332277,0|0,3:0|0:0,0:0:0:0:
140,196,35962,1,0,3:0:0:0:
267,94,36367,2,0,P|200:68|164:36,1,90.0000034332277,0|0,1:0|0:0,0:0:0:0:
174,23,36773,1,0,0:0:0:0:
24,116,37178,5,0,3:0:0:0:
138,192,37584,1,0,0:0:0:0:
267,94,37989,1,0,1:0:0:0:
477,208,38394,2,0,P|423:170|400:108,1,135.000005149842,2|0,0:0|3:0,0:0:0:0:
324,160,39070,1,2,0:0:0:0:
324,160,39205,1,0,3:0:0:0:
192,296,39611,2,0,P|132:260|80:264,1,90.0000034332277,0|2,1:0|0:0,0:0:0:0:
72,256,40016,1,0,0:0:0:0:
0,140,40421,6,0,L|136:112,1,135.000005149842,0|0,3:0|0:0,0:0:0:0:
268,128,41232,1,0,1:0:0:0:
232,260,41638,1,2,0:0:0:0:
344,336,42043,2,0,P|344:256|380:200,1,135.000005149842,0|0,3:0|3:0,0:0:0:0:
496,100,42854,1,0,1:0:0:0:
504,236,43259,1,0,0:0:0:0:
370,209,43665,5,2,0:0:0:0:
370,209,44070,1,2,0:0:0:0:
228,100,44475,2,0,P|188:88|96:108,1,135.000005149842,2|0,1:2|0:0,0:0:0:0:
172,216,45151,1,0,0:0:0:0:
172,216,45286,2,0,P|176:276|196:312,1,90.0000034332277,2|0,0:0|1:0,0:0:0:0:
232,292,45692,2,0,P|284:292|324:312,1,90.0000034332277,0|0,3:0|0:0,0:0:0:0:
380,360,46097,2,0,L|488:352,1,90.0000034332277,2|2,1:2|0:0,0:0:0:0:
508,284,46502,1,0,3:0:0:0:
496,92,46908,6,0,P|408:84|352:44,1,135.000005149842,4|0,0:0|0:0,0:0:0:0:
284,228,47719,1,2,1:2:0:0:
112,152,48124,2,0,P|140:120|188:92,1,90.0000034332277,0|0,0:0|0:0,0:0:0:0:
296,120,48530,2,0,P|276:32|244:-4,1,135.000005149842,2|0,3:2|3:0,0:0:0:0:
284,228,49340,1,2,1:2:0:0:
172,128,49746,1,0,0:0:0:0:
68,288,50016,1,0,0:0:0:0:
68,288,50151,6,0,P|128:256|216:272,1,135.000005149842,2|0,3:2|0:0,0:0:0:0:
260,84,50962,2,0,P|200:44|116:45,1,135.000005149842,2|0,1:2|0:0,0:0:0:0:
328,28,51773,2,0,L|420:36,1,90.0000034332277,2|0,3:2|0:0,0:0:0:0:
452,108,52178,2,0,L|362:117,1,90.0000034332277,2|0,3:2|0:0,0:0:0:0:
295,220,52584,2,0,P|335:199|380:196,1,90.0000034332277,2|0,1:2|0:0,0:0:0:0:
432,260,52989,1,0,3:0:0:0:
124,336,53394,5,4,0:0:0:0:
168,208,53800,1,0,3:0:0:0:
304,148,54205,1,0,3:0:0:0:
460,188,54611,1,0,3:0:0:0:
404,356,55016,5,0,3:0:0:0:
312,192,55422,1,0,3:0:0:0:
164,236,55692,1,0,0:0:0:0:
164,236,55827,1,2,3:2:0:0:
256,60,56097,1,8,0:0:0:0:
256,60,56233,1,2,3:2:0:0:
308,184,56638,5,0,3:0:0:0:
312,192,57448,2,0,L|436:200,1,90.0000034332277,0|0,1:0|3:0,0:0:0:0:
224,256,58259,5,0,1:0:0:0:
256,60,58530,1,0,1:0:0:0:
364,140,58935,5,0,3:0:0:0:
364,140,59070,2,0,P|316:156|272:148,1,90.0000034332277,2|0,3:2|3:0,0:0:0:0:
200,128,59475,2,0,P|120:128|104:136,1,90.0000034332277,0|0,3:0|0:0,0:0:0:0:
48,220,59881,6,0,P|106:228|159:203,1,120,4|0,0:0|0:0,0:0:0:0:
228,260,60286,2,0,P|304:256|368:276,1,120,0|0,0:0|0:0,0:0:0:0:
440,336,60692,2,0,L|430:216,1,120,8|0,1:2|0:0,0:0:0:0:
500,160,61097,2,0,P|444:124|372:140,1,120,0|0,0:0|0:0,0:0:0:0:
320,36,61502,2,0,P|244:52|164:32,1,120,2|2,0:0|0:0,0:0:0:0:
136,108,61908,1,0,3:0:0:0:
304,251,62178,1,0,0:0:0:0:
304,251,62313,2,0,P|247:268|209:313,1,120,10|0,1:2|0:0,0:0:0:0:
120,324,62719,1,0,0:0:0:0:
8,168,62989,1,0,0:0:0:0:
8,168,63124,6,0,P|60:228|120:240,1,120,2|0,3:2|0:0,0:0:0:0:
188,224,63530,2,0,L|224:92,1,120,0|0,0:0|0:0,0:0:0:0:
344,110,63935,2,0,P|316:58|264:32,1,120,10|0,1:2|0:0,0:0:0:0:
176,32,64340,1,0,0:0:0:0:
188,224,64611,1,0,0:0:0:0:
188,224,64746,2,0,P|248:216|324:220,1,120,2|2,3:2|0:0,0:0:0:0:
384,264,65151,2,0,P|448:236|472:180,1,120,0|0,3:0|0:0,0:0:0:0:
384,172,65557,2,0,P|372:100|376:44,1,120,10|0,1:2|0:0,0:0:0:0:
284,76,65962,1,0,0:0:0:0:
71,207,66232,1,0,0:0:0:0:
71,207,66367,6,0,P|155:227|203:219,1,120,2|0,3:2|0:0,0:0:0:0:
260,168,66773,1,0,0:0:0:0:
484,264,67178,2,0,P|408:268|364:292,1,120,10|0,1:2|0:0,0:0:0:0:
316,368,67584,2,0,P|285:316|275:257,1,120,0|0,0:0|0:0,0:0:0:0:
268,164,67989,1,2,3:2:0:0:
192,336,68259,1,2,0:0:0:0:
192,336,68394,1,0,3:2:0:0:
0,152,68800,2,0,L|16:296,1,120,10|0,1:2|0:0,0:0:0:0:
13,271,69205,1,0,0:0:0:0:
84,104,69475,1,0,0:0:0:0:
84,104,69611,6,0,P|156:120|208:104,1,120,2|0,3:2|0:0,0:0:0:0:
256,36,70016,1,0,0:0:0:0:
486,87,70286,1,0,0:0:0:0:
486,87,70421,2,0,P|447:132|389:141,1,120,10|0,1:2|0:0,0:0:0:0:
308,180,70827,2,0,L|292:324,1,120,0|0,0:0|0:0,0:0:0:0:
220,348,71232,2,0,P|204:276|206:228,1,120,2|0,3:2|0:0,0:0:0:0:
120,260,71638,1,0,3:0:0:0:
294,299,71908,1,2,0:0:0:0:
294,299,72043,1,8,1:2:0:0:
264,120,72313,1,10,1:2:0:0:
344,164,72448,2,0,P|416:144|436:101,1,120,0|0,3:0|0:0,0:0:0:0:
368,36,72854,6,0,P|296:28|232:36,1,120,4|0,0:0|0:0,0:0:0:0:
272,120,73259,2,0,P|312:184|304:240,1,120,0|0,0:0|0:0,0:0:0:0:
237,319,73665,2,0,L|224:200,1,120,10|0,1:2|0:0,0:0:0:0:
276,116,74070,2,0,P|348:116|400:148,1,120,0|0,0:0|0:0,0:0:0:0:
224,200,74475,2,0,P|164:203|110:177,1,120,2|0,3:2|0:0,0:0:0:0:
44,116,74881,1,0,3:0:0:0:
131,368,75286,2,0,P|203:324|273:321,1,120,10|0,1:2|0:0,0:0:0:0:
320,352,75692,1,2,0:0:0:0:
492,304,75962,1,0,0:0:0:0:
490,280,76097,6,0,L|481:159,1,120,2|0,3:2|0:0,0:0:0:0:
392,180,76502,2,0,P|392:100|358:38,1,120,0|0,0:0|0:0,0:0:0:0:
304,132,76908,2,0,P|216:136|176:104,1,120,10|0,1:2|0:0,0:0:0:0:
120,68,77313,1,0,0:0:0:0:
92,248,77584,1,2,0:0:0:0:
8,216,77719,2,0,P|52:168|108:160,1,120,4|0,0:0|3:0,0:0:0:0:
176,216,78124,2,0,L|296:212,1,120,2|0,0:0|3:0,0:0:0:0:
318,191,78530,1,8,1:2:0:0:
448,308,78800,1,8,1:2:0:0:
476,296,78935,2,0,L|496:156,1,120,0|0,3:0|0:0,0:0:0:0:
448,99,79340,5,0,3:0:0:0:
268,128,79746,1,0,3:0:0:0:
148,284,80151,1,0,3:0:0:0:
60,64,80557,5,2,3:2:0:0:
264,340,87448,5,2,0:0:0:0:
188,292,87854,2,0,P|184:252|192:224,1,60,8|8,0:0|0:0,0:0:0:0:
80,328,88530,1,0,0:0:0:0:
80,328,88665,2,0,P|41:267|40:260,1,60,0|0,1:0|0:0,0:0:0:0:
16,200,89070,5,4,0:0:0:0:
140,148,89475,1,0,0:0:0:0:
32,28,89881,1,0,1:0:0:0:
32,28,90286,1,2,0:0:0:0:
192,12,90692,1,0,3:0:0:0:
296,136,91097,1,0,3:0:0:0:
159,275,91502,2,0,P|154:209|134:169,1,90.0000034332277,0|0,1:0|0:0,0:0:0:0:
128,150,91908,1,2,0:0:0:0:
272,232,92313,6,0,P|328:240|400:284,1,135.000005149842,0|0,3:0|0:0,0:0:0:0:
504,156,93124,1,0,1:0:0:0:
344,136,93530,1,2,0:0:0:0:
444,52,93935,1,0,3:0:0:0:
354,48,94205,1,2,0:0:0:0:
354,48,94340,1,0,3:0:0:0:
384,224,94746,2,0,P|336:228|280:212,1,90.0000034332277,2|0,1:2|0:0,0:0:0:0:
260,200,95151,1,2,0:0:0:0:
96,224,95557,5,0,3:0:0:0:
208,108,95962,1,0,0:0:0:0:
232,296,96367,1,0,1:0:0:0:
232,296,96773,1,2,0:0:0:0:
90,226,97178,2,0,P|54:154|58:86,1,135.000005149842,0|0,3:0|3:0,0:0:0:0:
212,132,97989,1,2,1:2:0:0:
92,4,98394,1,2,0:0:0:0:
276,48,98800,6,0,P|344:28|416:36,1,135.000005149842,0|0,3:0|0:0,0:0:0:0:
308,272,99611,2,0,P|320:196|292:144,1,135.000005149842,2|0,1:2|0:0,0:0:0:0:
236,216,100286,1,0,0:0:0:0:
236,216,100421,1,0,3:0:0:0:
228,344,100827,1,2,3:2:0:0:
96,188,101232,2,0,L|88:290,1,90.0000034332277,2|0,1:2|0:0,0:0:0:0:
86,318,101638,1,2,0:0:0:0:
16,104,102043,5,4,0:0:0:0:
16,104,102448,1,0,0:0:0:0:
160,176,102854,1,0,1:0:0:0:
128,44,103259,2,0,P|188:76|264:72,1,135.000005149842,2|0,0:0|3:0,0:0:0:0:
384,44,104070,1,0,3:0:0:0:
308,188,104475,1,0,1:0:0:0:
500,263,104881,6,0,P|436:280|402:322,1,90.0000034332277,2|0,0:0|3:0,0:0:0:0:
404,332,105286,1,0,3:0:0:0:
504,156,105692,1,0,0:0:0:0:
324,184,106097,1,2,1:2:0:0:
428,72,106502,1,2,0:0:0:0:
416,259,106908,1,0,3:0:0:0:
374,339,107178,1,2,0:0:0:0:
374,339,107313,1,0,3:0:0:0:
308,176,107719,2,0,P|270:171|204:188,1,90.0000034332277,0|2,1:0|0:0,0:0:0:0:
183,198,108124,1,0,0:0:0:0:
24,100,108530,5,0,3:0:0:0:
104,184,108935,1,0,0:0:0:0:
0,284,109340,1,0,1:0:0:0:
104,104,109746,2,0,P|168:96|244:108,1,135.000005149842,2|0,0:0|3:0,0:0:0:0:
308,236,110557,1,0,3:0:0:0:
468,344,110962,2,0,L|375:331,1,90.0000034332277,0|0,1:0|3:0,0:0:0:0:
352,304,111367,6,0,P|388:240|368:184,1,135.000005149842,2|0,0:0|3:0,0:0:0:0:
468,92,112178,1,2,0:0:0:0:
255,94,112584,2,0,P|292:68|336:60,1,90.0000034332277,0|0,1:0|0:0,0:0:0:0:
340,104,112989,2,0,P|324:180|304:204,1,90.0000034332277
240,172,113394,6,0,L|132:200,1,90.0000034332277,2|8,3:2|0:0,0:0:0:0:
104,260,113800,1,2,3:2:0:0:
240,344,114070,1,0,0:0:0:0:
240,344,114205,1,10,1:2:0:0:
404,308,114475,1,2,0:0:0:0:
404,308,114611,2,0,P|408:244|424:188,1,90.0000034332277,0|0,3:0|0:0,0:0:0:0:
488,176,115016,6,0,P|496:108|460:36,1,135.000005149842,6|2,0:0|0:0,0:0:0:0:
300,132,115827,1,2,1:2:0:0:
192,52,116232,2,0,L|284:56,1,90.0000034332277,0|0,0:0|0:0,0:0:0:0:
304,136,116638,1,2,3:2:0:0:
416,64,117043,1,0,3:0:0:0:
168,136,117448,2,0,P|115:105|19:105,1,135.000005149842,2|0,1:2|0:0,0:0:0:0:
76,220,118124,1,0,0:0:0:0:
76,220,118259,6,0,P|128:268|208:260,1,135.000005149842,2|0,3:2|0:0,0:0:0:0:
268,80,119070,1,2,1:2:0:0:
461,164,119475,2,0,L|372:168,1,90.0000034332277,0|0,0:0|0:0,0:0:0:0:
332,240,119881,2,0,P|256:240|244:200,1,90.0000034332277,2|0,3:2|0:0,0:0:0:0:
209,307,120286,2,0,P|176:256|176:212,1,90.0000034332277,2|0,3:2|0:0,0:0:0:0:
224,160,120692,2,0,P|188:112|128:104,1,90.0000034332277,2|0,1:2|0:0,0:0:0:0:
161,102,121097,1,0,3:0:0:0:
1,352,121502,6,0,P|52:364|88:328,1,90.0000034332277,4|0,0:0|0:0,0:0:0:0:
124,276,121908,2,0,P|168:256|212:264,1,90.0000034332277,0|0,3:0|0:0,0:0:0:0:
288,292,122313,2,0,P|332:316|384:312,1,90.0000034332277,0|0,3:0|0:0,0:0:0:0:
440,256,122719,2,0,P|472:292|500:344,1,90.0000034332277,0|0,3:0|0:0,0:0:0:0:
370,315,123124,6,0,P|338:279|310:227,1,90.0000034332277,0|0,3:0|0:0,0:0:0:0:
364,168,123530,2,0,P|332:140|284:128,1,90.0000034332277,0|0,3:0|0:0,0:0:0:0:
196,152,123935,2,0,P|144:160|88:144,1,90.0000034332277,0|8,3:0|0:0,0:0:0:0:
151,63,124340,2,0,P|135:23|77:21,1,90.0000034332277,2|0,3:2|0:0,0:0:0:0:
20,28,124746,5,0,3:0:0:0:
16,36,125557,2,0,L|4:156,1,90.0000034332277,0|0,1:0|3:0,0:0:0:0:
78,233,126367,5,0,1:0:0:0:
92,13,126638,1,0,1:0:0:0:
172,116,127043,5,0,3:0:0:0:
172,116,127178,2,0,P|216:104|268:128,1,90.0000034332277,10|0,1:2|0:0,0:0:0:0:
336,92,127584,2,0,P|372:128|412:108,1,90.0000034332277,0|0,3:0|0:0,0:0:0:0:
436,200,127989,6,0,P|384:244|376:296,1,120,4|0,0:0|0:0,0:0:0:0:
292,344,128394,2,0,P|288:272|244:212,1,120,0|0,0:0|0:0,0:0:0:0:
103,271,128800,2,0,P|149:307|207:304,1,120,8|0,1:2|0:0,0:0:0:0:
176,220,129205,2,0,P|188:152|172:96,1,120,0|0,0:0|0:0,0:0:0:0:
92,136,129611,1,2,3:2:0:0:
244,28,129881,1,2,0:0:0:0:
244,28,130016,2,0,P|312:28|356:56,1,120,0|0,3:0|0:0,0:0:0:0:
440,149,130421,2,0,L|320:140,1,120,10|0,1:2|0:0,0:0:0:0:
276,220,130827,1,0,0:0:0:0:
80,240,131097,1,0,0:0:0:0:
80,240,131232,6,0,P|100:164|20:84,1,180,2|0,3:2|0:0,0:0:0:0:
208,304,131908,1,0,0:0:0:0:
208,304,132043,2,0,P|200:196|224:172,1,120,10|0,1:2|0:0,0:0:0:0:
288,216,132448,2,0,P|348:220|408:196,1,120,0|0,0:0|0:0,0:0:0:0:
460,104,132854,2,0,P|376:96|352:64,1,120,2|0,3:2|0:0,0:0:0:0:
356,72,133259,1,0,3:0:0:0:
160,16,133665,2,0,P|96:76|88:140,1,120,8|0,1:2|0:0,0:0:0:0:
0,84,134070,1,0,0:0:0:0:
168,177,134340,1,0,0:0:0:0:
168,177,134475,6,0,P|132:117|76:105,1,120,2|0,3:2|0:0,0:0:0:0:
84,196,134881,2,0,P|112:260|152:308,1,120,0|0,0:0|0:0,0:0:0:0:
248,212,135286,2,0,P|348:228|356:245,1,120,10|0,1:2|0:0,0:0:0:0:
400,304,135692,1,0,0:0:0:0:
172,172,135962,1,2,0:0:0:0:
172,172,136097,2,0,L|154:54,1,120,0|2,3:0|0:0,0:0:0:0:
154,54,136502,1,0,3:0:0:0:
496,116,136773,1,0,0:0:0:0:
496,116,136908,2,0,P|432:116|364:100,1,120,10|0,1:2|0:0,0:0:0:0:
364,16,137313,2,0,L|224:8,1,120,0|0,0:0|0:0,0:0:0:0:
144,60,137719,6,0,L|25:67,1,120,2|0,3:2|0:0,0:0:0:0:
4,156,138124,1,0,0:0:0:0:
232,308,138394,1,0,0:0:0:0:
232,308,138530,2,0,P|148:272|100:288,1,120,10|0,1:2|0:0,0:0:0:0:
148,188,138935,2,0,L|267:181,1,120,0|0,0:0|0:0,0:0:0:0:
260,96,139340,2,0,P|304:52|372:40,1,120,2|2,3:2|0:0,0:0:0:0:
344,128,139746,1,0,3:0:0:0:
460,264,140016,1,2,0:0:0:0:
460,264,140151,1,8,1:2:0:0:
488,56,140421,1,10,0:0:0:0:
457,139,140557,2,0,P|389:147|329:115,1,120,0|0,3:0|3:0,3:0:0:0:
268,32,140962,6,0,P|200:32|132:52,1,120,4|0,0:0|0:0,0:0:0:0:
149,44,141367,1,0,0:0:0:0:
4,216,141773,2,0,P|76:204|124:224,1,120,10|0,1:2|0:0,0:0:0:0:
180,284,142178,2,0,P|240:268|292:228,1,120,0|0,0:0|0:0,0:0:0:0:
387,136,142584,2,0,L|376:256,1,120,2|0,3:2|0:0,0:0:0:0:
368,344,142989,1,2,3:2:0:0:
476,172,143394,2,0,P|480:108|424:40,1,120,10|2,1:2|0:0,0:0:0:0:
392,132,143800,2,0,P|285:116|248:72,1,120,0|0,0:0|0:0,0:0:0:0:
146,234,144205,6,0,P|196:203|256:200,1,120,2|0,3:2|0:0,0:0:0:0:
324,260,144611,2,0,P|326:319|299:372,1,120,0|0,0:0|0:0,0:0:0:0:
180,368,145016,2,0,P|120:320|64:316,1,120,10|0,1:2|0:0,0:0:0:0:
56,228,145421,2,0,L|44:100,1,120,0|0,0:0|0:0,0:0:0:0:
96,36,145827,6,0,L|156:72,1,60,4|0,0:0|0:0,0:0:0:0:
236,52,146097,1,0,1:0:0:0:
256,140,146232,2,0,L|344:128,1,60,0|0,3:0|0:0,0:0:0:0:
404,116,146502,1,0,3:0:0:0:
376,204,146638,2,0,P|344:256|356:316,1,120,10|0,1:2|0:0,0:0:0:0:
436,272,147043,1,0,3:0:0:0:
180,360,147313,1,0,0:0:0:0:
180,360,147448,6,0,P|122:322|60:294,1,120,4|0,0:0|0:0,0:0:0:0:
144,240,147854,2,0,P|130:172|105:109,1,120,0|0,0:0|0:0,0:0:0:0:
261,18,148259,2,0,L|204:124,1,120,10|0,1:2|0:0,0:0:0:0:
292,140,148665,2,0,P|359:126|422:101,1,120,0|0,0:0|0:0,0:0:0:0:
396,200,149070,5,2,3:2:0:0:
320,364,149340,1,8,1:2:0:0:
304,340,149475,1,0,0:0:0:0:
131,351,149746,1,0,3:0:0:0:
158,319,149881,1,10,1:2:0:0:
82,155,150151,1,0,3:0:0:0:
133,174,150286,1,2,0:0:0:0:
267,30,150557,1,0,1:0:0:0:
262,105,150692,1,4,0:0:0:0:
416,328,151097,5,8,0:0:0:0:
220,288,151367,2,0,P|164:264|104:272,1,120,4|0,0:0|0:0,0:0:0:0:
24,320,151773,1,0,3:0:0:0:
16,224,151908,2,0,P|24:144|72:120,1,120,2|2,1:2|3:2,0:0:0:0:
132,172,152313,2,0,P|192:148|204:88,1,120,0|0,3:0|3:0,0:0:0:0:
320,137,152719,2,0,L|272:28,1,120,2|0,1:2|0:0,0:0:0:0:
396,76,153124,5,0,1:0:0:0:
420,92,153259,1,0,1:0:0:0:
428,120,153394,1,0,1:0:0:0:
456,128,153530,5,0,1:0:0:0:
461,156,153665,1,0,3:0:0:0:
447,181,153800,1,0,3:0:0:0:
464,204,153935,6,0,P|436:292|368:268,1,180,4|0,0:0|0:0,0:0:0:0:
212,124,154746,2,0,P|128:116|48:180,1,180,10|0,1:2|0:0,0:0:0:0:
168,256,155421,1,2,0:0:0:0:
168,256,155557,2,0,P|256:260|308:292,1,120,0|0,3:0|0:0,0:0:0:0:
320,293,155962,1,0,3:0:0:0:
496,88,156367,2,0,P|432:92|384:52,1,120,10|0,1:2|0:0,0:0:0:0:
360,28,156773,2,0,P|304:88|300:132,1,120,0|0,0:0|0:0,0:0:0:0:
284,212,157178,6,0,P|180:216|84:280,1,180,2|0,3:2|0:0,0:0:0:0:
4,156,157854,1,0,0:0:0:0:
4,156,157989,2,0,P|68:132|112:76,1,120,10|0,1:2|0:0,0:0:0:0:
116,56,158394,2,0,P|220:76|236:120,1,120
288,140,158800,2,0,L|476:152,1,180,2|0,3:2|3:0,0:0:0:0:
504,364,159611,2,0,P|448:332|376:340,1,120,10|0,1:2|0:0,0:0:0:0:
372,300,160016,1,2,0:0:0:0:
336,276,160151,1,2,0:0:0:0:
296,284,160286,1,2,0:0:0:0:
280,324,160421,6,0,P|188:320|120:256,1,180,2|0,3:2|0:0,0:0:0:0:
40,8,161232,2,0,P|60:92|16:152,1,120,10|2,1:2|0:0,0:0:0:0:
28,156,161638,2,0,P|112:164|136:140,1,120,2|2,0:0|0:0,0:0:0:0:
273,81,162043,2,0,P|222:52|163:60,1,120,2|2,3:2|0:0,0:0:0:0:
164,59,162448,1,0,3:0:0:0:
180,240,162719,1,2,0:0:0:0:
180,240,162854,2,0,P|260:280|305:277,1,120,10|2,1:2|0:0,0:0:0:0:
330,273,163259,1,0,0:0:0:0:
76,296,163530,1,0,0:0:0:0:
76,296,163665,6,0,P|156:204|153:164,1,120,2|0,3:2|0:0,0:0:0:0:
160,172,164070,1,2,0:0:0:0:
344,156,164340,1,2,0:0:0:0:
344,156,164475,2,0,P|244:132|220:52,1,180,10|2,1:2|0:0,0:0:0:0:
352,16,165151,1,2,0:0:0:0:
352,16,165286,2,0,P|432:56|452:88,1,120,0|0,3:0|0:0,0:0:0:0:
492,144,165692,1,0,3:0:0:0:
456,304,165962,2,0,L|420:356,1,60,2|8,0:0|1:2,0:0:0:0:
316,224,166367,1,10,1:2:0:0:
316,224,166502,2,0,P|236:256|216:312,1,120,0|0,3:0|0:0,0:0:0:0:
112,356,166908,6,0,P|124:264|100:228,1,120,4|0,0:0|0:0,0:0:0:0:
24,236,167313,2,0,L|0:108,1,120,0|0,0:0|0:0,0:0:0:0:
148,160,167719,2,0,P|96:133|90:75,1,120,8|0,1:2|0:0,0:0:0:0:
160,16,168124,1,0,0:0:0:0:
272,156,168394,1,0,0:0:0:0:
272,156,168530,2,0,P|336:152|400:132,1,120,2|0,3:2|0:0,0:0:0:0:
424,44,168935,2,0,L|296:68,1,120,0|0,3:0|0:0,0:0:0:0:
160,116,169340,2,0,P|220:128|271:155,1,120,8|0,1:2|3:0,0:0:0:0:
244,244,169746,1,0,0:0:0:0:
424,232,170016,1,0,0:0:0:0:
424,232,170151,6,0,P|424:336|364:368,1,180,2|0,3:2|0:0,0:0:0:0:
188,332,170827,1,0,0:0:0:0:
188,332,170962,2,0,P|148:276|144:220,1,120,8|0,1:2|0:0,0:0:0:0:
56,244,171367,2,0,P|112:188|96:136,1,120,2|0,0:0|0:0,0:0:0:0:
12,4,171773,6,0,L|72:8,1,60,4|0,0:0|0:0,0:0:0:0:
140,68,172043,1,0,1:0:0:0:
107,153,172178,2,0,L|47:149,1,60,0|0,3:0|0:0,0:0:0:0:
140,68,172448,1,0,3:0:0:0:
212,120,172584,2,0,P|284:136|328:180,1,120,8|0,1:2|1:0,0:0:0:0:
408,148,172989,2,0,L|388:284,1,120,0|0,3:0|0:0,0:0:0:0:
377,355,173394,5,4,0:0:0:0:
488,216,173800,1,0,3:0:0:0:
328,100,174205,1,0,3:0:0:0:
240,300,174611,1,0,3:0:0:0:
468,312,175016,5,0,3:0:0:0:
236,296,175421,1,0,3:0:0:0:
336,152,175692,1,8,1:2:0:0:
336,152,175827,1,0,3:0:0:0:
112,220,176097,1,0,0:0:0:0:
112,220,176232,1,0,3:0:0:0:
256,16,176638,5,2,1:2:0:0:
432,324,184611,6,0,L|388:304,1,30,0|0,3:0|3:0,0:0:0:0:
428,340,184746,2,0,P|336:348|285:309,1,125.999996154785,2|0,1:2|0:0,0:0:0:0:
136,268,185445,5,0,3:0:0:0:
140,284,185585,2,0,P|208:280|250:242,1,107.999996704102,2|0,0:0|3:0,0:0:0:0:
304,132,186424,5,4,3:2:0:0:
256,192,186564,12,0,190200,0:0:0:0:
