osu file format v14

[General]
AudioFilename: audio.mp3
AudioLeadIn: 0
PreviewTime: 89751
Countdown: 0
SampleSet: Soft
StackLeniency: 0.7
Mode: 0
LetterboxInBreaks: 0
WidescreenStoryboard: 0

[Editor]
Bookmarks: 154397
DistanceSpacing: 1.3
BeatDivisor: 4
GridSize: 32
TimelineZoom: 1

[Metadata]
Title:Watashi no Koe
TitleUnicode:わたしの声
Artist:Naruse Jun(CV.Minase Inori)
ArtistUnicode:成瀬 順(CV.水瀬いのり)
Creator:Kyuukai
Version:Voiceless.
Source:心が叫びたがってるんだ。
Tags:映画「心が叫びたがってるんだ。」オリジナル・サウンドトラック The Anthem of the Heart soundtrack Kokoro ga Sakebitagatterunda greensleeves yaleufeu
BeatmapID:1190376
BeatmapSetID:562890

[Difficulty]
HPDrainRate:4
CircleSize:4
OverallDifficulty:5
ApproachRate:6
SliderMultiplier:1.6
SliderTickRate:1

[Events]
//Background and Video events
0,0,"Watashi no Koe bg.jpg",0,0
//Break Periods
//Storyboard Layer 0 (Background)
//Storyboard Layer 1 (Fail)
//Storyboard Layer 2 (Pass)
//Storyboard Layer 3 (Foreground)
//Storyboard Sound Samples

[TimingPoints]
400.264108418601,576.923076923077,3,2,2,60,1,0
6746,-100,3,2,10,60,0,0
7323,-100,3,2,11,60,0,0
7900,-100,3,2,2,60,0,0
8477,-100,3,2,12,60,0,0
9054,-100,3,2,13,60,0,0
9919,-100,3,2,14,60,0,0
10207,-100,3,2,13,60,0,0
10784,-100,3,2,12,60,0,0
11361,-100,3,2,2,60,0,0
11938,-100,3,2,15,60,0,0
12515,-100,3,2,22,60,0,0
13381,-100,3,2,10,60,0,0
13669,-100,3,2,15,60,0,0
14246,-100,3,2,11,60,0,0
14823,-100,3,2,2,60,0,0
15400,-100,3,2,10,60,0,0
16842,-100,3,2,22,60,0,0
17131,-100,3,2,10,60,0,0
17707,-100,3,2,15,60,0,0
18284,-100,3,2,2,60,0,0
18861,-100,3,2,17,60,0,0
19438,-100,3,2,18,60,0,0
20592,-100,3,2,10,60,0,0
21169,-100,3,2,11,60,0,0
21746,-100,3,2,2,60,0,0
22323,-100,3,2,12,60,0,0
22900,-100,3,2,13,60,0,0
23765,-100,3,2,14,60,0,0
24054,-100,3,2,13,60,0,0
24631,-100,3,2,12,60,0,0
25207,-100,3,2,2,60,0,0
25784,-100,3,2,15,60,0,0
26361,-100,3,2,22,60,0,0
27227,-100,3,2,10,60,0,0
27515,-100,3,2,15,60,0,0
28092,-100,3,2,11,60,0,0
28669,-100,3,2,2,60,0,0
28957,-100,3,2,15,60,0,0
29246,-100,3,2,10,60,0,0
29823,-100,3,2,17,60,0,0
30688,-100,3,2,16,60,0,0
30977,-100,3,2,17,60,0,0
31554,-100,3,2,10,60,0,0
32131,-100,3,2,2,60,0,0
33284,-100,3,2,1,60,0,0
34438,-100,3,2,10,60,0,0
35015,-100,3,2,11,60,0,0
35592,-100,3,2,2,60,0,0
36169,-100,3,2,12,60,0,0
36746,-100,3,2,13,60,0,0
37611,-100,3,2,14,60,0,0
37900,-100,3,2,13,60,0,0
38477,-100,3,2,12,60,0,0
39054,-100,3,2,2,60,0,0
39631,-100,3,2,15,60,0,0
40207,-100,3,2,22,60,0,0
41073,-100,3,2,10,60,0,0
41361,-100,3,2,15,60,0,0
41938,-100,3,2,11,60,0,0
42515,-100,3,2,2,60,0,0
43092,-100,3,2,10,60,0,0
44534,-100,3,2,22,60,0,0
44823,-100,3,2,10,60,0,0
45400,-100,3,2,15,60,0,0
45977,-100,3,2,2,60,0,0
46554,-100,3,2,17,60,0,0
47131,-100,3,2,18,60,0,0
48284,-100,3,2,10,60,0,0
48861,-100,3,2,11,60,0,0
49438,-100,3,2,2,60,0,0
50015,-100,3,2,12,60,0,0
50592,-100,3,2,13,60,0,0
51457,-100,3,2,14,60,0,0
51746,-100,3,2,13,60,0,0
52323,-100,3,2,12,60,0,0
52900,-100,3,2,2,60,0,0
53477,-100,3,2,15,60,0,0
54054,-100,3,2,22,60,0,0
54919,-100,3,2,10,60,0,0
55207,-100,3,2,15,60,0,0
55784,-100,3,2,11,60,0,0
56361,-100,3,2,2,60,0,0
56650,-100,3,2,15,60,0,0
56938,-100,3,2,10,60,0,0
57515,-100,3,2,17,60,0,0
58381,-100,3,2,16,60,0,0
58669,-100,3,2,17,60,0,0
59246,-100,3,2,10,60,0,0
59823,-100,3,2,2,60,0,0
62131,-100,3,2,13,60,0,0
62419,-100,3,2,19,60,0,0
62707,-100,3,2,20,60,0,0
63284,-100,3,2,2,60,0,0
64438,-100,3,2,20,60,0,0
65304,-100,3,2,21,60,0,0
65592,-100,3,2,13,60,0,0
66169,-100,3,2,12,60,0,0
66746,-100,3,2,2,60,0,0
67323,-100,3,2,15,60,0,0
67900,-100,3,2,22,60,0,0
68765,-100,3,2,10,60,0,0
69054,-100,3,2,15,60,0,0
69631,-100,3,2,11,60,0,0
70207,-100,3,2,2,60,0,0
70784,-100,3,2,10,60,0,0
72227,-100,3,2,22,60,0,0
72515,-100,3,2,10,60,0,0
73092,-100,3,2,15,60,0,0
73669,-100,3,2,2,60,0,0
74246,-100,3,2,17,60,0,0
74823,-100,3,2,18,60,0,0
75977,-100,3,2,11,60,0,0
76265,-100,3,2,13,60,0,0
76554,-100,3,2,20,60,0,0
77131,-100,3,2,2,60,0,0
77707,-100,3,2,20,60,0,0
79150,-100,3,2,21,60,0,0
79438,-100,3,2,13,60,0,0
80015,-100,3,2,12,60,0,0
80592,-100,3,2,2,60,0,0
81169,-100,3,2,15,60,0,0
81746,-100,3,2,22,60,0,0
82611,-100,3,2,10,60,0,0
82900,-100,3,2,15,60,0,0
83477,-100,3,2,11,60,0,0
84054,-100,3,2,2,60,0,0
84342,-100,3,2,15,60,0,0
84631,-100,3,2,10,60,0,0
85207,-100,3,2,17,60,0,0
86073,-100,3,2,16,60,0,0
86361,-100,3,2,17,60,0,0
86938,-100,3,2,10,60,0,0
87515,-100,3,2,2,60,0,0
88092,-100,3,2,11,60,0,0
88381,-100,3,2,13,60,0,0
88669,-100,3,2,19,60,0,0
89823,-100,3,2,10,60,0,0
90400,-100,3,2,11,80,0,1
90977,-100,3,2,2,80,0,1
91554,-100,3,2,12,80,0,1
92131,-100,3,2,13,80,0,1
92996,-100,3,2,14,80,0,1
93284,-100,3,2,13,80,0,1
93861,-100,3,2,12,80,0,1
94438,-100,3,2,2,80,0,1
95015,-100,3,2,15,80,0,1
95592,-100,3,2,22,80,0,1
96457,-100,3,2,10,80,0,1
96746,-100,3,2,15,80,0,1
97323,-100,3,2,11,80,0,1
97900,-100,3,2,2,80,0,1
98477,-100,3,2,10,80,0,1
99919,-100,3,2,22,80,0,1
100207,-100,3,2,10,80,0,1
100784,-100,3,2,15,80,0,1
101361,-100,3,2,2,80,0,1
101938,-100,3,2,17,80,0,1
102515,-100,3,2,18,80,0,1
103669,-100,3,2,10,80,0,1
104246,-100,3,2,11,80,0,1
104823,-100,3,2,2,80,0,1
105400,-100,3,2,12,80,0,1
105977,-100,3,2,13,80,0,1
106842,-100,3,2,14,80,0,1
107131,-100,3,2,13,80,0,1
107707,-100,3,2,12,80,0,1
108284,-100,3,2,2,80,0,1
108861,-100,3,2,15,80,0,1
109438,-100,3,2,22,80,0,1
110304,-100,3,2,10,80,0,1
110592,-100,3,2,15,80,0,1
111169,-100,3,2,11,80,0,1
111746,-100,3,2,2,80,0,1
112034,-100,3,2,15,80,0,1
112323,-100,3,2,10,80,0,1
112900,-100,3,2,17,80,0,1
113765,-100,3,2,16,80,0,1
114054,-100,3,2,17,80,0,1
114631,-100,3,2,10,60,0,0
115207,-100,3,2,2,60,0,0
117227,-100,3,2,13,60,0,0
117515,-100,3,2,19,60,0,0
117804,-100,3,2,13,60,0,0
118092,-100,3,2,20,80,0,1
118669,-100,3,2,2,80,0,1
119246,-100,3,2,20,80,0,1
120688,-100,3,2,21,80,0,1
120977,-100,3,2,13,80,0,1
121554,-100,3,2,12,80,0,1
122131,-100,3,2,2,80,0,1
122707,-100,3,2,15,80,0,1
123284,-100,3,2,22,80,0,1
124150,-100,3,2,10,80,0,1
124438,-100,3,2,15,80,0,1
125015,-100,3,2,11,80,0,1
125592,-100,3,2,2,80,0,1
126169,-100,3,2,10,80,0,1
127611,-100,3,2,22,80,0,1
127900,-100,3,2,10,80,0,1
128477,-100,3,2,15,80,0,1
129054,-100,3,2,2,80,0,1
129631,-100,3,2,17,80,0,1
130207,-100,3,2,18,80,0,1
131650,-100,3,2,13,80,0,1
131938,-100,3,2,20,80,0,1
132515,-100,3,2,2,80,0,1
133092,-100,3,2,20,80,0,1
134534,-100,3,2,21,80,0,1
134823,-100,3,2,13,80,0,1
135400,-100,3,2,12,80,0,1
135977,-100,3,2,2,80,0,1
136554,-100,3,2,15,80,0,1
137131,-100,3,2,22,80,0,1
137996,-100,3,2,10,80,0,1
138284,-100,3,2,15,80,0,1
138861,-100,3,2,11,80,0,1
139438,-100,3,2,2,80,0,1
139727,-100,3,2,15,80,0,1
140015,-100,3,2,10,80,0,1
140592,-100,3,2,17,80,0,1
141457,-100,3,2,16,80,0,1
141746,-100,3,2,17,80,0,1
142323,-100,3,2,10,60,0,0
142900,-100,3,2,2,40,0,0
154727,-100,3,2,2,5,0,0

[Colours]
Combo1 : 0,128,0
Combo2 : 0,64,128
Combo3 : 192,192,192

[HitObjects]
89,123,401,6,0,L|81:223,1,80
165,267,977,2,0,L|173:167,1,80,2|0,0:0|0:0,0:0:0:0:
221,95,1554,1,0,0:0:0:0:
309,151,1842,1,0,0:0:0:0:
391,87,2131,6,0,L|399:187,1,80
315,231,2708,2,0,L|307:131,1,80,2|0,0:0|0:0,0:0:0:0:
259,59,3285,1,0,0:0:0:0:
171,115,3573,1,0,0:0:0:0:
149,216,3861,6,0,P|183:236|222:242,1,80
291,164,4438,2,0,P|257:144|217:138,1,80,2|0,0:0|0:0,0:0:0:0:
113,139,5015,1,0,0:0:0:0:
58,227,5304,1,0,0:0:0:0:
100,321,5592,6,0,P|170:325|204:318,1,80
261,257,6169,2,0,P|300:255|340:260,1,80,2|0,0:0|0:0,0:0:0:0:
425,320,6746,2,0,P|442:268|437:216,1,80,8|0,0:0|0:0,0:0:0:0:
378,160,7323,6,0,P|305:127|225:123,1,160,8|2,0:0|0:0,0:0:0:0:
134,173,8188,1,0,0:0:0:0:
89,267,8477,2,0,P|125:279|192:264,1,80,8|0,0:0|0:0,0:0:0:0:
247,210,9054,2,0,P|319:200|423:223,1,160,8|0,0:0|0:0,0:0:0:0:
475,291,9919,1,8,0:0:0:0:
404,366,10207,2,0,P|354:359|309:372,1,80,8|0,0:0|0:0,0:0:0:0:
223,345,10784,6,0,L|203:149,1,160,8|2,0:0|0:0,0:0:0:0:
249,91,11650,1,0,0:0:0:0:
339,141,11938,2,0,L|331:220,1,80,8|0,0:0|0:0,0:0:0:0:
410,285,12515,2,0,L|402:364,2,80,8|0|0,0:0|0:0|0:0,0:0:0:0:
487,214,13381,1,8,0:0:0:0:
423,130,13669,1,8,0:0:0:0:
308,298,14246,6,0,P|222:308|157:263,1,160,8|2,0:0|0:0,0:0:0:0:
106,182,15111,1,0,0:0:0:0:
147,86,15400,2,0,P|190:78|246:79,1,80,8|0,0:0|0:0,0:0:0:0:
330,87,15977,2,0,P|332:176|295:275,1,160,8|0,0:0|0:0,0:0:0:0:
224,302,16842,1,8,0:0:0:0:
315,351,17131,2,0,P|355:340|392:313,1,80,8|0,0:0|0:0,0:0:0:0:
312,243,17707,6,0,P|218:195|154:220,1,160,8|2,0:0|0:0,0:0:0:0:
94,280,18573,1,0,0:0:0:0:
40,192,18861,2,0,P|32:144|44:100,1,80,8|0,0:0|0:0,0:0:0:0:
120,52,19438,2,0,P|196:40|300:56,1,160,8|0,0:0|0:0,0:0:0:0:
376,84,20304,1,0,0:0:0:0:
432,172,20592,2,0,L|424:272,1,80,8|0,0:0|0:0,0:0:0:0:
333,303,21169,6,0,L|318:143,1,160,8|2,0:0|0:0,0:0:0:0:
278,49,22034,1,0,0:0:0:0:
201,123,22323,2,0,L|193:223,1,80,8|0,0:0|0:0,0:0:0:0:
102,254,22900,2,0,L|87:94,1,160,8|0,0:0|0:0,0:0:0:0:
173,36,23765,1,8,0:0:0:0:
276,44,24054,2,0,P|312:75|333:128,1,80,8|0,0:0|0:0,0:0:0:0:
337,207,24631,6,0,P|249:243|213:191,1,160,8|2,0:0|0:0,0:0:0:0:
181,107,25496,1,0,0:0:0:0:
101,171,25784,2,0,L|113:275,1,80,8|0,0:0|0:0,0:0:0:0:
212,232,26361,2,0,L|200:336,2,80,8|0|0,0:0|0:0|0:0,0:0:0:0:
274,148,27226,1,8,0:0:0:0:
349,219,27515,1,8,0:0:0:0:
145,263,28092,6,0,P|102:180|122:115,1,160,8|2,0:0|0:0,0:0:0:0:
182,38,28957,1,8,0:0:0:0:
271,91,29246,2,0,P|315:92|362:76,1,80,8|0,0:0|0:0,0:0:0:0:
444,40,29823,2,0,L|436:199,1,160,8|0,0:0|0:0,0:0:0:0:
389,292,30688,2,0,P|425:303|471:296,2,80,8|8|0,0:0|0:0|0:0,0:0:0:0:
293,249,31554,6,0,L|133:261,1,160,8|2,0:0|0:0,0:0:0:0:
31,235,32419,2,0,P|29:277|44:319,2,80
103,160,33284,1,2,0:0:0:0:
113,180,34438,5,8,0:0:0:0:
272,46,35015,2,0,L|261:220,1,160,8|2,0:0|0:0,0:0:0:0:
316,294,35881,1,0,0:0:0:0:
405,240,36169,2,0,L|410:160,1,80,8|0,0:0|0:0,0:0:0:0:
305,134,36746,2,0,L|316:308,1,160,8|0,0:0|0:0,0:0:0:0:
406,343,37611,2,0,P|456:329|488:299,2,80,8|8|0,0:0|0:0|0:0,0:0:0:0:
315,293,38477,6,0,P|221:273|147:309,1,160,8|2,0:0|0:0,0:0:0:0:
90,368,39342,1,0,0:0:0:0:
14,295,39631,2,0,L|16:201,1,80,8|0,0:0|0:0,0:0:0:0:
106,164,40207,2,0,L|107:243,2,80,8|0|0,0:0|0:0|0:0,0:0:0:0:
28,92,41073,1,8,0:0:0:0:
104,20,41361,1,8,0:0:0:0:
272,144,41938,6,0,P|344:156|432:116,1,160,8|2,0:0|0:0,0:0:0:0:
496,52,42804,1,0,0:0:0:0:
396,24,43092,2,0,P|348:20|300:40,1,80,8|0,0:0|0:0,0:0:0:0:
248,104,43669,2,0,P|296:100|360:192,1,160,8|0,0:0|0:0,0:0:0:0:
314,273,44534,1,8,0:0:0:0:
226,329,44823,2,0,P|174:333|125:318,1,80,8|0,0:0|0:0,0:0:0:0:
60,268,45400,6,0,L|72:80,1,160,8|2,0:0|0:0,0:0:0:0:
144,36,46265,1,0,0:0:0:0:
219,107,46554,2,0,L|224:186,1,80,8|0,0:0|0:0,0:0:0:0:
314,239,47131,2,0,L|308:318,2,80,8|0|0,0:0|0:0|0:0,0:0:0:0:
373,153,47996,1,0,0:0:0:0:
462,206,48284,2,0,L|467:285,1,80,8|0,0:0|0:0,0:0:0:0:
362,312,48861,6,0,L|373:152,1,160,8|2,0:0|0:0,0:0:0:0:
326,58,49727,1,0,0:0:0:0:
237,115,50015,2,0,P|199:122|160:113,1,80,8|0,0:0|0:0,0:0:0:0:
89,37,50592,2,0,P|56:107|83:181,1,160,8|0,0:0|0:0,0:0:0:0:
162,248,51457,2,0,P|131:272|94:285,2,80,8|8|0,0:0|0:0|0:0,0:0:0:0:
229,173,52323,6,0,P|294:155|402:185,1,160,8|2,0:0|0:0,0:0:0:0:
455,246,53188,1,0,0:0:0:0:
379,317,53477,2,0,P|323:323|288:315,1,80,8|0,0:0|0:0,0:0:0:0:
235,237,54054,2,0,P|195:232|156:238,2,80,8|0|0,0:0|0:0|0:0,0:0:0:0:
300,318,54919,1,8,0:0:0:0:
403,309,55208,1,8,0:0:0:0:
258,159,55784,6,0,L|89:166,1,160,8|2,0:0|0:0,0:0:0:0:
15,101,56650,1,8,0:0:0:0:
103,50,56938,2,0,L|192:53,1,80,8|0,0:0|0:0,0:0:0:0:
242,138,57515,2,0,L|411:131,1,160,8|0,0:0|0:0,0:0:0:0:
472,208,58381,1,8,0:0:0:0:
404,287,58669,2,0,L|305:283,1,80,8|0,0:0|0:0,0:0:0:0:
230,330,59246,6,0,P|139:339|79:306,1,160,8|2,0:0|0:0,0:0:0:0:
41,211,60111,1,0,0:0:0:0:
115,138,60400,2,0,P|154:137|192:149,1,80
258,230,60977,1,0,0:0:0:0:
358,255,61265,1,0,0:0:0:0:
449,205,61554,2,0,L|453:116,1,80
352,153,62131,2,0,L|348:73,1,80,8|8,0:0|0:0,0:0:0:0:
249,40,62707,6,0,L|241:199,1,160,8|2,0:0|0:0,0:0:0:0:
168,272,63573,1,0,0:0:0:0:
87,206,63861,2,0,L|81:113,1,80
139,39,64438,2,0,P|253:28|305:40,1,160,8|0,0:0|0:0,0:0:0:0:
397,64,65304,1,8,0:0:0:0:
448,153,65592,2,0,L|443:252,1,80,8|0,0:0|0:0,0:0:0:0:
343,258,66169,6,0,L|334:98,1,160,8|2,0:0|0:0,0:0:0:0:
258,26,67034,1,0,0:0:0:0:
188,104,67323,2,0,P|116:108|84:92,1,80,8|0,0:0|0:0,0:0:0:0:
16,64,67900,2,0,P|4:140|36:240,1,160,8|0,0:0|0:0,0:0:0:0:
112,276,68765,1,8,0:0:0:0:
115,171,69054,1,8,0:0:0:0:
239,337,69631,6,0,L|427:321,1,160,8|2,0:0|0:0,0:0:0:0:
468,244,70496,1,0,0:0:0:0:
380,188,70784,2,0,L|300:179,1,80,8|0,0:0|0:0,0:0:0:0:
228,108,71361,2,0,L|408:88,1,160,8|0,0:0|0:0,0:0:0:0:
472,32,72227,1,8,0:0:0:0:
506,129,72515,2,0,P|503:175|485:223,1,80,8|0,0:0|0:0,0:0:0:0:
431,290,73092,6,0,L|271:305,1,160,8|2,0:0|0:0,0:0:0:0:
167,318,73957,1,0,0:0:0:0:
84,254,74246,2,0,L|76:146,1,80,8|0,0:0|0:0,0:0:0:0:
181,158,74823,2,0,L|165:338,1,160,8|0,0:0|0:0,0:0:0:0:
65,340,75688,1,0,0:0:0:0:
20,245,75977,1,8,0:0:0:0:
85,166,76265,1,8,0:0:0:0:
184,135,76554,6,0,P|273:121|314:63,1,160,8|2,0:0|0:0,0:0:0:0:
213,33,77419,1,0,0:0:0:0:
113,61,77707,2,0,P|84:115|82:140,1,80,8|0,0:0|0:0,0:0:0:0:
114,231,78284,2,0,P|188:244|291:225,1,160,8|0,0:0|0:0,0:0:0:0:
364,184,79150,1,8,0:0:0:0:
458,227,79438,2,0,P|457:277|435:324,1,80,8|0,0:0|0:0,0:0:0:0:
353,351,80015,6,0,P|279:364|176:345,1,160,8|2,0:0|0:0,0:0:0:0:
98,314,80881,1,0,0:0:0:0:
45,224,81169,2,0,L|49:134,1,80,8|0,0:0|0:0,0:0:0:0:
142,99,81746,2,0,L|149:258,1,160,8|0,0:0|0:0,0:0:0:0:
129,361,82611,1,8,0:0:0:0:
232,350,82900,1,8,0:0:0:0:
389,213,83477,6,0,P|312:228|229:224,1,160,8|2,0:0|0:0,0:0:0:0:
127,211,84342,1,8,0:0:0:0:
202,139,84631,2,0,P|239:126|279:128,1,80,8|0,0:0|0:0,0:0:0:0:
381,150,85207,2,0,P|355:61|298:27,1,160,8|0,0:0|0:0,0:0:0:0:
196,24,86073,1,8,0:0:0:0:
111,85,86361,2,0,P|102:123|108:163,1,80,8|0,0:0|0:0,0:0:0:0:
67,259,86938,6,0,P|117:266|203:203,1,160,8|2,0:0|0:0,0:0:0:0:
250,112,87804,1,0,0:0:0:0:
350,84,88092,2,0,P|369:126|369:160,1,80,8|8,0:0|0:0,0:0:0:0:
336,258,88669,1,8,0:0:0:0:
301,269,89823,5,8,0:0:0:0:
108,348,90400,2,0,B|55:280|80:175,1,160,8|2,0:0|0:0,0:0:0:0:
132,108,91265,1,0,0:0:0:0:
224,156,91554,2,0,P|267:155|331:138,1,80,8|0,0:0|0:0,0:0:0:0:
401,112,92131,2,0,L|421:293,1,160,8|0,0:0|0:0,0:0:0:0:
355,354,92996,1,8,0:0:0:0:
251,345,93284,2,0,P|201:329|159:285,1,80,8|0,0:0|0:0,0:0:0:0:
149,212,93861,6,0,P|219:177|306:187,1,160,8|2,0:0|0:0,0:0:0:0:
382,245,94727,1,0,0:0:0:0:
436,156,95015,2,0,L|431:61,1,80,8|0,0:0|0:0,0:0:0:0:
334,39,95592,2,0,L|324:198,1,160,8|0,0:0|0:0,0:0:0:0:
272,290,96457,1,8,0:0:0:0:
373,315,96746,1,8,0:0:0:0:
346,108,97323,6,0,L|159:96,1,160,8|2,0:0|0:0,0:0:0:0:
89,58,98188,1,0,0:0:0:0:
40,149,98477,2,0,L|44:235,1,80,8|0,0:0|0:0,0:0:0:0:
143,260,99054,2,0,L|150:100,1,160,8|0,0:0|0:0,0:0:0:0:
230,33,99919,1,8,0:0:0:0:
333,30,100207,2,0,P|378:35|430:59,1,80,8|0,0:0|0:0,0:0:0:0:
475,128,100784,6,0,P|477:187|455:302,1,160,8|2,0:0|0:0,0:0:0:0:
382,355,101650,1,0,0:0:0:0:
313,277,101938,2,0,P|308:237|308:197,1,80,8|0,0:0|0:0,0:0:0:0:
373,115,102515,2,0,P|282:95|226:130,1,160,8|0,0:0|0:0,0:0:0:0:
195,226,103381,1,0,0:0:0:0:
259,307,103669,1,8,0:0:0:0:
56,353,104246,6,0,P|47:258|51:181,1,160,8|2,0:0|0:0,0:0:0:0:
87,96,105111,1,0,0:0:0:0:
180,142,105400,2,0,P|257:135|294:123,1,80,8|0,0:0|0:0,0:0:0:0:
323,52,105977,2,0,P|400:59|492:95,1,160,8|0,0:0|0:0,0:0:0:0:
508,186,106842,1,8,0:0:0:0:
478,286,107131,2,0,P|451:332|421:361,1,80,8|0,0:0|0:0,0:0:0:0:
346,290,107707,6,0,L|166:304,1,160,8|2,0:0|0:0,0:0:0:0:
84,279,108573,1,0,0:0:0:0:
65,176,108861,2,0,L|73:63,1,80,8|0,0:0|0:0,0:0:0:0:
168,61,109438,2,0,L|178:220,1,160,8|0,0:0|0:0,0:0:0:0:
179,325,110304,1,8,0:0:0:0:
84,279,110592,1,8,0:0:0:0:
170,89,111169,6,0,P|247:95|345:64,1,160,8|2,0:0|0:0,0:0:0:0:
411,14,112034,1,8,0:0:0:0:
475,95,112323,2,0,L|473:202,1,80,8|0,0:0|0:0,0:0:0:0:
372,149,112900,2,0,L|375:308,1,160,8|0,0:0|0:0,0:0:0:0:
474,338,113765,1,8,0:0:0:0:
477,233,114054,2,0,L|478:153,1,80,8|0,0:0|0:0,0:0:0:0:
382,110,114631,6,0,P|291:93|210:108,1,160,8|2,0:0|0:0,0:0:0:0:
133,151,115496,1,0,0:0:0:0:
108,252,115784,2,0,P|148:263|203:264,1,80
286,238,116361,2,0,P|302:165|296:62,1,160
219,12,117227,1,8,0:0:0:0:
115,23,117515,1,8,0:0:0:0:
54,107,117804,1,8,0:0:0:0:
88,204,118092,6,0,P|171:220|261:182,1,160,8|2,0:0|0:0,0:0:0:0:
329,141,118957,1,0,0:0:0:0:
432,152,119246,2,0,L|424:236,1,80,8|0,0:0|0:0,0:0:0:0:
343,300,119823,2,0,L|328:140,1,160,8|0,0:0|0:0,0:0:0:0:
252,68,120688,1,8,0:0:0:0:
163,122,120977,2,0,L|155:206,1,80,8|0,0:0|0:0,0:0:0:0:
223,280,121554,6,0,P|311:284|399:260,1,160,8|2,0:0|0:0,0:0:0:0:
460,200,122419,1,0,0:0:0:0:
400,115,122707,2,0,P|352:109|309:118,1,80,8|0,0:0|0:0,0:0:0:0:
250,191,123284,2,0,P|172:208|88:188,1,160,8|0,0:0|0:0,0:0:0:0:
24,112,124150,1,8,0:0:0:0:
96,36,124438,1,8,0:0:0:0:
296,100,125015,6,0,P|339:141|339:242,1,160,8|2,0:0|0:0,0:0:0:0:
277,319,125881,1,0,0:0:0:0:
182,275,126169,2,0,L|84:263,1,80,8|0,0:0|0:0,0:0:0:0:
51,174,126746,2,0,L|209:153,1,160,8|0,0:0|0:0,0:0:0:0:
296,100,127611,1,8,0:0:0:0:
394,134,127900,2,0,P|412:177|413:224,1,80,8|0,0:0|0:0,0:0:0:0:
377,307,128477,6,0,P|275:327|215:298,1,160,8|2,0:0|0:0,0:0:0:0:
138,249,129342,1,0,0:0:0:0:
94,154,129631,2,0,L|111:61,1,80,8|0,0:0|0:0,0:0:0:0:
196,19,130207,2,0,L|223:176,1,160,8|0,0:0|0:0,0:0:0:0:
152,252,131073,1,0,0:0:0:0:
248,296,131361,1,0,0:0:0:0:
320,220,131650,1,8,0:0:0:0:
223,176,131938,6,0,P|132:152|67:194,1,160,8|2,0:0|0:0,0:0:0:0:
23,270,132804,1,0,0:0:0:0:
99,339,133092,2,0,L|191:311,1,80,8|0,0:0|0:0,0:0:0:0:
277,339,133669,2,0,L|429:292,1,160,8|0,0:0|0:0,0:0:0:0:
482,202,134534,1,8,0:0:0:0:
418,119,134823,2,0,P|372:96|345:93,1,80,8|0,0:0|0:0,0:0:0:0:
267,163,135400,6,0,P|173:149|118:85,1,160,8|2,0:0|0:0,0:0:0:0:
64,23,136265,1,0,0:0:0:0:
0,105,136554,2,0,L|8:191,1,80,8|0,0:0|0:0,0:0:0:0:
55,277,137131,2,0,P|142:281|229:257,1,160,8|0,0:0|0:0,0:0:0:0:
307,222,137996,1,8,0:0:0:0:
372,302,138284,1,8,0:0:0:0:
439,105,138861,6,0,P|348:85|260:106,1,160,8|2,0:0|0:0,0:0:0:0:
210,171,139727,1,8,0:0:0:0:
249,267,140015,2,0,P|283:274|331:268,1,80,8|0,0:0|0:0,0:0:0:0:
423,230,140592,2,0,P|441:133|409:43,1,160,8|0,0:0|0:0,0:0:0:0:
328,38,141457,1,8,0:0:0:0:
249,108,141746,2,0,P|210:112|170:107,1,80,8|0,0:0|0:0,0:0:0:0:
87,44,142323,6,0,P|69:135|107:192,1,160,8|2,0:0|0:0,0:0:0:0:
201,220,143188,1,0,0:0:0:0:
294,173,143477,2,0,L|305:92,1,80
389,32,144054,2,0,L|412:190,1,160,0|2,0:0|0:0,0:0:0:0:
346,268,144919,2,0,P|383:288|426:291,2,80
269,197,145784,6,0,P|190:179|99:208,1,160,0|2,0:0|0:0,0:0:0:0:
48,279,146650,1,0,0:0:0:0:
121,351,146938,2,0,P|165:358|213:348,1,80
299,323,147515,2,0,P|309:211|287:145,1,160,0|2,0:0|0:0,0:0:0:0:
221,93,148381,1,0,0:0:0:0:
130,147,148669,2,0,P|77:155|34:136,1,80
17,49,149246,6,0,P|91:23|169:51,1,160,0|2,0:0|0:0,0:0:0:0:
238,120,150111,1,0,0:0:0:0:
281,214,150400,2,0,P|291:257|274:315,1,80
195,344,150977,2,0,P|168:270|180:192,1,160,0|2,0:0|0:0,0:0:0:0:
266,133,151842,2,0,P|240:108|199:90,2,80
326,218,152707,6,0,P|419:225|503:205,1,160,0|2,0:0|0:0,0:0:0:0:
505,109,153573,1,0,0:0:0:0:
423,45,153861,2,0,P|376:42|324:50,1,80
246,83,154438,5,0,0:0:0:0:
256,192,154727,12,0,157323,0:0:0:0:
