osu file format v14

[General]
AudioFilename: audio.mp3
AudioLeadIn: 0
PreviewTime: 89751
Countdown: 0
SampleSet: Soft
StackLeniency: 0.7
Mode: 0
LetterboxInBreaks: 0
WidescreenStoryboard: 0

[Editor]
Bookmarks: 34397,154397
DistanceSpacing: 1
BeatDivisor: 4
GridSize: 32
TimelineZoom: 1

[Metadata]
Title:Watashi no Koe
TitleUnicode:わたしの声
Artist:Naruse Jun(CV.Minase Inori)
ArtistUnicode:成瀬 順(CV.水瀬いのり)
Creator:Kyuukai
Version:Simple.
Source:心が叫びたがってるんだ。
Tags:映画「心が叫びたがってるんだ。」オリジナル・サウンドトラック The Anthem of the Heart soundtrack Kokoro ga Sakebitagatterunda greensleeves yaleufeu
BeatmapID:1190375
BeatmapSetID:562890

[Difficulty]
HPDrainRate:2
CircleSize:3
OverallDifficulty:2
ApproachRate:3
SliderMultiplier:1
SliderTickRate:1

[Events]
//Background and Video events
0,0,"Watashi no Koe bg.jpg",0,0
//Break Periods
2,59446,61267
2,87138,88383
2,114831,116652
//Storyboard Layer 0 (Background)
//Storyboard Layer 1 (Fail)
//Storyboard Layer 2 (Pass)
//Storyboard Layer 3 (Foreground)
//Storyboard Sound Samples

[TimingPoints]
400.264108418601,576.923076923077,3,2,2,40,1,0
6746,-100,3,2,10,60,0,0
7323,-100,3,2,11,60,0,0
8477,-100,3,2,12,60,0,0
9054,-100,3,2,13,60,0,0
10784,-100,3,2,12,60,0,0
11938,-100,3,2,15,60,0,0
12515,-100,3,2,22,60,0,0
13669,-100,3,2,15,60,0,0
14246,-100,3,2,11,60,0,0
15400,-100,3,2,10,60,0,0
17707,-100,3,2,15,60,0,0
18861,-100,3,2,17,60,0,0
19438,-100,3,2,18,60,0,0
20592,-100,3,2,10,60,0,0
21169,-100,3,2,11,60,0,0
22323,-100,3,2,12,60,0,0
22900,-100,3,2,13,60,0,0
24631,-100,3,2,12,60,0,0
25784,-100,3,2,15,60,0,0
26361,-100,3,2,22,60,0,0
27515,-100,3,2,15,60,0,0
28092,-100,3,2,11,60,0,0
29246,-100,3,2,10,60,0,0
29823,-100,3,2,17,60,0,0
31554,-100,3,2,10,60,0,0
33284,-100,3,2,1,60,0,0
34438,-100,3,2,10,60,0,0
35015,-100,3,2,11,60,0,0
36169,-100,3,2,12,60,0,0
36746,-100,3,2,13,60,0,0
38477,-100,3,2,12,60,0,0
39631,-100,3,2,15,60,0,0
40207,-100,3,2,22,60,0,0
41361,-100,3,2,15,60,0,0
41938,-100,3,2,11,60,0,0
43092,-100,3,2,10,60,0,0
45400,-100,3,2,15,60,0,0
45977,-100,3,2,2,60,0,0
46554,-100,3,2,17,60,0,0
47131,-100,3,2,18,60,0,0
48284,-100,3,2,10,60,0,0
48861,-100,3,2,11,60,0,0
50015,-100,3,2,12,60,0,0
50592,-100,3,2,13,60,0,0
52323,-100,3,2,12,60,0,0
52900,-100,3,2,2,60,0,0
53477,-100,3,2,15,60,0,0
54054,-100,3,2,22,60,0,0
55207,-100,3,2,15,60,0,0
55784,-100,3,2,11,60,0,0
56361,-100,3,2,2,60,0,0
56938,-100,3,2,10,60,0,0
57515,-100,3,2,17,60,0,0
59246,-100,3,2,10,60,0,0
62707,-100,3,2,20,60,0,0
65592,-100,3,2,13,60,0,0
66169,-100,3,2,12,60,0,0
67323,-100,3,2,15,60,0,0
67900,-100,3,2,22,60,0,0
69054,-100,3,2,15,60,0,0
69631,-100,3,2,11,60,0,0
70784,-100,3,2,10,60,0,0
73092,-100,3,2,15,60,0,0
74246,-100,3,2,17,60,0,0
74823,-100,3,2,18,60,0,0
75977,-100,3,2,11,60,0,0
76554,-100,3,2,20,60,0,0
77707,-100,3,2,20,60,0,0
79438,-100,3,2,13,60,0,0
80015,-100,3,2,12,60,0,0
80592,-100,3,2,2,60,0,0
81169,-100,3,2,15,60,0,0
81746,-100,3,2,22,60,0,0
82900,-100,3,2,15,60,0,0
83477,-100,3,2,11,60,0,0
84631,-100,3,2,10,60,0,0
85207,-100,3,2,17,60,0,0
86938,-100,3,2,10,60,0,0
90400,-100,3,2,11,80,0,1
91554,-100,3,2,12,80,0,1
92131,-100,3,2,13,80,0,1
93861,-100,3,2,12,80,0,1
94438,-100,3,2,2,80,0,1
95015,-100,3,2,15,80,0,1
95592,-100,3,2,22,80,0,1
96746,-100,3,2,15,80,0,1
97323,-100,3,2,11,80,0,1
97900,-100,3,2,2,80,0,1
98477,-100,3,2,10,80,0,1
100784,-100,3,2,15,80,0,1
101938,-100,3,2,17,80,0,1
102515,-100,3,2,18,80,0,1
103669,-100,3,2,10,80,0,1
104246,-100,3,2,11,80,0,1
104823,-100,3,2,2,80,0,1
105400,-100,3,2,12,80,0,1
105977,-100,3,2,13,80,0,1
107707,-100,3,2,12,80,0,1
108284,-100,3,2,2,80,0,1
108861,-100,3,2,15,80,0,1
109438,-100,3,2,22,80,0,1
110592,-100,3,2,15,80,0,1
111169,-100,3,2,11,80,0,1
112323,-100,3,2,10,80,0,1
112900,-100,3,2,17,80,0,1
114631,-100,3,2,10,60,0,0
118092,-100,3,2,20,80,0,1
120977,-100,3,2,13,80,0,1
121554,-100,3,2,12,80,0,1
122707,-100,3,2,15,80,0,1
123284,-100,3,2,22,80,0,1
124438,-100,3,2,15,80,0,1
125015,-100,3,2,11,80,0,1
125592,-100,3,2,2,80,0,1
126169,-100,3,2,10,80,0,1
128477,-100,3,2,15,80,0,1
129054,-100,3,2,2,80,0,1
129631,-100,3,2,17,80,0,1
130207,-100,3,2,18,80,0,1
131938,-100,3,2,20,80,0,1
134823,-100,3,2,13,80,0,1
135400,-100,3,2,12,80,0,1
135977,-100,3,2,2,80,0,1
136554,-100,3,2,15,80,0,1
137131,-100,3,2,22,80,0,1
138284,-100,3,2,15,80,0,1
138861,-100,3,2,11,80,0,1
139438,-100,3,2,2,80,0,1
140015,-100,3,2,10,80,0,1
140592,-100,3,2,17,80,0,1
142323,-100,3,2,10,60,0,0
142900,-100,3,2,2,40,0,0
154727,-100,3,2,2,5,0,0

[Colours]
Combo1 : 0,128,0
Combo2 : 0,64,128
Combo3 : 192,192,192

[HitObjects]
120,72,400,6,0,P|104:114|114:166,1,100,0|2,0:0|0:0,0:0:0:0:
181,240,1554,1,0,0:0:0:0:
263,183,2131,2,0,L|387:174,1,100,0|2,0:0|0:0,0:0:0:0:
444,118,3284,1,0,0:0:0:0:
509,193,3861,6,0,P|511:245|494:314,1,100,0|2,0:0|0:0,0:0:0:0:
431,362,5015,1,0,0:0:0:0:
341,316,5592,2,0,P|283:301|220:306,1,100,0|2,0:0|0:0,0:0:0:0:
147,332,6746,1,8,0:0:0:0:
65,273,7323,6,0,P|56:174|99:59,1,200,8|8,0:0|0:0,0:0:0:0:
178,41,9054,2,0,P|264:57|398:37,1,200,8|8,0:0|0:0,0:0:0:0:
469,76,10784,2,0,P|478:174|447:269,1,200,8|8,0:0|0:0,0:0:0:0:
383,343,12515,2,0,P|326:354|273:345,1,100,8|0,0:0|0:0,0:0:0:0:
187,326,13669,1,8,0:0:0:0:
92,292,14246,6,0,B|74:191|74:191|95:88,1,200,8|8,0:0|0:0,0:0:0:0:
177,41,15977,2,0,P|276:31|392:44,1,200,8|8,0:0|0:0,0:0:0:0:
471,69,17707,2,0,P|481:142|449:295,1,200,8|8,0:0|0:0,0:0:0:0:
387,333,19438,2,0,P|335:352|269:352,1,100,8|0,0:0|0:0,0:0:0:0:
190,353,20592,1,8,0:0:0:0:
90,347,21169,6,0,P|72:260|88:147,1,200,8|8,0:0|0:0,0:0:0:0:
172,202,22900,2,0,P|277:215|377:170,1,200,8|8,0:0|0:0,0:0:0:0:
350,81,24631,2,0,P|245:68|145:113,1,200,8|8,0:0|0:0,0:0:0:0:
71,148,26361,2,0,L|93:365,1,200,8|8,0:0|0:0,0:0:0:0:
189,326,28092,6,0,P|301:264|306:196,1,200,8|8,0:0|0:0,0:0:0:0:
205,224,29823,2,0,P|113:253|91:346,1,200,8|8,0:0|0:0,0:0:0:0:
189,326,31554,6,0,P|301:264|306:196,1,200,8|0,0:0|0:0,0:0:0:0:
264,112,33284,1,2,0:0:0:0:
68,68,34438,5,8,0:0:0:0:
34,162,35015,2,0,L|46:364,1,200,8|8,0:0|0:0,0:0:0:0:
139,326,36746,2,0,P|234:302|329:329,1,200,8|8,0:0|0:0,0:0:0:0:
418,370,38477,2,0,B|451:300|377:252|410:171,1,200,8|8,0:0|0:0,0:0:0:0:
445,82,40207,2,0,B|375:49|327:123|246:90,1,200,8|8,0:0|0:0,0:0:0:0:
158,50,41938,6,0,P|114:138|116:252,1,200,8|8,0:0|0:0,0:0:0:0:
140,334,43669,2,0,P|232:366|340:326,1,200,8|8,0:0|0:0,0:0:0:0:
408,276,45400,2,0,L|415:176,1,100,8|2,0:0|0:0,0:0:0:0:
426,76,46554,1,8,0:0:0:0:
332,40,47131,2,0,L|316:239,1,200,8|8,0:0|0:0,0:0:0:0:
408,272,48861,6,0,P|338:334|243:302,1,200,8|8,0:0|0:0,0:0:0:0:
166,241,50592,2,0,L|181:41,1,200,8|8,0:0|0:0,0:0:0:0:
267,91,52323,2,0,P|316:100|397:77,1,100,8|2,0:0|0:0,0:0:0:0:
454,46,53477,1,8,0:0:0:0:
484,141,54054,2,0,B|489:241|489:241|448:353,1,200,8|8,0:0|0:0,0:0:0:0:
361,371,55784,6,0,L|237:364,1,100,8|2,0:0|0:0,0:0:0:0:
161,357,56938,1,8,0:0:0:0:
79,298,57515,2,0,B|74:198|74:198|108:104,1,200,8|8,0:0|0:0,0:0:0:0:
159,18,59246,1,8,0:0:0:0:
188,223,62707,6,0,P|244:121|323:116,1,200,8|0,0:0|0:0,0:0:0:0:
288,210,64438,2,0,P|344:312|413:298,1,200,8|8,0:0|0:0,0:0:0:0:
478,226,66169,2,0,L|460:15,1,200,8|8,0:0|0:0,0:0:0:0:
374,77,67900,2,0,P|313:83|257:68,1,100,8|0,0:0|0:0,0:0:0:0:
181,41,69054,1,8,0:0:0:0:
96,94,69631,6,0,L|79:293,1,200,8|8,0:0|0:0,0:0:0:0:
169,335,71361,2,0,P|264:307|369:343,1,200,8|8,0:0|0:0,0:0:0:0:
448,293,73092,2,0,L|431:93,1,200,8|8,0:0|0:0,0:0:0:0:
338,56,74823,2,0,L|321:255,1,200,8|8,0:0|0:0,0:0:0:0:
239,313,76554,6,0,P|118:318|78:254,1,200,8|8,0:0|0:0,0:0:0:0:
176,235,78284,2,0,P|179:124|120:52,1,200,8|8,0:0|0:0,0:0:0:0:
35,96,80015,2,0,P|24:152|37:221,1,100,8|2,0:0|0:0,0:0:0:0:
87,274,81169,1,8,0:0:0:0:
176,235,81746,2,0,L|375:229,1,200,8|8,0:0|0:0,0:0:0:0:
416,321,83477,6,0,P|475:224|433:148,1,200,8|8,0:0|0:0,0:0:0:0:
343,132,85207,2,0,B|204:131|204:131|133:90,1,200,8|8,0:0|0:0,0:0:0:0:
78,31,86938,1,8,0:0:0:0:
444,44,89823,5,8,0:0:0:0:
375,116,90400,2,0,P|279:139|185:111,1,200,8|8,0:0|0:0,0:0:0:0:
128,28,92131,2,0,P|87:136|156:209,1,200,8|8,0:0|0:0,0:0:0:0:
228,174,93861,2,0,P|280:168|337:179,1,100,8|2,0:0|0:0,0:0:0:0:
416,220,95015,1,8,0:0:0:0:
373,310,95592,2,0,P|264:333|169:304,1,200,8|8,0:0|0:0,0:0:0:0:
92,261,97323,6,0,L|88:151,1,100,8|2,0:0|0:0,0:0:0:0:
121,66,98477,1,8,0:0:0:0:
208,113,99054,2,0,P|304:135|400:111,1,200,8|8,0:0|0:0,0:0:0:0:
461,31,100784,2,0,P|496:144|447:200,1,200,8|8,0:0|0:0,0:0:0:0:
367,256,102515,2,0,L|136:248,1,200,8|8,0:0|0:0,0:0:0:0:
73,212,104246,6,0,P|62:162|72:101,1,100,8|2,0:0|0:0,0:0:0:0:
146,52,105400,1,8,0:0:0:0:
236,93,105977,2,0,P|241:209|200:312,1,200,8|8,0:0|0:0,0:0:0:0:
151,364,107707,2,0,P|88:366|46:350,1,100,8|2,0:0|0:0,0:0:0:0:
11,263,108861,1,8,0:0:0:0:
77,188,109438,2,0,L|276:174,1,200,8|8,0:0|0:0,0:0:0:0:
309,79,111169,6,0,P|377:187|348:245,1,200,8|8,0:0|0:0,0:0:0:0:
283,315,112900,2,0,L|83:301,1,200,8|8,0:0|0:0,0:0:0:0:
19,224,114631,1,8,0:0:0:0:
239,31,118092,6,0,P|282:117|238:202,1,200,8|8,0:0|0:0,0:0:0:0:
184,118,119823,2,0,P|146:244|185:288,1,200,8|8,0:0|0:0,0:0:0:0:
270,333,121554,2,0,P|328:344|466:251,1,200,8|8,0:0|0:0,0:0:0:0:
416,187,123284,2,0,P|358:176|220:269,1,200,8|8,0:0|0:0,0:0:0:0:
194,328,125015,6,0,P|131:336|86:323,1,100,8|2,0:0|0:0,0:0:0:0:
23,258,126169,1,8,0:0:0:0:
53,162,126746,2,0,P|155:141|265:170,1,200,8|8,0:0|0:0,0:0:0:0:
314,235,128477,2,0,P|367:243|435:228,1,100,8|2,0:0|0:0,0:0:0:0:
493,176,129631,1,8,0:0:0:0:
453,82,130207,2,0,P|358:58|262:81,1,200,8|0,0:0|0:0,0:0:0:0:
198,160,131938,6,0,P|74:161|36:87,1,200,8|8,0:0|0:0,0:0:0:0:
135,82,133669,2,0,P|231:59|326:83,1,200,8|8,0:0|0:0,0:0:0:0:
416,128,135400,2,0,L|411:248,1,100,8|2,0:0|0:0,0:0:0:0:
369,318,136554,1,8,0:0:0:0:
276,356,137131,2,0,P|175:357|69:296,1,200,8|8,0:0|0:0,0:0:0:0:
29,232,138861,6,0,P|18:168|29:114,1,100,8|2,0:0|0:0,0:0:0:0:
109,83,140015,1,8,0:0:0:0:
190,140,140592,2,0,L|423:146,1,200,8|8,0:0|0:0,0:0:0:0:
474,198,142323,6,0,P|482:254|466:315,1,100,8|2,0:0|0:0,0:0:0:0:
400,364,143477,1,0,0:0:0:0:
307,326,144054,2,0,P|253:317|192:330,1,100
112,350,145207,1,0,0:0:0:0:
31,291,145784,6,0,P|22:242|31:193,1,100,0|2,0:0|0:0,0:0:0:0:
93,114,146938,1,0,0:0:0:0:
183,157,147515,2,0,P|234:165|296:151,1,100
366,104,148669,1,0,0:0:0:0:
459,140,149246,6,0,L|455:258,1,100,0|2,0:0|0:0,0:0:0:0:
394,319,150400,1,0,0:0:0:0:
303,360,150977,2,0,P|237:353|188:325,1,100
126,279,152131,1,0,0:0:0:0:
46,218,152707,6,0,L|50:95,1,100,0|2,0:0|0:0,0:0:0:0:
107,36,153861,1,0,0:0:0:0:
195,82,154438,1,0,0:0:0:0:
256,192,154727,12,0,157323,0:0:0:0:
