osu file format v14

[General]
AudioFilename: audio.mp3
AudioLeadIn: 0
PreviewTime: 113948
Countdown: 0
SampleSet: Soft
StackLeniency: 0.7
Mode: 0
LetterboxInBreaks: 0
WidescreenStoryboard: 1

[Editor]
Bookmarks: 900,16509,24314,26265,41875,55534,59436,59558,59680,59802,59924,90656,98460,114070,127729,131631,131753,131875,131997,132119,160899,172607,180412,180534,180656,180778,180899,196021,196143,196265,196387,196509,209680,213582,215534,221387,229192
DistanceSpacing: 0.3
BeatDivisor: 4
GridSize: 4
TimelineZoom: 1.7

[Metadata]
Title:Cocoiro Rainbow
TitleUnicode:Cocoiro Rainbow
Artist:Narumi Kyoko
ArtistUnicode:鳴海杏子
Creator:Tycani
Version:Warm Memories
Source:ヤマノススメセカンドシーズン
Tags:fuiba fuyu kazuma beeker0220 yama no susume encouragement of climb 2nd second season two ending ed japanese anime pop jpop j-pop Narumin なるみん 3rd third single 2014 ヤマノススメ
BeatmapID:3949283
BeatmapSetID:1914327

[Difficulty]
HPDrainRate:6
CircleSize:4
OverallDifficulty:9
ApproachRate:9
SliderMultiplier:1.8
SliderTickRate:1

[Events]
//Background and Video events
0,0,"vlc_85kwemmejN.jpg",0,0
//Break Periods
//Storyboard Layer 0 (Background)
//Storyboard Layer 1 (Fail)
//Storyboard Layer 2 (Pass)
//Storyboard Layer 3 (Foreground)
//Storyboard Layer 4 (Overlay)
//Storyboard Sound Samples

[TimingPoints]
890,487.80487804878,4,2,1,65,1,0
1621,-66.6666666666667,4,2,1,65,0,0
2841,-100,4,2,1,65,0,0
3572,-66.6666666666667,4,2,1,65,0,0
4060,-76.9230769230769,4,2,1,65,0,0
4792,-100,4,2,1,65,0,0
5524,-66.6666666666667,4,2,1,65,0,0
6743,-76.9230769230769,4,2,1,65,0,0
7475,-58.8235294117647,4,2,1,65,0,0
8207,-133.333333333333,4,2,1,65,0,0
8694,-100,4,2,1,65,0,0
9426,-66.6666666666667,4,2,1,65,0,0
9914,-76.9230769230769,4,2,1,65,0,0
10646,-100,4,2,1,65,0,0
11377,-66.6666666666667,4,2,1,65,0,0
14548,-83.3333333333333,4,2,1,65,0,0
15524,-83.3333333333333,4,2,1,70,0,0
16499,-66.6666666666667,4,2,1,80,0,0
24304,-60.6060606060606,4,2,1,80,0,0
25768,-142.857142857143,4,2,1,70,0,0
26255,-76.923076923077,4,2,1,60,0,0
26743,-100,4,2,1,60,0,0
28207,-83.3333333333333,4,2,1,60,0,0
28694,-100,4,2,1,60,0,0
30158,-76.9230769230769,4,2,1,60,0,0
30646,-100,4,2,1,60,0,0
31621,-83.3333333333333,4,2,1,60,0,0
32109,-71.4285714285714,4,2,1,60,0,0
32597,-83.3333333333333,4,2,1,60,0,0
33816,-100,4,2,1,60,0,0
34060,-76.9230769230769,4,2,1,60,0,0
34548,-100,4,2,1,60,0,0
35280,-83.3333333333333,4,2,1,60,0,0
36011,-71.4285714285714,4,2,1,60,0,0
37231,-100,4,2,1,60,0,0
37963,-76.9230769230769,4,2,1,60,0,0
38450,-100,4,2,1,60,0,0
39426,-83.3333333333333,4,2,1,60,0,0
39914,-71.4285714285714,4,2,1,60,0,0
40402,-83.3333333333333,4,2,1,60,0,0
41377,-133.333333333333,4,2,1,60,0,0
41865,-66.6666666666667,4,2,1,70,0,0
42597,-58.8235294117647,4,2,1,70,0,0
43085,-100,4,2,1,70,0,0
43329,-71.4285714285714,4,2,1,70,0,0
43816,-66.6666666666667,4,2,1,70,0,0
44548,-58.8235294117647,4,2,1,70,0,0
45280,-133.333333333333,4,2,1,70,0,0
47719,-58.8235294117647,4,2,1,70,0,0
48938,-71.4285714285714,4,2,1,70,0,0
49670,-66.6666666666667,4,2,1,70,0,0
50402,-58.8235294117647,4,2,1,70,0,0
50889,-100,4,2,1,70,0,0
51133,-50,4,2,1,70,0,0
51621,-66.6666666666667,4,2,1,70,0,0
52353,-58.8235294117647,4,2,1,70,0,0
52841,-100,4,2,1,70,0,0
53085,-133.333333333333,4,2,1,70,0,0
53572,-66.6666666666667,4,2,1,70,0,0
54792,-100,4,2,1,70,0,0
55036,-50,4,2,1,70,0,0
55524,-333.333333333333,4,2,1,70,0,0
56011,-222.222222222222,4,2,1,70,0,0
56499,-166.666666666667,4,2,1,70,0,0
57475,-50,4,2,1,70,0,0
58450,-333.333333333333,4,2,1,70,0,0
58938,-40,4,2,1,70,0,0
59426,-40,4,2,1,80,0,0
59914,-50,4,2,1,80,0,0
66011,-45.4545454545455,4,2,1,80,0,0
66499,-66.6666666666667,4,2,1,80,0,0
67231,-50,4,2,1,80,0,0
73816,-45.4545454545455,4,2,1,80,0,0
74304,-66.6666666666667,4,2,1,80,0,0
75036,-50,4,2,1,80,0,0
81621,-45.4545454545455,4,2,1,80,0,0
82109,-66.6666666666667,4,2,1,80,0,0
82841,-50,4,2,1,80,0,0
89426,-45.4545454545455,4,2,1,80,0,0
90646,-66.6666666666667,4,2,1,80,0,0
97719,-50,4,2,1,80,0,0
98450,-100,4,2,1,60,0,0
105768,-133.333333333333,4,2,1,60,0,0
106255,-100,4,2,1,60,0,0
112597,-66.6666666666667,4,2,1,65,0,0
113085,-50,4,2,1,70,0,0
113572,-40,4,2,1,75,0,0
114060,-43.4782608695652,4,2,1,80,0,1
115280,-50,4,2,1,75,0,0
116011,-55.5555555555556,4,2,1,70,0,0
117475,-133.333333333333,4,2,1,70,0,0
119914,-50,4,2,1,70,0,0
121133,-66.6666666666667,4,2,1,70,0,0
121865,-55.5555555555556,4,2,1,70,0,0
122597,-50,4,2,1,70,0,0
123085,-58.8235294117647,4,2,1,70,0,0
123329,-50,4,2,1,70,0,0
123816,-58.8235294117647,4,2,1,70,0,0
124548,-50,4,2,1,70,0,0
125036,-55.5555555555556,4,2,1,70,0,0
125280,-45.4545454545455,4,2,1,70,0,0
125768,-66.6666666666667,4,2,1,70,0,0
126499,-50,4,2,1,70,0,0
126987,-62.5,4,2,1,70,0,0
127231,-55.5555555555556,4,2,1,70,0,0
127719,-333.333333333333,4,2,1,70,0,0
128207,-222.222222222222,4,2,1,70,0,0
128694,-166.666666666667,4,2,1,70,0,0
129182,-66.6666666666667,4,2,1,70,0,0
130646,-200,4,2,1,70,0,0
131133,-40,4,2,1,70,0,0
131621,-50,4,2,1,80,0,0
138207,-45.4545454545455,4,2,1,80,0,0
138694,-66.6666666666667,4,2,1,80,0,0
139426,-50,4,2,1,80,0,0
146011,-45.4545454545455,4,2,1,80,0,0
146499,-58.8235294117647,4,2,1,80,0,0
147231,-50,4,2,1,80,0,1
148207,-50,4,2,1,80,0,0
153816,-45.4545454545455,4,2,1,80,0,0
154304,-66.6666666666667,4,2,1,80,0,0
155036,-50,4,2,1,80,0,0
160889,-45.4545454545455,4,2,1,80,0,1
168694,-45.4545454545455,4,2,1,80,0,0
169182,-50,4,2,1,80,0,0
172597,-43.4782608695652,4,2,1,80,0,1
178938,-50,4,2,1,75,0,1
179426,-58.8235294117647,4,2,1,70,0,1
179914,-100,4,2,1,65,0,0
180402,-100,4,2,1,60,0,1
180646,-100,4,2,1,60,0,0
186255,-74.0740740740741,4,2,1,60,0,0
188207,-100,4,2,1,60,0,0
194060,-55.5555555555556,4,2,1,80,0,0
194792,-47.6190476190476,4,2,1,80,0,0
196011,-47.6190476190476,4,2,1,80,0,1
196987,-47.6190476190476,4,2,1,80,0,0
202597,-43.4782608695652,4,2,1,80,0,0
203085,-58.8235294117647,4,2,1,80,0,0
203816,-47.6190476190476,4,2,1,80,0,0
209670,-43.4782608695652,4,2,1,80,0,1
210158,-47.6190476190476,4,2,1,80,0,1
213572,-66.6666666666667,4,2,1,80,0,0
214548,-100,4,2,1,80,0,0
215524,-66.6666666666667,4,2,1,80,0,0
219426,-50,4,2,1,80,0,0
219914,-55.5555555555556,4,2,1,80,0,0
220402,-62.5,4,2,1,80,0,0
221377,526.315789473683,4,2,1,80,1,0
221377,-62.5,4,2,1,80,0,0
222166,-270.27027027027,4,2,1,80,0,1
222298,-270.27027027027,4,2,1,20,0,0
229798,-270.27027027027,4,2,1,5,0,0

[Colours]
Combo1 : 0,128,192
Combo2 : 183,183,183
Combo3 : 103,237,137
Combo4 : 46,188,88
Combo5 : 244,138,43
Combo6 : 147,121,200

[HitObjects]
133,136,890,6,0,P|109:84|114:49,2,90,2|2|0,0:0|0:0|0:0,0:0:0:0:
296,205,1621,2,0,B|185:165|206:260|87:232,1,202.500007724762,2|0,0:0|0:0,0:0:0:0:
64,214,2109,1,2,3:0:0:0:
212,299,2353,1,2,3:0:0:0:
228,343,2475,1,2,3:0:0:0:
222,360,2597,1,0,3:0:0:0:
296,205,2841,6,0,P|315:180|313:108,2,90,2|2|0,0:0|0:0|0:0,0:0:0:0:
359,54,3572,2,0,B|399:155|324:151|361:252,1,202.500007724762,2|0,0:0|0:0,0:0:0:0:
392,282,4060,6,0,P|419:292|453:291,1,58.4999973220826,2|0,3:0|0:0,0:0:0:0:
466,137,4304,2,0,P|439:127|405:128,1,58.4999973220826,2|0,3:0|0:0,0:0:0:0:
396,139,4548,1,2,0:0:0:0:
254,61,4792,6,0,P|210:62|167:96,2,90,2|2|0,0:0|0:0|0:0,0:0:0:0:
378,17,5524,2,0,P|285:63|277:156,1,202.500007724762,2|0,0:0|0:0,0:0:0:0:
303,175,6011,5,2,3:0:0:0:
373,251,6255,1,2,3:0:0:0:
344,323,6499,1,0,3:0:0:0:
229,361,6743,6,0,P|201:351|164:346,1,58.4999973220826,2|0,0:0|0:0,0:0:0:0:
34,381,6987,2,0,P|56:361|79:332,1,58.4999973220826,2|0,0:0|0:0,0:3:0:0:
109,211,7231,2,0,P|114:240|128:274,1,58.4999973220826,2|0,0:0|0:0,0:3:0:0:
183,361,7475,6,0,B|214:312|177:205|121:263|62:146|136:78,1,306.000005836487,2|2,0:0|0:0,0:0:0:0:
219,0,8207,6,0,P|248:28|243:95,1,101.250003862381,2|0,0:0|0:0,0:0:0:0:
236,109,8694,6,0,P|267:142|318:139,2,90,2|2|0,0:0|0:0|0:0,0:0:0:0:
459,92,9426,2,0,P|347:151|338:244,1,202.500007724762,2|0,0:0|0:0,0:0:0:0:
356,245,9914,6,0,P|368:273|370:304,1,58.4999973220826,2|0,3:0|0:0,0:0:0:0:
460,278,10158,2,0,P|448:250|446:219,1,58.4999973220826,2|0,3:0|0:0,0:0:0:0:
455,211,10402,1,0,3:0:0:0:
319,369,10646,6,0,P|249:359|234:341,2,90,2|2|0,0:0|0:0|0:0,0:0:0:0:
249,192,11377,2,0,B|140:212|191:272|87:303,1,202.500007724762,2|0,0:0|0:0,0:0:0:0:
45,317,11865,5,2,3:0:0:0:
0,188,12109,1,2,3:0:0:0:
48,119,12353,1,2,3:0:0:0:
316,48,12597,5,2,0:0:0:0:
282,192,12841,1,2,0:0:0:0:
137,159,13085,1,2,0:0:0:0:
171,14,13329,1,2,0:0:0:0:
389,95,13572,5,2,0:0:0:0:
444,330,13816,1,2,0:0:0:0:
208,384,14060,1,2,0:0:0:0:
153,150,14304,2,0,L|166:98,2,45.0000017166138,2|0|0,3:2|3:0|3:0,0:0:0:0:
58,139,14548,6,0,B|135:81|253:126|194:205|296:276|398:199,1,377.999988464356,12|0,1:3|0:0,0:0:0:0:
461,27,15524,5,8,1:3:0:0:
389,67,15646,2,0,P|379:97|372:139,1,53.9999983520508,8|0,1:3|0:0,0:0:0:0:
314,269,15889,5,8,1:3:0:0:
482,357,16011,5,8,0:1:0:0:
476,271,16132,1,4,1:3:0:0:
404,225,16254,1,4,1:3:0:0:
324,255,16376,1,4,1:3:0:0:
162,371,16499,6,0,P|144:340|151:291,1,67.5000025749208,6|0,1:2|0:0,0:0:0:0:
251,123,16743,2,0,P|269:154|262:203,1,67.5000025749208,2|0,0:0|0:0,0:0:0:0:
124,323,16987,2,0,P|90:310|49:302,1,67.5000025749208,10|0,0:0|0:0,0:0:0:0:
244,368,17231,5,2,1:2:0:0:
322,332,17353,2,0,P|296:340|257:355,1,67.5000025749208,8|0,0:0|0:0,0:0:0:0:
113,223,17597,5,8,0:0:0:0:
126,206,17719,2,0,P|137:178|138:140,1,67.5000025749208,0|0,1:0|0:0,0:0:0:0:
64,13,17963,2,0,P|53:41|52:79,1,67.5000025749208,8|0,0:0|0:0,0:0:0:0:
229,133,18207,5,2,0:0:0:0:
251,123,18329,1,2,0:0:0:0:
341,15,18450,6,0,P|316:38|300:92,1,67.5000025749208,2|0,1:2|0:0,0:0:0:0:
463,255,18694,2,0,P|455:221|416:180,1,67.5000025749208,2|0,1:2|0:0,0:0:0:0:
233,260,18938,2,0,P|265:270|320:257,1,67.5000025749208,10|0,0:0|0:0,0:0:0:0:
448,72,19182,5,2,1:2:0:0:
387,119,19304,2,0,P|366:146|356:182,1,67.5000025749208,8|0,0:0|0:0,0:0:0:0:
423,355,19548,5,8,0:0:0:0:
433,340,19670,2,0,P|411:319|368:305,1,67.5000025749208,0|0,1:0|0:0,0:0:0:0:
268,190,19914,2,0,P|192:230|124:232,1,135.000005149842,8|2,0:0|0:0,0:0:0:0:
83,179,20280,1,2,0:0:0:0:
117,85,20402,6,0,P|116:137|109:154,1,67.5000025749208,6|0,1:2|0:0,0:0:0:0:
26,354,20646,2,0,P|27:302|34:285,1,67.5000025749208,0|0,1:0|0:0,0:0:0:0:
5,24,20889,2,0,P|25:61|33:91,1,67.5000025749208,10|0,0:0|0:0,0:0:0:0:
155,244,21133,5,2,1:2:0:0:
215,190,21255,2,0,P|225:167|226:112,1,67.5000025749208,8|0,0:0|0:0,0:0:0:0:
103,327,21499,5,8,0:0:0:0:
116,345,21621,2,0,P|156:351|201:365,1,67.5000025749208,2|0,1:2|0:0,0:0:0:0:
419,285,21865,2,0,P|374:302|344:308,1,67.5000025749208,8|0,0:0|0:0,0:0:0:0:
282,60,22109,1,10,0:0:0:0:
354,95,22231,1,8,0:0:0:0:
356,175,22353,6,0,P|306:186|271:196,1,67.5000025749208,6|0,1:2|0:0,0:0:0:0:
432,18,22597,2,0,P|482:7|517:-3,1,67.5000025749208,2|0,1:2|0:0,0:0:0:0:
270,74,22841,2,0,P|220:85|185:95,1,67.5000025749208,8|0,0:0|0:0,0:0:0:0:
94,193,23085,5,2,1:2:0:0:
34,140,23207,2,0,P|29:123|34:64,1,67.5000025749208,8|0,0:0|0:0,0:0:0:0:
191,253,23450,5,8,0:0:0:0:
182,269,23572,2,0,P|137:287|110:308,1,67.5000025749208,0|0,1:0|0:0,0:0:0:0:
133,84,23816,5,8,0:0:0:0:
211,104,23938,1,8,0:0:0:0:
289,124,24060,1,8,0:0:0:0:
367,145,24182,1,8,0:0:0:0:
430,210,24304,6,0,B|434:126|501:131|530:100|554:17|443:-61|387:33|387:33|292:-45|216:72|265:190|349:124|414:176|425:252,1,742.500007081032,6|0,1:2|0:0,0:0:0:0:
361,347,25768,6,0,P|343:345|366:343,1,94.499997116089,12|0,1:3|0:0,0:0:0:0:
436,364,26255,6,0,P|351:337|257:336,1,175.499991966248,4|0,1:2|0:0,0:0:0:0:
197,384,26743,2,0,P|178:349|191:294,1,90,10|2,0:0|0:0,0:0:0:0:
230,234,27109,2,0,P|239:211|236:188,1,45,2|0,0:0|0:0,0:0:0:0:
190,129,27353,1,0,3:0:0:0:
264,109,27475,2,0,P|231:101|218:95,1,45,10|0,0:0|0:0,0:0:0:0:
46,27,27719,2,0,P|90:22|109:108,1,135,2|2,3:2|0:0,0:0:0:0:
1,156,28207,6,0,B|89:179|49:233|126:262,1,161.999995056153,0|0,3:0|0:0,0:0:0:0:
156,359,28694,2,0,P|136:332|155:262,1,90,8|0,0:0|0:0,0:0:0:0:
220,265,29060,2,0,P|240:292|221:362,1,90,0|0,3:0|0:0,0:0:0:0:
144,380,29426,5,10,0:0:0:0:
228,250,29670,1,2,3:2:0:0:
174,172,29914,1,2,0:0:0:0:
174,172,30036,1,2,0:0:0:0:
221,109,30158,6,0,P|290:83|333:97,1,116.999994644165,0|2,3:0|0:0,0:0:0:0:
443,228,30646,6,0,P|442:283|422:319,1,90,10|2,0:0|0:0,0:0:0:0:
357,358,31011,2,0,P|326:347|315:340,1,45,2|0,0:0|0:0,0:0:0:0:
274,274,31255,1,0,3:0:0:0:
333,206,31377,2,0,P|307:244|296:254,1,45,10|0,0:0|0:0,0:0:0:0:
220,359,31621,2,0,P|179:318|78:311,1,161.999995056153,2|2,0:0|0:0,0:0:0:0:
37,384,32109,6,0,B|13:290|83:307|53:192,1,188.999994232178,0|0,3:0|0:0,0:0:0:0:
106,113,32597,2,0,P|91:148|80:166,1,53.9999983520508,8|0,0:0|0:0,0:0:0:0:
29,104,32841,1,0,3:0:0:0:
34,89,32963,2,0,P|77:74|129:37,1,107.999996704102,0|0,3:0|3:0,0:0:0:0:
219,54,33329,2,0,P|187:43|163:31,1,53.9999983520508,10|0,0:0|0:0,0:0:0:0:
310,17,33572,1,4,0:3:0:0:
303,36,33694,1,4,0:3:0:0:
279,112,33816,2,0,P|289:135|294:154,1,45,2|0,0:0|0:0,0:0:0:0:
314,370,34060,6,0,P|310:294|378:192,1,175.499991966248,0|0,1:0|0:0,0:0:0:0:
472,161,34548,2,0,P|438:179|424:182,1,45,10|0,0:0|0:0,0:0:0:0:
371,135,34792,1,2,0:0:0:0:
361,114,34914,2,0,P|363:54|388:28,1,90,2|0,0:0|0:0,0:0:0:0:
470,18,35280,6,0,P|459:56|455:81,1,53.9999983520508,10|0,0:0|0:0,0:0:0:0:
257,138,35524,2,0,P|268:100|272:75,1,53.9999983520508,10|0,0:0|0:0,0:0:0:0:
415,264,35768,2,0,P|404:302|400:327,1,53.9999983520508,10|0,0:0|0:0,0:0:0:0:
472,161,36011,5,0,3:0:0:0:
484,176,36255,2,0,P|494:199|500:237,1,62.9999980773926,8|0,0:0|0:0,0:0:0:0:
468,357,36499,6,0,B|390:317|407:268|321:239,1,188.999994232178,0|0,3:0|3:0,0:0:0:0:
244,305,36987,1,8,0:0:0:0:
244,305,37109,1,0,3:0:0:0:
244,305,37231,2,0,P|213:315|192:324,1,45,10|0,0:0|0:0,0:0:0:0:
120,282,37475,2,0,P|113:313|110:336,1,45,2|0,3:2|0:0,0:0:0:0:
44,377,37719,1,4,3:0:0:0:
44,377,37841,1,4,3:0:0:0:
102,318,37963,6,0,P|85:221|45:145,1,175.499991966248,0|0,3:0|0:0,0:0:0:0:
90,71,38450,2,0,P|73:112|64:125,1,45,10|0,0:0|0:0,0:0:0:0:
115,194,38694,1,2,0:0:0:0:
175,140,38816,2,0,P|221:142|273:171,1,90,2|0,0:0|0:0,0:0:0:0:
272,180,39182,2,0,P|276:198|275:228,1,45,2|0,3:2|0:0,0:0:0:0:
227,60,39426,6,0,B|308:37|307:95|383:78,1,161.999995056153,10|0,0:0|0:0,0:0:0:0:
490,0,39914,6,0,P|463:32|456:64,1,62.9999980773926,0|0,3:0|0:0,0:0:0:0:
499,189,40158,2,0,P|487:159|466:137,1,62.9999980773926,8|0,0:0|0:0,0:0:0:0:
444,131,40402,6,0,P|396:186|419:278,1,161.999995056153,0|0,3:0|0:0,0:0:0:0:
509,350,40889,2,0,P|482:334|443:320,1,53.9999983520508,8|0,0:0|0:0,0:0:0:0:
349,221,41133,2,0,P|322:237|283:251,1,53.9999983520508,8|0,0:0|0:0,0:0:0:0:
208,314,41377,6,0,P|237:309|205:309,1,101.250003862381,12|0,1:3|0:0,0:0:0:0:
155,384,41865,6,0,P|121:310|133:252,2,135.000005149842,6|0|0,1:2|3:0|3:0,0:0:0:0:
292,181,42597,2,0,B|181:131|186:248|72:206,1,229.500004377365,8|0,0:0|0:0,0:0:0:0:
20,151,43085,6,0,L|11:101,1,45,2|0,3:2|0:0,0:0:0:0:
104,0,43329,2,0,B|142:51|142:51|115:129,1,125.999996154785,2|2,1:2|3:2,0:0:0:0:
117,291,43816,6,0,P|76:254|-8:253,2,135.000005149842,0|2|0,1:0|3:2|3:0,0:0:0:0:
268,383,44548,6,0,B|288:363|333:342|333:342|336:307|336:307|369:182|369:182|336:176|306:152,1,306.000005836487,10|0,0:0|0:0,0:0:0:0:
193,52,45280,6,0,P|167:72|189:44,1,101.250003862381,12|0,1:3|0:0,0:0:0:0:
263,8,45768,5,2,1:2:0:0:
76,43,46011,1,2,0:0:0:0:
113,228,46255,1,10,0:0:0:0:
298,193,46499,1,2,0:0:0:0:
85,29,46743,5,2,1:2:0:0:
368,58,46987,1,2,0:0:0:0:
338,342,47231,1,10,0:0:0:0:
55,312,47475,1,2,0:0:0:0:
209,47,47719,6,0,B|251:149|159:156|190:266,1,229.500004377365,0|0,1:0|0:0,0:0:0:0:
212,339,48207,1,8,0:0:0:0:
417,214,48450,1,2,1:2:0:0:
365,198,48572,1,2,0:0:0:0:
313,182,48694,1,2,0:0:0:0:
85,79,48938,6,0,P|90:118|112:138,1,62.9999980773926,10|0,0:0|0:0,0:0:0:0:
200,32,49182,2,0,P|163:16|135:25,1,62.9999980773926,2|0,1:2|0:0,0:0:0:0:
184,157,49426,2,0,P|215:133|221:104,1,62.9999980773926,2|0,1:2|0:3,0:3:0:0:
13,202,49670,6,0,P|54:136|115:138,2,135.000005149842,6|0|0,1:2|3:0|3:0,0:0:0:0:
141,22,50402,2,0,B|261:48|219:128|333:159,1,229.500004377365,8|0,0:0|0:0,0:0:0:0:
381,108,50889,2,0,L|372:51,1,45,2|0,3:2|0:0,0:0:0:0:
428,0,51133,6,0,L|374:285,1,270,8|0,0:0|0:0,0:0:0:0:
346,350,51621,6,0,P|396:356|460:287,2,135.000005149842,2|0|2,1:2|3:0|3:2,0:0:0:0:
186,281,52353,2,0,B|158:181|242:179|204:57,1,229.500004377365,8|0,0:0|0:0,0:0:0:0:
177,40,52841,2,0,L|167:96,1,45,2|0,3:2|0:0,0:0:0:0:
287,225,53085,6,0,P|306:245|282:226,1,101.250003862381,12|0,1:3|0:0,0:0:0:0:
380,275,53572,6,0,P|387:254|377:205,1,67.5000025749208,2|0,1:2|0:0,0:0:0:0:
298,52,53816,2,0,P|291:73|301:122,1,67.5000025749208,2|0,3:2|0:0,0:0:0:0:
454,168,54060,1,8,0:0:0:0:
318,340,54304,6,0,B|234:311|263:240|158:215,1,202.500007724762,2|0,1:2|0:0,0:0:0:0:
130,196,54792,2,0,P|113:164|113:148,1,45,2|0,3:2|0:0,0:0:0:0:
298,52,55036,6,0,L|247:328,1,270,12|0,0:0|0:0,0:0:0:0:
184,370,55524,6,0,L|133:383,1,40.4999987640381,14|0,0:0|0:0,0:0:0:0:
353,272,56011,6,0,L|418:288,1,60.7499981460572,10|0,0:0|0:0,0:0:0:0:
156,150,56499,6,0,L|75:170,1,80.9999975280763,10|0,0:0|0:0,0:0:0:0:
388,51,56987,5,10,0:0:0:0:
314,85,57109,1,2,0:0:0:0:
255,28,57231,1,2,0:0:0:0:
183,66,57353,1,2,0:0:0:0:
118,17,57475,6,0,L|21:3,1,90,10|0,0:0|0:0,0:0:0:0:
191,87,57719,6,0,L|99:123,1,90,10|0,0:0|0:0,0:0:0:0:
273,184,57963,6,0,L|212:261,1,90,10|0,0:0|0:0,0:0:0:0:
429,256,58207,6,0,L|415:353,1,90,10|0,0:0|0:0,0:0:0:0:
196,367,58450,6,0,L|239:356,1,40.4999987640381,10|0,0:0|0:0,0:0:0:0:
347,382,58938,6,0,B|301:357|301:357|180:327|22:271,1,337.5,8|0,0:1|0:0,0:0:0:0:
60,361,59426,6,0,P|111:313|116:264,1,112.5,6|0,1:2|0:0,0:0:0:0:
53,116,59670,1,2,0:0:0:0:
68,161,59792,1,2,0:0:0:0:
169,170,59914,2,0,P|125:152|75:149,1,90,8|0,0:0|0:0,0:0:0:0:
259,26,60158,5,2,0:0:0:0:
204,88,60280,1,2,0:0:0:0:
124,38,60402,5,2,1:2:0:0:
212,82,60524,2,0,P|145:38|128:29,1,90,8|2,0:0|0:0,0:0:0:0:
285,171,60768,5,2,1:2:0:0:
397,100,60889,2,0,P|336:129|296:156,1,90,8|0,0:0|0:0,0:0:0:0:
239,288,61133,1,2,0:0:0:0:
234,316,61255,1,2,0:0:0:0:
179,378,61377,6,0,B|257:357|231:293|336:273,1,180,6|2,1:2|0:0,0:0:0:0:
391,230,61743,1,2,0:0:0:0:
454,291,61865,2,0,P|474:338|486:377,1,90,8|0,0:0|0:0,0:0:0:0:
398,212,62109,5,2,1:2:0:0:
494,136,62231,2,0,P|445:179|421:208,1,90,10|0,0:0|0:0,0:0:0:0:
280,349,62475,5,8,0:0:0:0:
301,358,62597,2,0,P|321:329|318:268,1,90,0|0,1:0|0:0,0:0:0:0:
185,75,62841,2,0,B|128:183|231:224|161:358,1,270,8|0,0:0|0:0,0:0:0:0:
94,372,63329,6,0,P|67:362|51:300,1,90,6|0,1:2|0:0,0:0:0:0:
195,186,63572,1,2,0:0:0:0:
240,167,63694,1,2,0:0:0:0:
172,224,63816,2,0,P|117:207|76:197,1,90,8|0,0:0|0:0,0:0:0:0:
6,57,64060,5,2,1:2:0:0:
36,81,64182,2,0,P|67:101|132:103,1,90,2|0,1:2|1:0,0:0:0:0:
258,19,64426,1,8,0:0:0:0:
200,66,64548,1,2,1:2:0:0:
195,87,64670,1,0,1:2:0:0:
130,22,64792,2,0,B|292:50|214:137|359:191,1,270,10|2,0:0|0:0,0:0:0:0:
390,58,65280,6,0,P|416:93|408:137,1,90,6|0,1:2|0:0,0:0:0:0:
140,120,65524,2,0,P|157:80|199:65,1,90,2|0,1:2|0:0,0:0:0:0:
303,292,65767,2,0,P|259:296|226:267,1,90,10|0,0:0|0:0,0:0:0:0:
440,0,66011,6,0,B|473:45|473:45|424:223|424:223|460:296,1,297.000009063721,6|8,1:2|0:0,0:0:0:0:
441,299,66499,2,0,L|420:373,1,67.5000025749208,2|0,1:2|0:0,0:0:0:0:
140,120,66743,5,12,0:0:0:0:
207,177,66865,1,8,0:0:0:0:
286,141,66987,1,10,0:0:0:0:
337,212,67109,1,10,0:0:0:0:
421,187,67231,6,0,P|441:150|435:101,1,90,6|0,1:2|0:0,0:0:0:0:
271,280,67475,1,2,0:0:0:0:
286,323,67597,1,2,0:0:0:0:
243,255,67719,2,0,P|262:199|268:154,1,90,8|0,0:0|0:0,0:0:0:0:
179,28,67963,1,2,0:0:0:0:
192,71,68085,1,2,0:0:0:0:
141,157,68207,5,2,1:2:0:0:
202,84,68329,2,0,P|176:133|162:168,1,90,8|0,0:0|0:0,0:0:0:0:
66,311,68572,5,2,1:2:0:0:
13,219,68694,2,0,P|36:270|46:306,1,90,8|0,0:0|0:0,0:0:0:0:
195,248,68938,2,0,P|172:197|162:161,1,90,2|2,0:0|0:0,0:0:0:0:
399,66,69182,6,0,B|317:88|356:140|261:179,1,180,6|2,1:2|0:0,0:0:0:0:
195,248,69548,1,2,0:0:0:0:
292,310,69670,2,0,P|237:288|200:261,1,90,8|0,0:0|0:0,0:0:0:0:
55,43,69914,5,2,0:0:0:0:
110,117,70036,1,2,1:2:0:0:
143,130,70158,1,0,1:0:0:0:
205,67,70280,1,8,0:0:0:0:
217,54,70402,2,0,P|231:41|314:25,1,90,0|0,1:0|0:0,0:0:0:0:
423,0,70646,2,0,P|303:66|290:204,1,270,8|0,0:0|0:0,0:0:0:0:
450,200,71133,6,0,B|314:238|412:327|248:393,1,270,6|0,1:2|0:0,0:0:0:0:
76,272,71621,2,0,P|115:287|163:317,1,90,10|0,0:0|0:0,0:0:0:0:
176,336,71865,5,2,0:0:0:0:
238,279,71987,1,2,1:2:0:0:
231,250,72109,1,0,1:2:0:0:
171,188,72231,1,8,0:0:0:0:
182,173,72353,2,0,P|204:130|208:75,1,90,2|0,1:2|0:0,0:0:0:0:
52,0,72597,2,0,B|101:121|11:159|56:281,1,270,10|0,0:0|0:0,0:0:0:0:
94,368,73085,6,0,P|133:351|156:307,1,90,6|0,1:2|0:0,0:0:0:0:
29,82,73329,2,0,P|24:124|50:166,1,90,2|0,1:2|0:0,0:0:0:0:
298,167,73572,2,0,P|263:141|214:143,1,90,10|0,0:0|0:0,0:3:0:0:
0,349,73816,6,0,B|115:319|115:319|177:350|177:350|296:323,1,297.000009063721,6|8,1:2|0:0,0:0:0:0:
414,374,74304,2,0,P|383:363|348:326,1,67.5000025749208,0|0,1:0|0:0,0:0:0:0:
346,87,74548,5,12,0:0:0:0:
428,81,74669,1,8,0:0:0:0:
490,134,74791,1,10,0:0:0:0:
498,216,74913,1,10,0:0:0:0:
422,293,75036,6,0,P|462:257|510:226,1,90,6|0,1:2|0:0,0:0:0:0:
283,325,75280,1,2,0:0:0:0:
244,312,75402,1,2,0:0:0:0:
143,362,75524,2,0,P|218:331|252:321,1,90,8|0,0:0|0:0,0:0:0:0:
310,233,75768,5,2,1:2:0:0:
249,173,75889,2,0,P|230:131|239:86,1,90,10|2,0:0|0:0,0:0:0:0:
335,17,76133,5,8,0:0:0:0:
346,28,76255,2,0,P|382:29|441:0,1,90,2|2,1:2|0:0,0:0:0:0:
220,99,76499,2,0,B|96:157|173:233|60:306,1,270,8|0,0:0|0:0,0:0:0:0:
0,245,76987,6,0,P|26:223|85:215,1,90,6|0,1:2|0:0,0:0:0:0:
221,324,77231,1,2,0:0:0:0:
230,365,77353,1,2,0:0:0:0:
186,297,77475,2,0,P|207:242|215:200,1,90,8|0,0:0|0:0,0:0:0:0:
110,56,77719,5,2,1:2:0:0:
178,102,77841,2,0,P|313:70|334:23,1,180,10|8,0:0|0:0,0:0:0:0:
336,27,78207,2,0,P|361:16|426:5,1,90,0|0,1:0|0:0,0:0:0:0:
281,131,78450,2,0,P|333:206|364:301,1,180,8|2,0:0|0:0,0:0:0:0:
378,303,78816,1,2,0:0:0:0:
333,376,78938,6,0,P|286:354|237:341,1,90,6|0,1:2|0:0,0:0:0:0:
113,253,79182,1,2,0:0:0:0:
64,271,79304,1,2,0:0:0:0:
141,219,79426,2,0,P|188:237|247:251,1,90,8|0,0:0|0:0,0:0:0:0:
296,190,79670,5,2,1:2:0:0:
237,132,79792,1,2,1:2:0:0:
233,118,79914,1,0,1:2:0:0:
284,53,80036,1,8,0:0:0:0:
267,36,80158,2,0,P|227:25|175:8,1,90,2|0,1:2|0:0,0:0:0:0:
417,130,80402,2,0,B|306:170|360:270|239:325,1,270,10|0,0:0|0:0,0:0:0:0:
177,368,80889,6,0,P|132:351|85:337,1,90,6|0,1:2|0:0,0:0:0:0:
331,163,81133,2,0,P|338:210|350:258,1,90,2|0,1:2|0:0,0:0:0:0:
87,141,81377,2,0,P|124:110|159:76,1,90,10|0,0:0|0:0,0:0:0:0:
417,130,81621,6,0,P|268:149|176:272,1,297.000009063721,6|8,1:2|0:0,0:0:0:0:
241,323,82109,2,0,P|233:305|180:268,1,67.5000025749208,2|0,1:2|0:0,0:0:0:0:
8,105,82353,5,14,0:0:0:0:
87,141,82475,1,8,0:0:0:0:
140,71,82597,1,10,0:0:0:0:
222,101,82719,1,10,0:0:0:0:
269,27,82841,6,0,P|326:53|362:61,1,90,6|0,1:2|0:0,0:0:0:0:
461,166,83085,1,2,0:0:0:0:
507,139,83207,1,2,0:0:0:0:
439,204,83329,2,0,P|423:239|408:294,1,90,8|0,0:0|0:0,0:0:0:0:
250,370,83572,5,2,1:2:0:0:
302,307,83694,2,0,P|290:263|271:222,1,90,10|2,0:0|0:0,0:0:0:0:
94,168,83938,5,8,0:0:0:0:
109,155,84060,2,0,P|127:113|139:70,1,90,2|2,1:2|0:0,0:0:0:0:
290,55,84304,2,0,P|247:43|206:24,1,90,8|0,0:0|0:0,0:0:0:0:
32,223,84548,1,2,0:0:0:0:
94,168,84670,1,2,0:0:0:0:
184,238,84792,6,0,P|164:298|154:339,1,90,6|0,1:2|0:0,0:0:0:0:
275,177,85036,1,2,0:0:0:0:
227,116,85158,1,2,0:0:0:0:
352,200,85280,2,0,P|368:231|391:299,1,90,8|0,0:0|0:0,0:0:0:0:
479,99,85524,5,2,1:2:0:0:
388,119,85646,2,0,P|431:103|474:83,1,90,8|0,0:0|0:0,0:0:0:0:
287,275,85889,5,8,0:0:0:0:
265,259,86011,2,0,P|221:245|168:235,1,90,0|0,1:0|0:0,0:0:0:0:
0,384,86255,1,10,0:0:0:0:
76,341,86376,1,2,0:0:0:0:
103,257,86498,1,2,0:0:0:0:
67,177,86620,1,2,0:0:0:0:
7,91,86743,6,0,P|16:47|33:5,1,90,6|0,1:2|0:0,0:0:0:0:
214,140,86987,2,0,P|204:183|187:225,1,90,0|0,1:0|0:0,0:0:0:0:
131,51,87231,2,0,P|184:37|229:23,1,90,8|0,0:0|0:0,0:0:0:0:
398,101,87475,5,2,0:0:0:0:
362,86,87597,1,2,0:0:0:0:
501,48,87719,2,0,P|441:71|413:89,2,90,6|8|0,1:2|0:0|1:0,0:0:0:0:
330,220,88207,6,0,P|311:265|296:314,1,90,10|0,0:0|0:0,0:0:0:0:
161,162,88450,1,8,0:0:0:0:
196,85,88572,1,8,0:0:0:0:
85,202,88694,6,0,P|33:184|23:151,1,90,6|0,1:2|0:0,0:0:0:0:
212,323,88938,2,0,P|170:359|136:351,1,90,2|0,1:2|0:0,0:0:0:0:
409,220,89182,2,0,P|419:274|395:299,1,90,10|0,0:2|0:0,0:0:0:0:
64,335,89426,6,0,B|117:356|236:254|137:186|222:60|335:97,1,396.000012084961,4|8,1:2|0:0,0:0:0:0:
393,51,90036,1,0,1:0:0:0:
306,114,90158,5,8,0:0:0:0:
343,183,90280,1,8,0:0:0:0:
277,228,90402,1,8,0:0:0:0:
311,299,90524,1,8,0:0:0:0:
255,355,90646,6,0,P|222:343|184:333,1,67.5000025749208,6|0,1:2|0:0,0:0:0:0:
22,321,90889,2,0,P|48:298|76:270,1,67.5000025749208,2|0,1:2|0:0,0:0:0:0:
151,122,91133,2,0,P|157:156|167:194,1,67.5000025749208,10|0,0:0|0:0,0:0:0:0:
46,94,91377,1,2,1:2:0:0:
95,32,91499,2,0,P|113:23|162:8,1,67.5000025749208,8|0,0:0|0:0,0:0:0:0:
278,90,91743,1,8,0:0:0:0:
306,114,91865,2,0,P|327:124|378:134,1,67.5000025749208,2|0,1:2|0:0,0:0:0:0:
499,48,92109,2,0,P|465:54|434:67,1,67.5000025749208,8|0,0:0|0:0,0:0:0:0:
334,214,92353,1,2,0:0:0:0:
343,244,92475,1,2,0:0:0:0:
294,316,92597,6,0,P|260:312|229:300,1,67.5000025749208,2|0,1:2|0:0,0:0:0:0:
418,172,92841,2,0,P|431:202|437:235,1,67.5000025749208,2|0,1:2|0:0,0:0:0:0:
232,138,93085,2,0,P|251:110|277:89,1,67.5000025749208,10|0,0:0|0:0,0:0:0:0:
404,327,93329,5,2,1:2:0:0:
343,244,93450,2,0,P|367:275|384:304,1,67.5000025749208,8|0,0:0|0:0,0:0:0:0:
190,375,93694,5,8,0:0:0:0:
208,362,93816,2,0,P|228:322|226:285,1,67.5000025749208,0|0,1:0|0:0,0:0:0:0:
115,143,94060,2,0,P|118:176|135:205,1,67.5000025749208,8|0,0:0|0:0,0:0:0:0:
364,50,94304,5,2,0:0:0:0:
335,126,94426,1,2,0:0:0:0:
456,5,94548,6,0,P|425:19|394:31,1,67.5000025749208,6|0,1:2|0:0,0:0:0:0:
284,64,94792,2,0,P|252:51|222:37,1,67.5000025749208,0|0,1:0|0:0,0:0:0:0:
414,186,95036,2,0,P|418:219|421:253,1,67.5000025749208,10|0,0:0|0:0,0:0:0:0:
376,373,95280,1,2,1:2:0:0:
466,336,95402,2,0,P|411:353|390:357,1,67.5000025749208,8|0,0:0|0:0,0:0:0:0:
239,286,95646,1,8,0:0:0:0:
250,299,95768,2,0,P|261:334|263:372,1,67.5000025749208,2|0,1:2|0:0,0:0:0:0:
86,280,96011,6,0,P|102:235|107:205,1,67.5000025749208,8|0,0:0|0:0,0:0:0:0:
47,13,96255,1,8,0:0:0:0:
18,88,96377,1,8,0:0:0:0:
83,134,96499,6,0,P|129:119|159:113,1,67.5000025749208,6|0,1:2|0:0,0:0:0:0:
301,0,96743,2,0,P|290:47|281:76,1,67.5000025749208,2|0,1:2|0:0,0:0:0:0:
188,255,96987,2,0,P|198:207|207:178,1,67.5000025749208,8|0,0:0|0:0,0:0:0:0:
365,83,97231,5,2,1:2:0:0:
421,142,97353,1,8,0:0:0:0:
411,161,97475,2,0,P|391:225|388:241,1,67.5000025749208,0|0,1:0|0:0,0:0:0:0:
384,370,97719,6,0,P|476:339|458:271,2,180,8|4|4,1:3|1:3|1:3,0:0:0:0:
286,296,98450,6,0,B|203:268|188:345|112:319,1,180,4|0,0:0|3:0,0:0:0:0:
113,319,99914,1,0,3:0:0:0:
113,319,100402,6,0,P|134:236|147:137,1,180,2|0,0:0|3:0,0:0:0:0:
444,195,101133,2,0,P|423:278|410:377,1,180,2|0,0:0|0:0,0:0:0:0:
231,267,101865,2,0,P|311:251|338:245,1,90,2|0,3:2|0:0,0:0:0:0:
499,118,102353,6,0,B|416:89|450:44|346:18,1,180,4|0,0:0|3:0,0:0:0:0:
352,19,103816,1,0,3:0:0:0:
352,19,104304,6,0,P|337:101|323:201,1,180,2|0,0:0|3:0,0:0:0:0:
13,293,105036,2,0,P|28:211|42:111,1,180,2|0,0:0|0:0,0:0:0:0:
185,220,105768,2,0,P|204:202|180:219,1,101.250003862381,12|0,1:3|0:0,0:0:0:0:
185,220,106255,6,0,P|249:199|367:179,1,180,4|0,0:0|3:0,0:0:0:0:
359,179,107719,1,0,3:0:0:0:
359,179,108207,6,0,P|371:108|387:-10,1,180,2|0,0:0|3:0,0:0:0:0:
95,174,108938,2,0,P|83:245|67:363,1,180,2|0,0:0|0:0,0:0:0:0:
273,209,109670,2,0,P|208:226|175:232,1,90,2|0,3:2|0:0,0:0:0:0:
52,24,110158,6,0,B|146:42|117:74|215:103,1,180,4|0,0:0|3:0,0:0:0:0:
211,102,111621,1,0,3:0:0:0:
52,24,112109,6,0,P|60:102|76:168,1,135,2|0,0:0|0:0,0:0:0:0:
93,180,112597,6,0,P|84:216|78:249,1,67.5000025749208,0|0,1:0|0:0,0:0:0:0:
214,277,112841,2,0,P|223:241|229:208,1,67.5000025749208,0|0,1:0|0:0,0:0:0:0:
54,69,113085,6,0,P|64:112|73:156,1,90,8|0,1:3|0:0,0:0:0:0:
318,227,113329,2,0,P|305:176|296:129,1,90,8|0,1:3|0:0,0:0:0:0:
49,257,113572,6,0,P|35:311|25:366,1,112.5,8|0,0:0|0:0,0:0:0:0:
396,170,113816,2,0,P|409:115|419:60,1,112.5,8|0,0:0|0:0,0:0:0:0:
179,8,114060,6,0,P|212:48|215:102,1,103.500001974106,6|0,1:2|0:0,0:0:0:0:
49,257,114304,2,0,P|67:208|112:178,1,103.500001974106,0|0,1:2|0:0,0:0:0:0:
326,252,114548,2,0,P|274:260|226:236,1,103.500001974106,8|0,0:0|0:0,0:0:0:0:
27,89,114792,6,0,B|86:88|140:50|140:50|207:73|207:73|254:33|332:44,1,310.500005922318,12|0,1:3|0:0,0:0:0:0:
390,23,115280,6,0,P|362:69|362:115,1,90,2|0,1:2|0:0,0:0:0:0:
488,209,115524,2,0,B|347:162|370:286|197:230,1,270,10|0,0:0|0:0,0:0:0:0:
132,214,116011,6,0,P|146:256|151:292,1,80.9999975280763,0|0,1:0|0:0,0:0:0:0:
258,104,116255,2,0,P|244:62|239:26,1,80.9999975280763,2|0,0:0|0:0,0:0:0:0:
238,25,116499,1,0,3:0:0:0:
387,311,116743,6,0,P|290:195|132:213,1,323.999990112305,10|0,0:0|0:0,0:0:0:0:
226,367,117475,6,0,P|244:346|216:364,1,101.250003862381,12|0,1:3|0:0,0:0:0:0:
316,366,117963,5,2,1:2:0:0:
129,331,118206,1,2,0:0:0:0:
166,146,118450,1,10,0:0:0:0:
351,181,118694,1,2,0:0:0:0:
138,345,118938,5,2,1:2:0:0:
421,316,119182,1,2,0:0:0:0:
391,32,119426,1,10,0:0:0:0:
108,62,119670,1,2,0:0:0:0:
8,207,119914,6,0,P|101:222|187:247,1,180,0|2,1:2|0:0,0:0:0:0:
444,138,120402,1,8,0:0:0:0:
308,315,120646,5,2,1:2:0:0:
294,262,120768,1,2,0:0:0:0:
280,210,120889,1,2,0:0:0:0:
321,0,121133,6,0,P|308:33|298:68,1,67.5000025749208,8|0,1:3|0:0,0:0:0:0:
374,194,121377,2,0,P|351:166|326:140,1,67.5000025749208,4|0,1:3|0:0,0:0:0:0:
173,142,121621,2,0,P|208:136|243:127,1,67.5000025749208,8|0,1:3|0:0,0:0:0:0:
512,19,121865,6,0,P|464:12|380:86,2,161.999995056153,2|0|0,1:2|3:0|3:0,0:0:0:0:
329,143,122597,2,0,B|179:169|271:269|110:318,1,270,8|0,0:0|0:0,0:0:0:0:
62,275,123085,2,0,P|51:261|61:197,1,76.5000014591217,2|0,3:2|0:0,0:0:0:0:
134,94,123329,6,0,L|73:373,1,270,10|0,0:0|0:0,0:0:0:0:
62,275,123816,6,0,P|139:290|162:360,2,153.000002918243,2|0|2,1:2|3:0|3:2,0:0:0:0:
5,88,124548,2,0,B|-14:139|20:170|20:170|207:105,1,270,10|0,0:0|0:0,0:0:0:0:
205,95,125036,6,0,L|296:122,1,80.9999975280763,2|0,3:2|0:0,0:0:0:0:
376,9,125280,2,0,B|338:44|338:44|316:145|254:299,1,297.000009063721,10|0,0:0|0:0,0:0:0:0:
308,343,125768,6,0,P|341:335|356:300,1,67.5000025749208,2|0,1:2|0:0,0:0:0:0:
171,227,126011,2,0,P|161:259|184:290,1,67.5000025749208,2|0,3:2|0:0,0:0:0:0:
326,171,126255,2,0,P|302:146|264:150,1,67.5000025749208,8|0,0:0|0:0,0:0:0:0:
58,359,126499,6,0,B|87:325|115:312|115:312|118:279|118:279|142:175|142:175|120:166|95:137,1,270,12|0,1:3|0:0,0:0:0:0:
81,127,126987,2,0,P|91:100|95:52,1,72,4|0,1:3|0:0,0:0:0:0:
310,32,127231,2,0,P|233:6|152:1,1,161.999995056153,12|2,0:0|0:0,0:0:0:0:
47,319,127719,6,0,L|60:366,1,40.4999987640381,10|0,0:0|0:0,0:0:0:0:
155,173,128207,6,0,L|173:106,1,60.7499981460572,10|0,0:0|0:0,0:0:0:0:
318,306,128694,6,0,L|339:383,1,80.9999975280763,10|0,0:0|0:0,0:0:0:0:
463,177,129182,6,0,B|474:145|474:145|463:108,1,67.5000025749208,14|2,0:0|0:0,0:0:0:0:
293,51,129426,2,0,B|282:83|282:83|293:120,1,67.5000025749208,2|2,0:0|0:0,0:0:0:0:
419,262,129670,5,10,0:0:0:0:
400,253,129792,1,2,0:0:0:0:
336,333,129914,5,10,0:0:0:0:
318,306,130036,1,2,0:0:0:0:
221,351,130158,5,10,0:0:0:0:
217,306,130280,1,2,0:0:0:0:
99,312,130402,5,10,0:0:0:0:
137,230,130524,1,2,0:0:0:0:
6,198,130646,6,0,L|76:177,1,67.5,10|0,0:0|0:0,0:0:0:0:
20,117,131133,6,0,B|59:130|59:130|173:88|346:53,1,337.5,8|0,0:1|0:0,0:0:0:0:
401,1,131621,6,0,P|377:64|371:96,1,90,6|0,1:2|0:0,0:0:0:0:
453,233,131865,1,2,0:0:0:0:
469,272,131987,1,2,0:0:0:0:
419,204,132109,2,0,P|373:190|331:175,1,90,8|0,0:0|0:0,0:0:0:0:
225,49,132353,5,2,1:2:0:0:
172,112,132475,2,0,P|132:94|79:81,1,90,10|2,0:0|0:0,0:0:0:0:
213,300,132719,5,8,0:0:0:0:
222,287,132841,2,0,P|264:271|318:254,1,90,2|2,1:2|0:0,0:0:0:0:
140,363,133085,2,0,P|97:349|55:333,1,90,8|0,0:0|0:0,0:0:0:0:
101,190,133329,1,2,0:0:0:0:
111,229,133450,1,2,0:0:0:0:
63,168,133572,6,0,P|80:123|88:72,1,90,2|0,1:2|0:0,0:0:0:0:
232,13,133816,1,2,0:0:0:0:
247,55,133938,1,2,0:0:0:0:
350,109,134060,2,0,P|291:93|256:79,1,90,8|0,0:0|0:0,0:0:0:0:
494,44,134304,5,2,1:2:0:0:
424,87,134426,2,0,P|401:133|397:180,1,90,10|0,0:0|0:0,0:0:0:0:
453,342,134670,1,8,0:0:0:0:
465,328,134792,2,0,P|447:306|381:297,1,90,0|0,1:0|0:0,0:0:0:0:
186,369,135036,2,0,P|222:365|281:344,1,90,8|0,0:0|0:0,0:0:0:0:
308,269,135280,1,2,0:0:0:0:
295,239,135402,1,2,0:0:0:0:
366,200,135524,6,0,P|262:183|184:143,1,180,6|2,1:2|1:2,0:0:0:0:
147,85,135889,1,2,0:0:0:0:
215,0,136011,2,0,P|192:46|161:79,1,90,8|0,0:0|0:0,0:0:0:0:
11,165,136255,5,2,1:2:0:0:
40,30,136377,2,0,P|62:80|70:129,1,90,10|0,0:0|0:0,0:0:0:0:
11,290,136621,5,8,0:0:0:0:
24,277,136743,2,0,P|69:252|122:234,1,90,2|0,1:2|0:0,0:0:0:0:
195,150,136987,2,0,B|321:195|248:282|374:340,1,270,10|0,0:0|0:0,0:0:0:0:
450,282,137475,6,0,P|439:243|429:180,1,90,6|0,1:2|0:0,0:0:0:0:
190,350,137719,2,0,P|229:359|288:382,1,90,2|0,1:2|0:0,0:0:0:0:
261,89,137963,2,0,P|232:118|183:158,1,90,10|0,0:0|0:0,0:0:0:0:
0,130,138207,6,0,P|151:146|240:269,1,297.000009063721,6|8,1:2|0:0,0:0:0:0:
190,350,138694,2,0,P|200:314|221:286,1,67.5000025749208,2|0,1:2|0:0,0:0:0:0:
424,117,138938,5,14,0:0:0:0:
365,173,139060,1,8,0:0:0:0:
404,243,139182,1,8,0:0:0:0:
345,299,139304,1,8,0:0:0:0:
386,368,139426,6,0,P|419:350|473:328,1,90,6|0,1:2|0:0,0:0:0:0:
268,196,139670,1,2,0:0:0:0:
226,214,139792,1,2,0:0:0:0:
288,155,139914,2,0,P|302:105|318:59,1,90,8|0,0:0|0:0,0:0:0:0:
77,31,140158,5,2,1:2:0:0:
145,75,140280,2,0,P|181:59|252:40,1,90,10|2,0:0|0:0,0:0:0:0:
33,177,140524,5,8,0:0:0:0:
42,191,140646,2,0,P|89:209|131:233,1,90,2|2,1:2|0:0,0:0:0:0:
214,335,140889,2,0,P|253:313|295:297,1,90,8|0,0:0|0:0,0:0:0:0:
440,173,141133,1,2,0:0:0:0:
421,218,141255,1,2,0:0:0:0:
504,127,141377,6,0,P|499:80|477:42,1,90,6|0,1:2|0:0,0:0:0:0:
309,126,141621,1,2,1:2:0:0:
295,176,141743,1,2,0:0:0:0:
340,96,141865,2,0,P|300:85|246:62,1,90,8|0,0:0|0:0,0:0:0:0:
70,235,142109,5,2,1:2:0:0:
136,190,142231,2,0,P|165:161|171:98,1,90,10|0,0:0|0:0,0:0:0:0:
7,330,142475,1,8,0:0:0:0:
71,376,142597,1,0,1:0:0:0:
81,368,142719,1,0,1:0:0:0:
140,314,142841,6,0,B|236:299|247:145|343:138,1,270,8|0,0:0|0:0,0:0:0:0:
438,45,143329,6,0,P|419:103|411:141,1,90,6|0,1:2|0:0,0:0:0:0:
199,244,143572,2,0,P|218:186|226:148,1,90,0|0,1:2|0:0,0:0:0:0:
462,197,143816,2,0,B|498:284|429:310|454:372,1,180,10|2,0:0|0:0,0:0:0:0:
375,342,144182,5,2,1:2:0:0:
346,352,144304,1,0,1:0:0:0:
273,303,144426,1,8,0:0:0:0:
314,233,144548,2,0,P|292:280|280:320,1,90,2|0,1:2|0:0,0:0:0:0:
111,378,144792,2,0,P|216:358|194:218,1,270,10|0,0:0|0:0,0:0:0:0:
136,172,145280,6,0,P|107:148|96:93,1,90,6|0,1:2|0:0,0:0:0:0:
273,303,145524,2,0,P|266:340|224:377,1,90,2|0,1:2|0:0,0:0:0:0:
333,125,145768,2,0,P|368:111|421:129,1,90,10|0,0:0|0:0,0:0:0:0:
212,384,146011,6,0,B|173:248|284:260|224:83,1,297.000009063721,6|8,1:2|0:0,0:0:0:0:
160,48,146499,6,0,B|168:7|168:7|174:-2,2,51.0000009727478,2|2|2,1:2|0:0|0:0,0:0:0:0:
16,224,146743,5,12,0:0:0:0:
106,204,146865,1,8,0:0:0:0:
196,184,146987,1,10,0:0:0:0:
286,164,147109,1,10,0:0:0:0:
350,50,147231,6,0,P|320:107|307:150,1,90,6|0,1:2|0:0,0:0:0:0:
250,270,147475,1,2,0:0:0:0:
267,293,147597,1,2,0:0:0:0:
276,377,147719,2,0,P|262:343|236:292,1,90,8|0,0:0|0:0,0:0:0:0:
348,218,147963,5,2,1:2:0:0:
406,276,148085,2,0,P|441:284|492:305,1,90,10|2,0:0|0:0,0:0:0:0:
321,116,148329,5,8,0:0:0:0:
311,131,148450,2,0,P|261:151|215:156,1,90,2|2,1:2|0:0,0:0:0:0:
169,215,148694,2,0,P|124:207|83:190,1,90,8|0,0:0|0:0,0:0:0:0:
6,50,148938,1,2,0:0:0:0:
20,92,149060,1,2,0:0:0:0:
67,0,149182,6,0,P|46:53|40:86,1,90,6|0,1:2|0:0,0:0:0:0:
5,232,149426,1,2,0:0:0:0:
21,264,149548,1,2,0:0:0:0:
0,360,149670,2,0,P|14:319|39:278,1,90,8|0,0:0|0:0,0:0:0:0:
224,154,149914,5,2,1:2:0:0:
169,215,150036,2,0,P|125:197|85:172,1,90,8|0,0:0|0:0,0:0:0:0:
271,325,150280,5,8,0:0:0:0:
284,312,150402,2,0,P|327:289|370:279,1,90,0|0,1:0|0:0,0:0:0:0:
478,219,150646,2,0,P|434:207|395:186,1,90,8|0,0:0|0:0,0:0:0:0:
422,115,150889,2,0,P|465:126|504:147,1,90,2|0,0:0|0:0,0:0:0:0:
494,374,151133,6,0,P|439:350|394:336,1,90,6|0,1:2|0:0,0:0:0:0:
248,238,151377,1,2,0:0:0:0:
208,258,151499,1,2,0:0:0:0:
271,201,151621,2,0,P|288:155|292:108,1,90,8|0,0:0|0:0,0:0:0:0:
148,338,151865,5,2,1:2:0:0:
102,275,151987,2,0,P|69:251|18:231,1,90,10|0,0:0|0:0,0:0:0:0:
161,118,152231,5,8,0:0:0:0:
135,106,152353,2,0,P|107:70|97:20,1,90,2|0,1:2|0:0,0:0:0:0:
262,188,152597,2,0,B|393:233|327:323|462:375,1,270,10|0,0:0|0:0,0:0:0:0:
502,307,153085,6,0,P|504:267|471:221,1,90,6|0,1:2|0:0,0:0:0:0:
216,344,153329,2,0,P|249:365|305:360,1,90,2|0,1:2|0:0,0:0:0:0:
313,109,153572,2,0,P|277:127|254:178,1,90,10|0,0:0|0:0,0:0:0:0:
482,41,153816,6,0,P|395:146|353:315,1,297.000009063721,6|8,1:2|0:0,0:0:0:0:
297,361,154304,2,0,P|327:377|360:383,1,67.5000025749208,2|0,1:2|0:0,0:0:0:0:
512,113,154548,5,14,0:0:0:0:
462,177,154670,1,8,0:0:0:0:
385,149,154792,1,8,0:0:0:0:
338,215,154914,1,8,0:0:0:0:
261,188,155036,6,0,P|225:177|153:162,1,90,6|0,1:2|0:0,0:0:0:0:
71,75,155280,1,2,0:0:0:0:
26,91,155402,1,2,0:0:0:0:
106,34,155524,2,0,P|141:45|201:57,1,90,8|0,0:0|0:0,0:0:0:0:
18,184,155768,5,2,1:2:0:0:
82,231,155889,2,0,P|102:268|104:321,1,90,10|2,0:0|0:0,0:0:0:0:
261,188,156133,5,8,0:0:0:0:
249,202,156255,2,0,P|224:252|218:288,1,90,2|2,1:2|0:0,0:0:0:0:
106,34,156499,2,0,P|136:80|164:103,1,90,8|0,0:0|0:0,0:0:0:0:
286,62,156743,1,2,0:0:0:0:
305,15,156865,1,2,0:0:0:0:
312,108,156987,6,0,B|347:181|274:203|317:296,1,180,6|2,1:2|0:0,0:0:0:0:
386,332,157353,1,2,0:0:0:0:
457,240,157475,2,0,P|420:289|405:318,1,90,8|0,0:0|0:0,0:0:0:0:
137,222,157719,5,2,1:2:0:0:
230,333,157841,2,0,P|214:260|196:223,1,90,10|0,0:0|0:0,0:0:0:0:
62,137,158085,5,8,0:0:0:0:
47,121,158207,2,0,P|56:59|68:20,1,90,0|0,1:0|0:0,0:0:0:0:
213,0,158450,5,10,0:0:0:0:
298,20,158571,1,2,0:0:0:0:
351,90,158693,1,2,0:0:0:0:
347,178,158815,1,2,0:0:0:0:
259,314,158938,6,0,P|248:274|242:220,1,90,6|0,1:2|0:0,0:0:0:0:
361,95,159182,2,0,P|372:135|378:189,1,90,0|0,1:2|0:0,0:0:0:0:
247,333,159426,2,0,P|299:348|340:365,1,90,8|0,0:0|0:0,0:0:0:0:
161,261,159670,5,2,1:2:0:0:
133,273,159792,1,10,0:0:0:0:
78,334,159914,1,6,1:2:0:0:
2,276,160036,5,8,0:2:0:0:
56,216,160158,2,0,P|76:183|68:128,1,90,8|8,0:0|0:0,0:0:0:0:
22,63,160402,5,10,0:0:0:0:
90,11,160523,1,8,0:0:0:0:
171,41,160645,1,8,0:0:0:0:
187,126,160767,1,8,0:0:0:0:
270,232,160889,6,0,B|346:188|309:102|408:69,1,198.000006042481,6|0,1:2|0:0,0:0:0:0:
463,89,161255,1,0,1:0:0:0:
337,164,161377,2,0,P|300:119|291:73,1,99.0000030212403,8|0,0:0|0:0,0:0:0:0:
461,224,161621,5,0,1:0:0:0:
400,277,161743,2,0,P|379:337|369:374,1,99.0000030212403,8|0,0:0|0:0,0:0:0:0:
163,219,161987,5,8,0:0:0:0:
176,233,162109,2,0,P|190:267|204:333,1,99.0000030212403,0|0,1:0|0:0,0:0:0:0:
147,381,162353,2,0,B|156:224|234:269|256:107,1,297.000009063721,10|0,0:0|0:0,0:0:0:0:
169,37,162841,5,2,1:2:0:0:
137,47,162963,1,0,1:0:0:0:
291,80,163085,1,0,1:0:0:0:
323,70,163207,1,0,1:0:0:0:
196,166,163329,2,0,P|179:206|166:261,1,99.0000030212403,8|0,0:0|0:0,0:0:0:0:
293,370,163572,5,0,1:0:0:0:
436,319,163694,2,0,B|349:338|337:256|246:293,1,198.000006042481,8|8,0:0|0:0,0:0:0:0:
175,344,164060,1,0,1:0:0:0:
175,344,164304,6,0,P|146:283|22:285,1,198.000006042481,10|4,0:0|3:0,0:0:0:0:
0,349,164670,1,8,3:0:0:0:
106,222,164792,6,0,P|92:154|87:114,1,99.0000030212403,2|0,1:2|0:0,0:0:0:0:
167,110,165036,2,0,P|181:178|186:218,1,99.0000030212403,0|0,1:2|0:0,0:0:0:0:
91,338,165280,2,0,B|198:294|201:364|305:330,1,198.000006042481,10|0,0:0|1:0,0:0:0:0:
397,269,165646,1,8,0:0:0:0:
283,240,165768,2,0,P|341:266|382:290,2,99.0000030212403,2|8|0,1:2|0:0|1:0,0:0:0:0:
19,116,166255,2,0,B|181:51|150:202|316:139,1,297.000009063721,10|0,0:0|0:0,0:0:0:0:
364,94,166743,6,0,P|380:36|398:-8,1,99.0000030212403,2|0,1:2|0:0,0:0:0:0:
232,192,166987,1,0,1:0:0:0:
247,235,167109,1,0,1:0:0:0:
187,125,167231,2,0,P|144:110|81:96,1,99.0000030212403,8|0,0:0|0:0,0:0:0:0:
9,273,167475,5,2,1:2:0:0:
104,295,167597,2,0,P|94:247|76:201,1,99.0000030212403,8|0,0:0|0:0,0:0:0:0:
231,17,167841,5,8,0:0:0:0:
219,32,167963,2,0,P|194:86|186:133,1,99.0000030212403,0|0,1:0|0:0,0:0:0:0:
285,261,168207,1,8,0:0:0:0:
358,290,168329,1,8,1:3:0:0:
394,221,168450,1,4,1:3:0:0:
394,221,168694,6,0,B|295:261|347:328|252:366,1,198.000006042481,4|0,1:2|0:0,0:0:0:0:
231,344,169060,1,0,1:0:0:0:
113,365,169182,2,0,P|169:342|198:322,1,90,10|0,0:0|0:0,0:0:0:0:
230,200,169426,1,0,1:0:0:0:
233,162,169548,1,0,1:0:0:0:
194,234,169670,2,0,P|148:220|98:210,2,90,2|8|0,1:2|0:0|1:0,0:0:0:0:
332,120,170158,5,10,0:0:0:0:
338,51,170279,1,0,1:0:0:0:
298,18,170401,1,0,1:0:0:0:
257,20,170523,1,0,1:0:0:0:
232,37,170646,6,0,P|183:60|130:68,1,90,2|0,1:2|0:0,0:0:0:0:
21,13,170889,1,0,1:0:0:0:
33,41,171011,1,0,1:0:0:0:
11,162,171133,2,0,P|22:104|39:72,1,90,8|0,0:0|0:0,0:0:0:0:
194,242,171377,5,2,1:2:0:0:
136,186,171499,2,0,P|102:197|60:243,1,90,8|0,0:0|0:0,0:0:0:0:
166,356,171743,5,8,0:0:0:0:
180,345,171865,2,0,P|218:332|276:317,1,90,0|0,1:0|0:0,0:0:0:0:
394,259,172109,6,0,P|423:272|454:281,2,60,10|2|2,0:0|0:0|0:0,0:0:0:0:
318,165,172353,2,0,P|289:173|262:186,2,60,2|2|2,1:2|0:0|0:0,0:0:0:0:
412,40,172597,6,0,B|279:58|339:209|170:248,1,310.500005922318,6|0,1:2|1:0,0:0:0:0:
49,132,173085,2,0,P|96:151|136:186,1,103.500001974106,8|0,0:0|0:0,0:0:0:0:
211,368,173329,5,0,1:0:0:0:
56,352,173450,2,0,P|121:328|170:305,1,103.500001974106,8|0,0:0|0:0,0:0:0:0:
262,185,173694,5,8,0:0:0:0:
275,196,173816,2,0,P|322:208|398:232,1,103.500001974106,0|0,1:0|0:0,0:0:0:0:
390,355,174060,5,10,0:0:0:0:
467,321,174181,1,2,0:0:0:0:
501,244,174303,1,2,0:0:0:0:
473,165,174425,1,2,0:0:0:0:
400,48,174548,6,0,P|380:82|385:146,1,103.500001974106,6|2,1:2|0:0,0:0:0:0:
473,165,174792,2,0,P|493:131|488:67,1,103.500001974106,2|2,0:0|0:0,0:0:0:0:
296,12,175036,1,10,0:0:0:0:
253,82,175158,1,2,0:0:0:0:
174,54,175280,1,2,0:0:0:0:
132,125,175402,1,2,0:0:0:0:
52,101,175524,5,2,1:2:0:0:
12,132,175645,1,2,0:0:0:0:
0,181,175767,1,2,0:0:0:0:
8,230,175889,1,2,0:0:0:0:
182,311,176011,5,10,0:0:0:0:
175,260,176132,1,2,0:0:0:0:
141,221,176254,1,2,0:0:0:0:
92,208,176376,1,2,0:0:0:0:
20,359,176499,6,0,P|70:343|95:299,1,103.500001974106,6|2,1:2|0:0,0:0:0:0:
175,260,176743,2,0,P|186:208|160:165,1,103.500001974106,2|2,0:0|0:0,0:0:0:0:
24,12,176987,5,10,0:0:0:0:
29,31,177109,1,2,0:0:0:0:
35,50,177231,1,2,0:0:0:0:
40,69,177353,1,2,0:0:0:0:
122,96,177475,5,2,1:2:0:0:
170,26,177596,1,2,0:0:0:0:
252,5,177718,1,2,0:0:0:0:
328,40,177840,1,2,0:0:0:0:
404,112,177963,5,10,0:0:0:0:
360,141,178084,1,2,0:0:0:0:
347,192,178206,1,2,0:0:0:0:
369,239,178328,1,2,0:0:0:0:
468,282,178450,6,0,B|301:250|334:377|157:343,1,310.500005922318,6|0,1:2|0:0,0:0:0:0:
119,274,178938,6,0,B|176:214|189:92|62:83|38:153|72:202,1,270,10|0,0:0|0:0,0:0:0:0:
54,194,179426,6,0,P|103:205|137:218,1,76.5000014591217,8|0,1:3|0:0,0:0:0:0:
216,89,179670,2,0,P|230:136|236:172,1,76.5000014591217,4|0,1:3|0:0,0:0:0:0:
308,367,179914,6,0,P|324:274|350:182,1,180,8|4,0:0|0:0,0:0:0:0:
417,17,180889,1,2,0:0:0:0:
491,65,181255,5,2,0:0:0:0:
372,100,181499,1,2,0:0:0:0:
372,100,181621,1,2,0:0:0:0:
261,23,181865,1,2,0:0:0:0:
251,33,182109,2,0,P|246:54|235:79,1,45,0|0,3:0|3:0,0:0:0:0:
166,126,182353,6,0,B|135:219|195:212|167:306,1,180,2|2,0:0|0:0,0:0:0:0:
83,350,183085,1,2,0:0:0:0:
83,350,183207,1,2,0:0:0:0:
15,287,183450,1,2,0:0:0:0:
15,287,183572,1,2,0:0:0:0:
48,205,183816,2,0,P|97:197|141:180,1,90,2|0,0:0|3:0,0:0:0:0:
252,20,184304,6,0,B|317:31|300:130|363:155,1,180,2|2,0:0|0:0,0:0:0:0:
436,109,185158,5,2,0:0:0:0:
387,243,185402,1,2,0:0:0:0:
387,243,185524,1,2,0:0:0:0:
243,190,185768,1,2,0:0:0:0:
250,202,186011,2,0,P|247:226|240:249,1,45,0|0,3:0|3:0,0:0:0:0:
179,304,186255,6,0,P|119:318|55:363,2,121.500000463486,2|2|2,0:0|0:0|0:0,0:0:0:0:
279,370,186987,2,0,B|254:289|175:285|150:157,1,243.000000926971,2|2,0:0|0:0,0:0:0:0:
240,10,187719,2,0,P|250:66|208:112,1,121.500000463486,2|0,0:0|3:0,0:0:0:0:
39,193,188207,6,0,B|132:166|130:249|222:227,1,180,2|2,0:0|0:0,0:0:0:0:
286,171,189060,5,2,0:0:0:0:
258,308,189304,1,2,0:0:0:0:
258,308,189426,1,2,0:0:0:0:
364,376,189670,2,0,P|382:297|387:267,1,90,2|0,0:0|3:0,0:0:0:0:
470,69,190158,6,0,B|387:71|433:191|351:206,1,180,2|2,0:0|0:0,0:0:0:0:
286,171,190889,1,2,0:0:0:0:
286,171,191011,1,2,0:0:0:0:
212,237,191255,1,2,0:0:0:0:
212,237,191377,1,2,0:0:0:0:
122,196,191621,2,0,P|137:133|141:106,1,90,2|0,0:0|3:0,0:0:0:0:
93,350,192109,6,0,B|84:266|24:283|16:187,1,180,2|2,0:0|0:0,0:0:0:0:
0,109,192963,5,2,0:0:0:0:
104,192,193207,1,2,0:0:0:0:
104,192,193329,1,2,0:0:0:0:
181,91,193572,2,0,P|221:71|272:76,1,90,2|0,0:0|3:0,0:0:0:0:
442,282,194060,6,0,P|397:268|379:240,1,80.9999975280763,6|0,1:2|0:0,0:0:0:0:
376,8,194304,2,0,P|386:53|371:83,1,80.9999975280763,2|0,1:2|0:0,0:0:0:0:
186,205,194548,2,0,P|220:173|253:171,1,80.9999975280763,10|0,0:0|0:0,0:0:0:0:
493,215,194792,6,0,B|416:177|352:255|391:283|333:360|251:332,1,283.499991348267,6|8,1:2|1:3,0:0:0:0:
158,304,195280,2,0,P|208:313|268:338,1,94.499997116089,4|4,1:3|1:3,0:0:0:0:
421,178,195524,5,8,0:1:0:0:
434,101,195645,1,8,0:0:0:0:
380,47,195767,1,10,0:0:0:0:
304,60,195889,1,10,0:0:0:0:
237,146,196011,6,0,P|202:166|136:168,1,94.499997116089,6|0,1:2|0:0,0:0:0:0:
59,82,196255,1,2,0:0:0:0:
73,38,196377,1,2,0:0:0:0:
24,114,196499,2,0,P|46:170|53:211,1,94.499997116089,8|0,0:0|0:0,0:0:0:0:
142,366,196743,5,2,1:2:0:0:
92,299,196865,2,0,P|47:285|0:281,1,94.499997116089,8|2,0:0|0:0,0:0:0:0:
273,238,197109,5,8,0:0:0:0:
262,253,197231,2,0,P|219:267|174:292,1,94.499997116089,2|2,1:2|0:0,0:0:0:0:
134,206,197475,2,0,P|177:192|222:167,1,94.499997116089,8|0,0:0|0:0,0:0:0:0:
299,55,197719,1,2,0:0:0:0:
308,14,197841,1,2,0:0:0:0:
384,135,197963,6,0,P|342:94|308:73,1,94.499997116089,6|0,1:2|0:0,0:0:0:0:
161,15,198207,1,2,0:0:0:0:
120,31,198329,1,2,0:0:0:0:
201,38,198450,2,0,P|236:49|297:76,1,94.499997116089,8|0,0:0|0:0,0:0:0:0:
359,226,198694,5,2,1:2:0:0:
456,171,198816,2,0,P|415:182|367:211,1,94.499997116089,8|0,0:0|0:0,0:0:0:0:
287,366,199060,5,8,0:0:0:0:
275,357,199182,2,0,P|213:330|185:321,1,94.499997116089,0|0,1:0|0:0,0:0:0:0:
47,213,199426,5,8,0:0:0:0:
16,292,199548,1,8,0:0:0:0:
85,341,199670,2,0,P|153:316|179:309,1,94.499997116089,2|0,1:2|0:0,0:0:0:0:
359,226,199914,6,0,P|309:210|263:192,1,94.499997116089,6|0,1:2|0:0,0:0:0:0:
196,104,200158,1,2,0:0:0:0:
188,58,200280,1,2,0:0:0:0:
170,141,200402,2,0,P|163:169|135:233,1,94.499997116089,8|0,0:0|0:0,0:0:0:0:
274,19,200646,5,2,1:2:0:0:
345,72,200768,2,0,P|411:47|440:29,1,94.499997116089,10|0,0:0|0:0,0:0:0:0:
269,194,201011,5,8,0:0:0:0:
292,230,201133,2,0,P|317:241|377:276,1,94.499997116089,2|0,1:2|0:0,0:0:0:0:
496,144,201377,2,0,P|459:200|437:229,1,94.499997116089,10|0,0:0|0:0,0:0:0:0:
320,364,201621,1,2,0:0:0:0:
281,344,201743,1,2,0:0:0:0:
202,377,201865,6,0,P|185:319|167:282,1,94.499997116089,6|0,1:2|0:0,0:0:0:0:
442,221,202109,2,0,P|400:264|377:298,1,94.499997116089,2|0,1:2|0:0,0:0:0:0:
191,96,202353,2,0,P|249:110|290:113,1,94.499997116089,10|0,0:2|0:0,0:0:0:0:
463,340,202597,6,0,P|356:213|206:226,1,310.500005922318,6|8,1:2|0:0,0:0:0:0:
170,288,203085,2,0,P|150:309|97:321,1,76.5000014591217,2|0,1:2|0:0,0:0:0:0:
0,148,203329,5,14,0:0:0:0:
80,170,203450,1,8,0:0:0:0:
126,100,203572,1,10,0:0:0:0:
207,120,203694,1,10,0:0:0:0:
258,53,203816,6,0,P|304:27|373:8,1,94.499997116089,6|0,1:2|0:0,0:0:0:0:
457,139,204060,1,2,0:0:0:0:
445,182,204182,1,2,0:0:0:0:
489,109,204304,2,0,P|468:59|447:23,1,94.499997116089,8|0,0:0|0:0,0:0:0:0:
297,168,204548,5,2,1:2:0:0:
347,238,204670,2,0,P|330:285|316:335,1,94.499997116089,10|2,0:0|0:0,0:0:0:0:
146,372,204914,5,8,0:0:0:0:
157,360,205036,2,0,P|149:317|130:256,1,94.499997116089,2|2,1:2|0:0,0:0:0:0:
207,89,205280,2,0,P|193:134|184:180,1,94.499997116089,8|0,0:0|0:0,0:0:0:0:
38,175,205524,1,2,0:0:0:0:
1,160,205646,1,2,0:0:0:0:
69,209,205768,6,0,P|141:181|174:172,1,94.499997116089,6|0,1:2|0:0,0:0:0:0:
304,50,206011,1,2,0:0:0:0:
353,66,206133,1,2,0:0:0:0:
456,11,206255,2,0,P|403:30|367:51,1,94.499997116089,8|0,0:0|0:0,0:0:0:0:
325,245,206499,5,2,1:2:0:0:
396,214,206621,2,0,P|427:177|441:122,1,94.499997116089,10|0,0:0|0:0,0:0:0:0:
229,334,206865,5,8,0:0:0:0:
211,318,206987,2,0,P|161:297|113:285,1,94.499997116089,0|0,1:0|0:0,0:0:0:0:
305,384,207231,5,10,0:0:0:0:
381,361,207352,1,2,0:0:0:0:
419,290,207474,1,2,0:0:0:0:
396,214,207596,1,2,0:0:0:0:
260,134,207719,6,0,P|266:167|309:218,1,94.499997116089,6|0,1:2|0:0,0:0:0:0:
440,133,207963,2,0,P|434:100|391:49,1,94.499997116089,0|0,1:2|0:0,0:0:0:0:
163,186,208207,2,0,P|225:164|254:147,1,94.499997116089,8|0,0:0|0:0,0:0:0:0:
295,41,208450,1,2,1:2:0:0:
217,5,208572,5,10,0:0:0:0:
185,27,208694,1,2,1:2:0:0:
104,9,208816,1,8,0:0:0:0:
77,30,208938,2,0,P|57:68|41:125,1,94.499997116089,0|0,1:0|0:0,0:0:0:0:
0,202,209182,1,10,0:0:0:0:
10,277,209303,1,2,0:0:0:0:
74,320,209425,1,2,0:0:0:0:
148,301,209547,1,2,0:0:0:0:
215,223,209670,6,0,B|283:174|359:229|323:290|385:362|470:323,1,310.500005922318,6|0,1:2|1:0,0:0:0:0:
463,170,210158,2,0,P|442:188|429:264,1,94.499997116089,8|0,0:0|0:0,0:0:0:0:
237,379,210402,5,0,1:0:0:0:
297,326,210524,2,0,P|313:262|317:227,1,94.499997116089,8|0,0:0|0:0,0:0:0:0:
279,48,210768,5,8,0:0:0:0:
295,68,210889,2,0,P|336:80|403:110,1,94.499997116089,0|0,1:0|0:0,0:0:0:0:
190,10,211133,2,0,B|100:25|127:226|31:258,1,283.499991348267,10|0,0:0|0:0,0:0:0:0:
0,321,211621,6,0,P|27:165|29:110,1,188.999994232178,6|0,1:2|0:0,0:0:0:0:
398,5,212109,2,0,P|371:161|369:216,1,188.999994232178,10|0,0:0|0:0,0:0:0:0:
187,358,212597,5,2,1:2:0:0:
170,318,212719,1,0,3:0:0:0:
237,275,212841,1,0,3:0:0:0:
254,235,212963,1,0,3:0:0:0:
190,166,213085,6,0,B|338:182|275:300|410:333,1,283.499991348267,10|0,0:0|0:0,0:0:0:0:
463,279,213572,6,0,B|526:242|490:112|264:159|357:344|232:370,1,405.000015449525,4|0,0:0|0:0,0:0:0:0:
170,318,214548,6,0,B|117:254|174:189|213:223|262:142|207:84,1,270,4|0,0:0|0:0,0:0:0:0:
81,14,215524,6,0,P|106:46|132:59,1,67.5000025749208,6|0,1:2|0:0,0:0:0:0:
216,234,215768,2,0,P|231:196|229:167,1,67.5000025749208,2|0,1:2|0:0,0:0:0:0:
334,14,216011,2,0,P|293:19|269:35,1,67.5000025749208,10|0,0:0|0:0,0:0:0:0:
51,202,216255,5,2,1:2:0:0:
109,157,216377,2,0,B|178:165|156:210|229:240,1,135.000005149842,10|8,0:0|0:0,0:0:0:0:
282,280,216743,2,0,P|319:261|353:248,1,67.5000025749208,2|0,1:2|0:0,0:0:0:0:
487,318,216987,2,0,P|455:305|425:289,1,67.5000025749208,8|0,0:0|0:0,0:0:0:0:
417,201,217231,1,2,0:0:0:0:
426,176,217353,1,2,0:0:0:0:
393,90,217475,6,0,P|408:129|416:158,1,67.5000025749208,2|0,1:2|0:0,0:0:0:0:
215,233,217719,2,0,P|200:194|192:165,1,67.5000025749208,2|0,1:2|0:0,0:0:0:0:
429,307,217963,2,0,P|402:339|381:360,1,67.5000025749208,10|0,0:0|0:0,0:0:0:0:
279,309,218207,5,2,1:2:0:0:
217,355,218329,2,0,P|178:339|141:333,1,67.5000025749208,8|0,0:0|0:0,0:0:0:0:
5,273,218572,5,8,0:0:0:0:
37,250,218694,2,0,P|50:214|52:185,1,67.5000025749208,0|0,1:0|0:0,0:0:0:0:
6,19,218938,2,0,P|8:52|21:83,1,67.5000025749208,8|0,0:0|0:0,0:0:0:0:
131,108,219182,1,2,0:0:0:0:
177,76,219304,1,2,0:0:0:0:
243,145,219426,6,0,B|336:154|385:2|487:34,1,270,6|0,1:2|0:0,0:0:0:0:
512,109,219914,6,0,P|483:92|270:18,1,242.999992584229,10|0,0:0|0:0,0:0:0:0:
214,17,220402,6,0,B|278:56|268:121|258:167|220:221,1,216,2|0,1:2|0:0,0:0:0:0:
163,271,220889,5,10,0:0:0:0:
122,256,221011,1,8,0:0:0:0:
81,241,221133,1,8,0:0:0:0:
40,227,221255,1,8,0:0:0:0:
4,150,221377,6,0,P|16:106|21:75,1,72,6|0,1:2|0:0,0:0:0:0:
246,295,221640,2,0,P|234:339|229:370,1,72,2|0,1:2|0:0,0:0:0:0:
146,142,221903,1,2,1:2:0:0:
146,142,222166,6,0,B|164:174|195:185|195:185|164:205|152:241|157:273|157:273|192:281|225:267|247:242|247:242|257:276|286:299|318:305|318:305|337:274|335:237|317:209|317:209|353:210|384:190|397:161|397:161|374:134|339:124|307:132|307:132|318:100|309:64|285:41|285:41|253:56|231:86|230:119|230:119|201:96|162:95|131:113,1,965.700023576661,4|0,0:0|0:0,0:0:0:0:
