osu file format v14

[General]
AudioFilename: audio.mp3
AudioLeadIn: 0
PreviewTime:41839
Countdown: 0
SampleSet: Soft
StackLeniency: 0.4
Mode: 0
LetterboxInBreaks: 0
WidescreenStoryboard: 1

[Editor]
DistanceSpacing: 0.8
BeatDivisor: 4
GridSize: 16
TimelineZoom: 1.6

[Metadata]
Title:Cocoiro Rainbow (TV Size)
TitleUnicode:Cocoiro Rainbow (TV Size)
Artist:Narumi Kyoko
ArtistUnicode:鳴海杏子
Creator:Fuiba Fuyu
Version:M i X's Insane
Source:ヤマノススメ
Tags:yama no susume encouragement of climb 2nd second season 2 two ending ed japanese anime pop jpop j-pop climbx3145 kazuma tycani m_i_x mix
BeatmapID:3146128
BeatmapSetID:1428874

[Difficulty]
HPDrainRate:6
CircleSize:4
OverallDifficulty:8
ApproachRate:8.7
SliderMultiplier:1.7
SliderTickRate:1

[Events]
//Background and Video events
0,0,"yama no susume 8-2.jpg",0,0
//Break Periods
//Storyboard Layer 0 (Background)
//Storyboard Layer 1 (Fail)
//Storyboard Layer 2 (Pass)
//Storyboard Layer 3 (Foreground)
//Storyboard Layer 4 (Overlay)
//Storyboard Sound Samples

[TimingPoints]
498,487.80487804878,4,2,1,60,1,0
986,487.80487804878,4,2,1,60,1,0
16595,-71.4285714285714,4,2,1,80,0,0
25864,-303.030303030303,4,2,1,80,0,0
26229,-100,4,2,1,5,0,0
26351,-100,4,2,1,55,0,0
41961,-100,4,2,1,65,0,0
45742,-100,4,2,1,5,0,0
45864,-100,4,2,1,65,0,0
51595,-100,4,2,1,5,0,0
51717,-100,4,2,1,65,0,0
53546,-100,4,2,1,5,0,0
53668,-100,4,2,1,65,0,0
55498,-100,4,2,1,5,0,0
55620,-90.9090909090909,4,2,1,65,0,0
57571,-76.9230769230769,4,2,1,70,0,0
57815,-68.9655172413793,4,2,1,70,0,0
58059,-62.5,4,2,1,75,0,0
58303,-57.1428571428571,4,2,1,75,0,0
58546,-50,4,2,1,90,0,0
59278,-50,4,2,1,80,0,0
59522,-62.5,4,2,1,80,0,1
65376,-62.5,4,2,1,80,0,0
67327,-62.5,4,2,1,80,0,1
73181,-62.5,4,2,1,80,0,0
75132,-62.5,4,2,1,80,0,1
80985,-62.5,4,2,1,80,0,0
82937,-62.5,4,2,1,80,0,1
88303,-62.5,4,2,1,80,0,0
88790,-55.5555555555556,4,2,1,80,0,1
90010,-62.5,4,2,1,80,0,0
90864,-62.5,4,2,1,70,0,0
91717,-62.5,4,2,1,60,0,0
92693,-62.5,4,2,1,50,0,0
93668,-62.5,4,2,1,40,0,0
94644,-62.5,4,2,1,30,0,0
95620,-62.5,4,2,1,20,0,0
96595,-62.5,4,2,1,10,0,0
97571,-62.5,4,2,1,5,0,0

[Colours]
Combo1 : 187,11,206
Combo2 : 0,157,106
Combo3 : 255,128,64
Combo4 : 206,0,0
Combo5 : 230,145,51
Combo6 : 224,236,0
Combo7 : 0,210,0
Combo8 : 78,60,240

[HitObjects]
82,328,741,5,0,0:0:0:0:
82,328,863,1,0,0:0:0:0:
82,328,986,2,0,P|107:289|155:292,1,85,2|2,0:0|0:0,0:0:0:0:
142,286,1351,1,0,0:0:0:0:
269,383,1717,1,2,0:0:0:0:
269,383,1839,1,0,0:0:0:0:
269,383,1961,2,0,P|225:371|175:363,1,85,0|2,0:0|0:0,0:0:0:0:
186,364,2327,1,0,0:0:0:0:
227,248,2693,6,0,P|242:207|247:179,1,42.5,2|0,0:0|0:0,0:0:0:0:
186,150,2937,2,0,P|171:103|160:53,1,85,2|2,0:0|0:0,0:0:0:0:
221,10,3303,1,0,0:0:0:0:
316,172,3668,1,2,0:0:0:0:
316,172,3790,2,0,P|359:149|439:127,1,127.5,0|2,0:0|0:0,0:0:0:0:
477,4,4400,1,2,0:0:0:0:
341,27,4644,1,2,0:0:0:0:
478,200,4888,102,0,P|449:243|397:280,1,85,2|2,0:0|0:0,0:0:0:0:
424,264,5254,1,0,0:0:0:0:
424,264,5376,1,2,0:0:0:0:
306,384,5620,1,2,0:0:0:0:
374,353,5742,2,0,P|362:324|296:320,1,85
240,272,6107,2,0,P|227:233|222:201,1,42.5,2|0,0:0|0:0,0:0:0:0:
171,296,6351,2,0,P|158:257|153:225,1,42.5,2|0,0:0|0:0,0:0:0:0:
166,179,6595,1,2,0:0:0:0:
102,360,6839,6,0,P|143:370|184:384,2,85,2|2|2,0:0|0:0|0:0,0:0:0:0:
22,331,7571,2,0,P|38:255|113:291,1,170,2|0,0:0|0:0,0:0:0:0:
97,166,8303,2,0,P|112:118|120:75,1,85,2|0,0:0|0:0,0:0:0:0:
118,83,8668,1,0,0:0:0:0:
118,83,8790,101,2,0:0:0:0:
230,211,9156,1,0,0:0:0:0:
243,90,9522,1,2,0:0:0:0:
243,90,9644,1,0,0:0:0:0:
243,90,9766,2,0,P|228:42|220:-1,2,85,0|2|2,0:0|0:0|0:0,0:0:0:0:
333,161,10498,5,2,0:0:0:0:
333,161,10620,1,0,0:0:0:0:
333,161,10742,2,0,P|318:211|311:254,1,85,2|2,0:0|0:0,0:0:0:0:
239,275,11107,2,0,P|303:280|317:353,1,127.5,0|2,0:0|0:0,0:0:0:0:
395,375,11595,2,0,P|446:358|489:343,1,85
475,347,11961,1,2,0:0:0:0:
396,221,12205,1,2,0:0:0:0:
445,66,12449,1,2,0:0:0:0:
471,143,12693,102,0,B|391:172|361:100|380:93|335:12|256:55,1,255,2|2,0:0|0:0,0:0:0:0:
288,128,13546,1,0,0:0:0:0:
288,128,13668,2,0,P|349:111|454:61,2,170,2|2|6,0:0|0:0|1:2,0:0:0:0:
41,72,15620,5,8,3:0:0:0:
41,72,15742,1,8,3:0:0:0:
241,129,15985,1,8,3:0:0:0:
172,162,16107,1,8,0:0:0:0:
167,180,16229,1,8,3:0:0:0:
162,198,16351,1,4,3:0:0:0:
157,216,16473,1,4,3:0:0:0:
152,233,16595,102,0,P|108:217|66:207,1,59.4999981842042,6|0,1:2|0:0,0:0:0:0:
170,309,16839,2,0,P|210:293|205:270,1,59.4999981842042,2|0,0:0|0:0,0:0:0:0:
93,293,17083,1,10,0:0:0:0:
306,371,17327,1,2,1:2:0:0:
301,353,17449,1,8,0:0:0:0:
296,335,17571,1,0,1:0:0:0:
291,317,17693,1,8,0:0:0:0:
334,252,17815,2,0,P|344:184|355:122,1,118.999996368408,2|10,1:2|0:0,0:0:0:0:
475,52,18303,21,2,1:2:0:0:
471,34,18425,1,8,0:0:0:0:
467,16,18546,1,2,1:2:0:0:
490,130,18790,1,2,0:0:0:0:
291,0,19034,2,0,P|303:41|307:73,1,59.4999981842042,10|0,0:0|0:0,0:0:0:0:
226,112,19278,1,2,1:2:0:0:
226,112,19400,2,0,P|183:92|144:82,1,59.4999981842042,8|0,0:0|1:0,0:0:0:0:
99,36,19644,1,8,0:0:0:0:
99,36,19766,2,0,P|52:39|20:48,1,59.4999981842042,0|0,1:0|0:0,0:0:0:0:
180,2,20010,1,8,0:0:0:0:
137,195,20254,53,2,0:0:0:0:
130,179,20376,1,2,0:0:0:0:
121,164,20498,1,2,1:2:0:0:
159,284,20742,1,0,0:0:0:0:
13,372,20985,1,8,0:0:0:0:
14,274,21229,2,0,P|59:286|121:317,1,59.4999981842042,2|8,1:2|0:0,0:0:0:0:
106,367,21473,1,0,1:0:0:0:
121,375,21595,1,8,0:0:0:0:
136,384,21717,2,0,P|189:364|266:348,1,118.999996368408,2|10,1:2|0:0,0:0:0:0:
389,197,22205,21,8,0:0:0:0:
413,213,22327,1,8,0:0:0:0:
440,223,22449,1,6,1:2:0:0:
461,127,22693,1,2,0:0:0:0:
257,264,22937,2,0,P|289:252|319:250,1,59.4999981842042,8|0,0:0|0:0,0:0:0:0:
304,150,23181,1,2,1:2:0:0:
310,133,23303,1,8,0:0:0:0:
319,117,23425,2,0,P|339:75|357:47,1,59.4999981842042,0|8,1:0|0:0,0:0:0:0:
210,29,23668,2,0,P|223:63|230:99,1,59.4999981842042,0|0,1:0|1:0,0:0:0:0:
158,137,23912,2,0,P|132:122|105:109,1,59.4999981842042,8|8,0:0|0:0,0:0:0:0:
0,20,24156,5,8,0:0:0:0:
17,35,24278,1,8,0:0:0:0:
30,53,24400,1,6,1:2:0:0:
11,255,25864,6,0,P|22:274|26:296,1,42.0749998715973,12|0,3:0|0:0,0:0:0:0:
0,247,26351,54,0,P|31:207|78:208,1,85,6|2,1:2|0:0,0:0:0:0:
112,308,26839,2,0,P|144:303|199:300,1,85,2|0,3:2|0:0,0:0:0:0:
205,290,27205,2,0,P|237:295|300:301,1,85,2|0,0:0|0:0,0:0:0:0:
298,308,27571,1,2,3:2:0:0:
394,342,27815,1,2,0:0:0:0:
467,235,28059,6,0,P|455:204|441:188,1,42.5,2|2,0:0|0:0,0:0:0:0:
437,200,28303,2,0,B|440:294|490:254|487:364,1,170,0|0,1:0|3:0,0:0:0:0:
348,219,29034,1,0,0:0:0:0:
348,219,29156,2,0,P|334:157|315:119,1,85
313,131,29522,1,2,3:2:0:0:
436,0,29766,2,0,P|419:42|408:87,1,85,2|2,0:0|0:0,0:0:0:0:
417,95,30132,5,2,0:0:0:0:
417,95,30254,2,0,P|396:38|320:47,1,127.5,0|0,1:0|0:0,0:0:0:0:
331,45,30742,1,2,3:2:0:0:
202,25,30985,1,2,0:0:0:0:
202,25,31107,2,0,P|142:46|99:54,1,85,2|0,0:0|0:0,0:0:0:0:
113,60,31473,1,2,3:2:0:0:
17,39,31717,1,2,0:0:0:0:
93,164,31961,86,0,P|85:184|69:207,1,42.5,2|2,0:0|0:0,0:0:0:0:
63,209,32205,2,0,B|65:104|15:144|12:50,1,170,0|0,1:0|3:0,0:0:0:0:
179,140,32937,1,0,0:0:0:0:
179,140,33059,1,0,0:0:0:0:
172,288,33303,1,0,0:0:0:0:
172,288,33425,2,0,P|218:268|251:258,1,85,2|2,3:2|0:0,0:0:0:0:
413,375,33912,5,8,3:0:0:0:
336,367,34156,1,0,1:0:0:0:
260,357,34400,1,2,0:0:0:0:
43,289,34644,2,0,P|38:329|70:355,1,85,2|2,3:2|0:0,0:0:0:0:
82,352,35010,1,2,0:0:0:0:
145,274,35376,1,2,3:2:0:0:
57,185,35620,2,0,P|32:133|26:93,1,85,2|2,3:2|3:2,0:0:0:0:
200,0,36107,6,0,B|197:93|141:69|152:169,1,170,0|0,1:0|3:0,0:0:0:0:
145,274,36839,1,0,0:0:0:0:
145,274,36961,2,0,P|127:245|122:225,2,42.5
145,274,37327,1,2,3:2:0:0:
239,227,37571,1,2,0:0:0:0:
312,320,37815,86,0,P|374:303|386:301,1,42.5,8|8,3:0|3:0,0:0:0:0:
364,311,38059,2,0,P|400:261|438:224,1,85,0|2,1:0|0:0,0:0:0:0:
411,132,38546,1,2,3:2:0:0:
308,165,38790,1,2,0:0:0:0:
308,165,38912,2,0,P|296:100|277:39,1,127.5,2|2,0:0|1:2,0:0:0:0:
391,29,39522,1,2,3:2:0:0:
509,63,39766,6,0,P|503:30|493:4,1,42.5,2|0,0:0|0:0,0:0:0:0:
493,10,40010,2,0,B|490:103|434:79|445:179,1,170,0|0,1:0|0:0,0:0:0:0:
362,325,40742,1,0,0:0:0:0:
362,325,40864,1,0,0:0:0:0:
447,343,41107,1,0,0:0:0:0:
447,343,41229,1,0,3:0:0:0:
281,306,41473,1,0,1:0:0:0:
204,290,41717,1,0,1:0:0:0:
257,375,41961,38,0,B|274:281|205:315|214:214,1,170,6|0,1:2|0:0,0:0:0:0:
192,122,42693,2,0,P|108:149|142:222,1,170,2|2,0:0|0:0,0:0:0:0:
282,158,43425,1,2,0:0:0:0:
292,58,43668,2,0,P|328:79|368:95,2,85,2|0|0,0:0|1:0|0:0,0:0:0:0:
376,0,44400,1,2,0:0:0:0:
361,113,44644,1,2,0:0:0:0:
437,100,44888,1,0,0:0:0:0:
511,87,45132,1,0,0:0:0:0:
364,203,45376,2,0,P|312:181|265:171,1,85,2|0,1:2|0:0,0:0:0:0:
214,218,45864,101,2,1:2:0:0:
348,298,46107,2,0,B|442:315|408:246|509:255,1,170,2|2,0:0|0:0,0:0:0:0:
450,177,46839,1,2,1:2:0:0:
512,265,47083,2,0,P|495:307|483:368,1,85,2|2,0:0|0:0,0:0:0:0:
394,384,47571,1,2,0:0:0:0:
364,293,47815,2,0,P|289:285|318:363,1,170,2|2,1:2|0:0,0:0:0:0:
210,261,48546,37,2,0:0:0:0:
210,261,48668,1,2,0:0:0:0:
210,261,48790,1,2,0:0:0:0:
122,285,49034,1,8,3:0:0:0:
91,364,49278,1,4,3:0:0:0:
186,344,49522,1,4,3:0:0:0:
30,286,49766,86,0,B|13:192|82:226|73:125,1,170,6|0,1:2|0:0,0:0:0:0:
173,137,50498,2,0,B|208:228|132:214|174:300,1,170,0|2,1:0|0:0,0:0:0:0:
304,311,51229,2,0,P|290:271|220:277,1,85,10|0,0:0|0:0,0:0:0:0:
281,165,51717,2,0,P|316:83|360:14,1,170,2|2,1:2|0:0,0:0:0:0:
226,59,52449,2,0,P|181:46|140:37,1,85,2|0,1:2|0:0,0:0:0:0:
17,24,52937,1,2,0:0:0:0:
2,131,53181,2,0,P|40:111|85:94,1,85,10|0,0:0|0:0,0:0:0:0:
163,203,53668,101,2,1:2:0:0:
232,278,53912,2,0,P|246:220|265:177,1,85,2|0,0:0|0:0,0:0:0:0:
388,349,54400,2,0,P|367:303|357:267,1,85,2|0,1:2|0:0,0:0:0:0:
414,153,54888,2,0,P|446:181|474:214,1,85,2|12,0:0|3:0,0:0:0:0:
303,82,55376,1,0,0:0:0:0:
457,11,55620,102,0,B|347:11|412:78|290:74,2,187.000005706787,6|2|2,1:2|1:2|1:2,0:0:0:0:
418,142,56839,1,0,0:0:0:0:
503,95,57083,2,0,B|449:110|489:133|421:151,1,93.5000028533936,2|0,1:3|0:0,0:0:0:0:
408,234,57449,1,0,0:0:0:0:
408,234,57571,2,0,P|377:236|348:244,1,55.2499974708558,2|0,1:2|0:0,0:0:0:0:
278,288,57815,2,0,P|238:268|209:263,1,61.6250018806458,2|0,1:2|0:0,0:0:0:0:
121,254,58059,2,0,P|101:202|83:186,1,68,2|0,1:2|0:0,0:0:0:0:
28,130,58303,2,0,P|59:84|64:60,1,74.3750007092953,2|0,1:2|0:0,0:0:0:0:
147,27,58546,21,6,1:2:0:0:
381,370,59034,1,8,0:0:0:0:
452,303,59278,5,2,0:0:0:0:
461,270,59400,1,2,0:0:0:0:
474,238,59522,2,0,P|492:186|508:162,1,68,6|0,1:2|0:0,0:0:0:0:
331,301,59766,1,2,0:0:0:0:
297,228,59888,2,0,P|277:155|266:88,1,136,2|0,0:0|0:0,0:0:0:0:
287,11,60254,2,0,P|318:21|335:50,1,68,2|2,0:0|0:0,0:0:0:0:
206,39,60498,1,2,1:2:0:0:
13,235,60742,1,2,1:2:0:0:
1,141,60864,2,0,B|84:132|56:192|122:190,1,136,2|0,0:0|0:0,0:0:0:0:
188,150,61229,6,0,P|165:119|132:115,1,68,2|2,0:0|0:0,0:0:0:0:
13,235,61473,2,0,P|26:265|35:298,1,68,2|0,1:2|0:0,0:0:0:0:
118,343,61717,1,2,0:0:0:0:
118,343,61839,2,0,P|157:317|259:283,1,136,2|0,0:0|0:0,0:0:0:0:
366,271,62205,1,2,0:0:0:0:
311,328,62327,2,0,P|399:305|465:305,1,136,2|8,0:0|0:0,0:0:0:0:
456,313,62693,1,0,1:0:0:0:
501,156,62937,1,8,0:0:0:0:
398,1,63181,5,2,0:0:0:0:
405,27,63303,1,2,0:0:0:0:
408,53,63425,2,0,P|390:141|367:188,1,136,2|2,1:2|0:0,0:0:0:0:
301,213,63790,1,2,0:0:0:0:
301,213,63912,1,8,0:0:0:0:
240,21,64156,1,2,0:0:0:0:
240,21,64278,2,0,P|175:56|108:71,1,136,2|8,1:2|0:0,0:0:0:0:
83,146,64644,1,2,1:2:0:0:
10,22,64888,1,10,0:0:0:0:
72,248,65132,5,2,0:0:0:0:
72,248,65254,1,2,0:0:0:0:
13,187,65376,2,0,P|56:162|85:168,1,68,2|0,1:2|0:0,0:0:0:0:
157,229,65620,2,0,P|157:278|137:300,1,68,2|0,0:0|0:0,0:0:0:0:
50,331,65864,2,0,P|6:306|-2:278,1,68,10|0,0:0|0:0,0:0:0:0:
72,248,66107,2,0,B|218:258|133:130|340:154,1,272,2|2,1:2|0:0,0:0:0:0:
333,311,66839,2,0,P|256:277|293:226,1,136,10|10,0:0|0:0,0:0:0:0:
346,230,67205,5,10,0:0:0:0:
346,230,67327,2,0,P|392:191|379:98,1,136,6|2,1:2|0:0,0:0:0:0:
326,73,67693,2,0,P|316:24|317:-9,1,68,2|8,0:0|0:0,0:0:0:0:
494,337,68059,1,2,0:0:0:0:
480,309,68181,1,2,0:0:0:0:
456,286,68303,2,0,P|432:318|420:356,1,68,2|8,1:2|0:0,0:0:0:0:
321,379,68546,1,0,1:0:0:0:
321,379,68668,2,0,P|293:352|197:345,1,136,2|0,0:0|0:0,0:0:0:0:
17,291,69034,38,0,P|56:269|93:264,1,68,2|2,0:0|0:0,0:0:0:0:
136,384,69278,2,0,B|145:320|208:353|192:257,1,136,2|2,1:2|0:0,0:0:0:0:
140,197,69644,2,0,P|124:149|180:88,1,136,2|0,0:0|0:0,0:0:0:0:
256,56,70010,1,2,0:0:0:0:
256,56,70132,2,0,P|194:64|176:5,1,136,2|8,0:0|0:0,0:0:0:0:
189,0,70498,1,0,1:0:0:0:
0,89,70742,1,8,0:0:0:0:
154,207,70985,1,0,0:0:0:0:
28,354,71229,6,0,P|126:323|246:297,1,204,2|0,1:2|0:0,0:0:0:0:
286,239,71717,2,0,P|338:256|380:267,1,68,10|0,0:0|0:0,0:0:0:0:
504,321,71961,1,2,0:0:0:0:
440,375,72083,2,0,P|423:318|419:290,1,68,2|0,1:2|0:0,0:0:0:0:
475,223,72327,1,8,0:0:0:0:
475,223,72449,2,0,P|487:178|488:138,1,68,2|0,1:2|0:0,0:0:0:0:
469,68,72693,2,0,P|409:67|416:146,1,136,10|2,0:0|0:0,0:0:0:0:
327,19,73181,5,2,1:2:0:0:
226,166,73425,1,2,0:0:0:0:
87,155,73668,1,8,0:0:0:0:
25,60,73912,2,0,P|151:73|204:74,1,136,6|0,1:2|0:0,0:0:0:0:
160,73,74278,1,0,0:0:0:0:
160,73,74400,1,0,1:0:0:0:
10,230,74644,5,12,0:0:0:0:
76,236,74765,1,8,0:0:0:0:
122,284,74887,1,10,0:0:0:0:
126,351,75009,1,10,0:0:0:0:
102,367,75132,6,0,P|217:342|290:327,1,136,6|2,1:2|0:0,0:0:0:0:
294,286,75498,1,2,0:0:0:0:
294,286,75620,1,8,0:0:0:0:
437,370,75864,1,2,0:0:0:0:
437,370,75985,1,2,0:0:0:0:
437,285,76107,2,0,P|403:286|380:310,1,68,2|8,1:2|0:0,0:0:0:0:
293,201,76351,1,2,1:2:0:0:
293,201,76473,2,0,P|337:207|355:242,1,68,2|8,0:0|0:0,0:0:0:0:
318,371,76839,5,2,0:0:0:0:
318,371,76961,1,2,0:0:0:0:
318,371,77083,2,0,P|387:252|427:199,1,204,2|2,1:2|0:0,0:0:0:0:
500,131,77571,2,0,P|506:76|517:41,1,68,8|0,0:0|0:0,0:0:0:0:
374,34,77815,1,2,0:0:0:0:
407,110,77937,2,0,P|315:58|274:44,1,136,2|8,0:0|0:0,0:0:0:0:
286,47,78303,1,0,1:0:0:0:
14,146,78546,2,0,P|43:109|70:112,1,68,8|0,0:0|0:0,0:0:0:0:
153,206,78790,2,0,P|148:232|113:251,1,68,2|0,0:0|0:0,0:0:0:0:
79,182,79034,38,0,P|171:166|234:147,1,136,2|2,1:2|0:0,0:0:0:0:
287,134,79400,1,2,0:0:0:0:
287,134,79522,1,8,0:0:0:0:
497,301,79766,2,0,P|449:294|422:288,1,68,2|2,0:0|1:2,0:0:0:0:
356,273,80010,1,0,0:0:0:0:
277,384,80254,1,2,1:2:0:0:
129,361,80498,2,0,P|116:329|109:296,1,68,10|0,0:0|0:0,0:0:0:0:
202,346,80742,2,0,P|189:314|182:281,1,68,2|2,0:0|0:0,0:0:0:0:
339,343,80985,6,0,P|363:312|413:305,1,68,2|0,1:2|0:0,0:0:0:0:
368,221,81229,2,0,P|407:218|445:250,1,68,2|0,0:0|0:0,0:0:0:0:
478,161,81473,2,0,P|506:188|508:238,1,68,10|0,0:0|0:0,0:0:0:0:
485,308,81717,2,0,B|371:334|359:181|239:213,1,272,2|8,1:2|0:0,0:0:0:0:
203,274,82327,1,8,0:0:0:0:
203,274,82449,1,8,3:0:0:0:
23,59,82693,5,4,3:0:0:0:
23,59,82815,1,4,3:0:0:0:
0,133,82937,2,0,P|33:164|54:191,1,68,6|0,1:2|0:0,0:0:0:0:
247,0,83181,1,2,0:0:0:0:
247,0,83303,2,0,P|215:64|197:129,1,136,2|0,0:0|0:0,0:0:0:0:
155,207,83668,1,2,0:0:0:0:
155,207,83790,1,2,0:0:0:0:
112,130,83912,2,0,P|102:91|101:42,1,68,2|8,1:2|0:0,0:0:0:0:
268,173,84156,1,2,1:2:0:0:
268,173,84278,2,0,P|306:133|383:96,1,136,2|0,0:0|0:0,0:0:0:0:
466,51,84644,5,2,0:0:0:0:
466,51,84766,1,2,0:0:0:0:
364,27,84888,2,0,P|383:76|391:116,1,68,2|0,1:2|0:0,0:0:0:0:
456,145,85132,1,2,0:0:0:0:
456,145,85254,2,0,P|425:219|408:292,1,136,2|0,0:0|0:0,0:0:0:0:
512,334,85620,1,2,1:2:0:0:
512,334,85742,2,0,B|437:327|468:372|371:363,1,136,2|0,0:0|0:0,0:0:0:0:
382,364,86107,1,2,1:2:0:0:
242,244,86351,1,10,0:0:0:0:
59,349,86595,5,2,0:0:0:0:
93,327,86717,1,2,0:0:0:0:
133,318,86839,2,0,P|173:322|206:343,1,68,6|0,1:2|0:0,0:0:0:0:
3,265,87083,2,0,P|17:234|41:210,1,68,0|0,1:0|0:0,0:0:0:0:
158,66,87327,2,0,P|73:105|4:125,1,136,8|2,0:0|0:0,0:0:0:0:
32,117,87693,1,2,0:0:0:0:
32,117,87815,1,6,1:2:0:0:
227,6,88059,1,0,1:0:0:0:
237,126,88303,2,0,P|269:134|315:154,1,68,10|0,0:0|0:0,0:0:0:0:
387,212,88546,2,0,P|419:200|452:192,1,68,8|8,0:0|0:0,0:0:0:0:
512,59,88790,5,6,1:2:0:0:
383,116,89034,1,2,0:0:0:0:
296,238,89278,1,10,0:0:0:0:
512,59,89522,1,2,1:2:0:0:
138,377,90010,1,8,0:0:0:0:
64,297,90254,1,8,0:0:0:0:
66,276,90375,1,8,0:0:0:0:
69,256,90497,1,8,0:0:0:0:
72,236,90619,1,8,0:0:0:0:
22,181,90741,5,6,1:2:0:0:
256,192,90864,12,0,97571,0:0:0:0:
