osu file format v14

[General]
AudioFilename: audio.mp3
AudioLeadIn: 0
PreviewTime: 41839
Countdown: 0
SampleSet: Soft
StackLeniency: 0.4
Mode: 0
LetterboxInBreaks: 0
WidescreenStoryboard: 1

[Editor]
Bookmarks: 968,16577,26333,41943,59504
DistanceSpacing: 0.8
BeatDivisor: 4
GridSize: 4
TimelineZoom: 1.2

[Metadata]
Title:Cocoiro Rainbow (TV Size)
TitleUnicode:Cocoiro Rainbow (TV Size)
Artist:Narumi Kyoko
ArtistUnicode:鳴海杏子
Creator:Fuiba Fuyu
Version:Color
Source:ヤマノススメ
Tags:yama no susume encouragement of climb 2nd second season 2 two ending ed japanese anime pop jpop j-pop climbx3145 kazuma tycani m_i_x mix
BeatmapID:3144430
BeatmapSetID:1428874

[Difficulty]
HPDrainRate:6
CircleSize:4
OverallDifficulty:8
ApproachRate:9
SliderMultiplier:1.7
SliderTickRate:1

[Events]
//Background and Video events
0,0,"yama no susume 8-2.jpg",0,0
//Break Periods
//Storyboard Layer 0 (Background)
//Storyboard Layer 1 (Fail)
//Storyboard Layer 2 (Pass)
//Storyboard Layer 3 (Foreground)
//Storyboard Layer 4 (Overlay)
//Storyboard Sound Samples

[TimingPoints]
498,487.80487804878,4,2,1,60,1,0
986,487.80487804878,4,2,1,60,1,0
16595,-71.4285714285714,4,2,1,80,0,0
25864,-100,4,2,1,80,0,0
26229,-100,4,2,1,5,0,0
26351,-100,4,2,1,55,0,0
41961,-100,4,2,1,65,0,0
45742,-100,4,2,1,5,0,0
45864,-100,4,2,1,65,0,0
51595,-100,4,2,1,5,0,0
51717,-100,4,2,1,65,0,0
53546,-100,4,2,1,5,0,0
53668,-100,4,2,1,65,0,0
55498,-100,4,2,1,5,0,0
55620,-90.9090909090909,4,2,1,65,0,0
56595,-83.3333333333333,4,2,1,65,0,0
57571,-76.9230769230769,4,2,1,70,0,0
57815,-68.9655172413793,4,2,1,70,0,0
58059,-62.5,4,2,1,75,0,0
58303,-57.1428571428571,4,2,1,75,0,0
58546,-50,4,2,1,90,0,0
59278,-100,4,2,1,80,0,0
59522,-62.5,4,2,1,80,0,1
65376,-62.5,4,2,1,80,0,0
67327,-62.5,4,2,1,80,0,1
73181,-62.5,4,2,1,80,0,0
75132,-62.5,4,2,1,80,0,1
80985,-62.5,4,2,1,80,0,0
82937,-62.5,4,2,1,80,0,1
88303,-62.5,4,2,1,80,0,0
88790,-55.5555555555556,4,2,1,80,0,1
90010,-62.5,4,2,1,80,0,0
90864,-62.5,4,2,1,70,0,0
91717,-62.5,4,2,1,60,0,0
92693,-62.5,4,2,1,50,0,0
93668,-62.5,4,2,1,40,0,0
94644,-62.5,4,2,1,30,0,0
95620,-62.5,4,2,1,20,0,0
96595,-62.5,4,2,1,10,0,0
97571,-62.5,4,2,1,5,0,0

[Colours]
Combo1 : 187,11,206
Combo2 : 0,157,106
Combo3 : 255,128,64
Combo4 : 206,0,0
Combo5 : 230,145,51
Combo6 : 224,236,0
Combo7 : 0,210,0
Combo8 : 78,60,240

[HitObjects]
78,117,986,6,0,P|55:66|63:31,2,85,2|2|2,0:0|0:0|0:0,0:0:0:0:
166,175,1717,2,0,B|216:186|246:154|227:140|268:94|325:126,1,170,2|2,0:0|0:0,0:0:0:0:
381,186,2449,1,2,0:0:0:0:
390,171,2571,1,2,0:0:0:0:
399,156,2693,1,2,0:0:0:0:
331,261,2937,6,0,L|355:353,2,85,2|2|2,0:0|0:0|0:0,0:0:0:0:
260,367,3668,2,0,L|83:333,1,170,2|2,0:0|0:0,0:0:0:0:
10,238,4400,1,2,0:0:0:0:
101,132,4644,2,0,L|111:195,1,42.5,2|0,0:0|0:0,0:0:0:0:
140,39,4888,102,0,P|92:28|50:44,2,85,2|2|2,0:0|0:0|0:0,0:0:0:0:
237,166,5620,2,0,P|295:188|396:160,1,170,2|2,0:0|0:0,0:0:0:0:
482,60,6351,1,2,0:0:0:0:
395,160,6595,2,0,L|383:115,1,42.5,2|0,0:0|0:0,0:0:0:0:
498,230,6839,5,2,0:0:0:0:
483,304,7083,1,2,0:0:0:0:
469,379,7327,1,2,0:0:0:0:
498,230,7571,102,0,B|443:203|412:231|427:253|388:281|340:260,1,170,2|0,0:0|0:0,0:0:0:0:
155,380,8303,2,0,P|203:359|248:355,1,85,2|0,0:0|0:0,0:0:0:0:
56,214,8790,6,0,P|37:257|49:296,2,85,2|2|2,0:0|0:0|0:0,0:0:0:0:
162,177,9522,2,0,L|122:-1,1,170,2|2,0:0|0:0,0:0:0:0:
249,166,10254,1,2,0:0:0:0:
51,126,10498,1,2,0:0:0:0:
294,17,10742,102,0,L|207:39,2,85,2|2|2,0:0|0:0|0:0,0:0:0:0:
425,60,11473,2,0,P|441:100|404:174,1,127.5,2|0,0:0|0:0,0:0:0:0:
374,193,11961,5,2,0:0:0:0:
469,270,12205,1,2,0:0:0:0:
357,106,12449,1,2,0:0:0:0:
170,373,12693,101,2,0:0:0:0:
143,292,12937,1,2,0:0:0:0:
224,265,13181,1,2,0:0:0:0:
250,346,13425,1,2,0:0:0:0:
170,373,13668,5,2,0:0:0:0:
115,209,13912,1,2,0:0:0:0:
276,153,14156,1,2,0:0:0:0:
327,315,14400,2,0,L|312:270,1,42.5,2|0,0:0|0:0,0:0:0:0:
35,156,14644,102,0,P|60:56|224:84,1,297.5,6|0,1:2|0:0,0:0:0:0:
188,192,15620,5,8,3:0:0:0:
227,277,15742,1,8,3:0:0:0:
227,277,15985,1,8,3:0:0:0:
391,152,16107,101,8,0:0:0:0:
345,248,16229,1,8,3:0:0:0:
395,322,16351,1,4,3:0:0:0:
351,384,16473,1,4,3:0:0:0:
280,179,16595,6,0,L|293:117,1,59.4999981842042,6|0,1:2|0:0,0:0:0:0:
143,271,16839,2,0,L|156:333,1,59.4999981842042,2|0,0:0|0:0,0:0:0:0:
277,198,17083,1,10,0:0:0:0:
54,115,17327,5,2,1:2:0:0:
76,106,17449,1,8,0:0:0:0:
98,97,17571,2,0,L|32:88,1,59.4999981842042,0|8,1:0|0:0,0:0:0:0:
204,20,17815,2,0,L|270:29,1,59.4999981842042,2|0,1:2|0:0,0:0:0:0:
16,0,18059,1,10,0:0:0:0:
170,171,18303,1,2,1:2:0:0:
192,162,18425,1,8,0:0:0:0:
214,154,18546,53,2,1:2:0:0:
27,223,18790,1,2,0:0:0:0:
261,322,19034,1,10,0:0:0:0:
141,377,19278,21,2,1:2:0:0:
136,353,19400,1,8,0:0:0:0:
131,329,19522,2,0,L|144:267,1,59.4999981842042,0|8,1:0|0:0,0:0:0:0:
0,147,19766,2,0,L|13:209,1,59.4999981842042,0|0,1:0|0:0,0:0:0:0:
261,322,20010,6,0,B|308:311|308:311|323:297|323:297|375:285,1,118.999996368408,8|2,0:0|0:0,0:0:0:0:
455,318,20376,1,2,0:0:0:0:
507,201,20498,6,0,P|478:147|496:84,2,118.999996368408,2|0|8,1:2|0:0|0:0,0:0:0:0:
308,133,21229,53,2,1:2:0:0:
316,110,21351,1,8,0:0:0:0:
324,87,21473,2,0,L|308:24,1,59.4999981842042,0|8,1:0|0:0,0:0:0:0:
264,243,21717,2,0,L|281:299,1,59.4999981842042,2|0,1:2|0:0,0:0:0:0:
218,93,21961,1,10,0:0:0:0:
264,243,22205,21,8,0:0:0:0:
359,212,22327,1,8,0:0:0:0:
193,296,22449,6,0,L|126:280,1,59.4999981842042,6|0,1:2|0:0,0:0:0:0:
369,230,22693,2,0,L|436:246,1,59.4999981842042,2|0,0:0|0:0,0:0:0:0:
228,109,22937,1,8,0:0:0:0:
351,359,23181,5,2,1:2:0:0:
357,336,23303,1,8,0:0:0:0:
362,312,23425,2,0,L|290:327,1,59.4999981842042,0|8,1:0|0:0,0:0:0:0:
436,154,23668,2,0,L|508:139,1,59.4999981842042,0|0,1:0|1:0,0:0:0:0:
242,34,23912,53,8,0:0:0:0:
228,109,24033,1,8,0:0:0:0:
214,185,24155,1,8,0:0:0:0:
200,261,24277,1,8,0:0:0:0:
186,336,24399,1,6,1:2:0:0:
186,336,25864,22,0,P|176:352|186:330,1,127.5,12|0,3:0|0:0,0:0:0:0:
260,364,26351,86,0,P|266:325|252:277,1,85,6|2,1:2|0:0,0:0:0:0:
143,199,26839,2,0,P|137:157|148:116,1,85,2|0,3:2|0:0,0:0:0:0:
221,56,27205,2,0,B|256:37|285:55|278:65|307:86|350:75,1,127.5,2|2,0:0|3:2,0:0:0:0:
492,1,27815,5,2,0:0:0:0:
394,142,28059,1,2,0:0:0:0:
410,162,28181,1,2,0:0:0:0:
371,230,28303,6,0,L|356:344,1,85,0|0,1:0|0:0,0:0:0:0:
122,367,28790,2,0,L|107:253,1,85,0|0,3:0|0:0,0:0:0:0:
45,237,29156,2,0,L|60:123,1,85
117,47,29522,85,2,3:2:0:0:
191,176,29766,2,0,P|224:168|279:174,1,85,2|2,0:0|0:0,0:0:0:0:
336,222,30132,1,2,0:0:0:0:
420,144,30254,6,0,P|432:97|418:60,1,85,0|2,1:0|0:0,0:0:0:0:
284,161,30742,1,2,3:2:0:0:
421,266,30985,1,2,0:0:0:0:
406,290,31107,2,0,L|421:376,1,85,2|0,0:0|0:0,0:0:0:0:
495,319,31473,1,2,3:2:0:0:
282,377,31717,6,0,B|244:365|244:365|237:360|237:360|194:348,1,85,2|2,0:0|0:0,0:0:0:0:
110,325,32083,1,2,0:0:0:0:
204,247,32205,86,0,P|219:173|142:114,1,170,0|0,1:0|3:0,0:0:0:0:
353,238,32937,1,0,0:0:0:0:
353,238,33059,1,0,0:0:0:0:
134,198,33303,1,0,0:0:0:0:
134,198,33425,5,2,3:2:0:0:
249,64,33668,1,2,0:0:0:0:
62,9,33912,2,0,P|28:14|10:18,1,42.5,8|8,3:0|3:0,0:0:0:0:
199,133,34156,6,0,P|266:145|295:155,1,85,0|2,1:0|0:0,0:0:0:0:
491,51,34644,2,0,P|450:62|407:68,1,85,2|2,3:2|0:0,0:0:0:0:
424,154,35010,2,0,P|466:148|507:136,1,85,2|0,0:0|0:0,0:0:0:0:
359,215,35376,85,2,3:2:0:0:
372,290,35620,1,2,3:2:0:0:
384,365,35864,1,2,3:2:0:0:
236,262,36107,6,0,B|190:247|148:277|163:291|127:333|79:311,1,170,0|0,1:0|3:0,0:0:0:0:
275,362,36839,1,0,0:0:0:0:
275,362,36961,1,0,0:0:0:0:
201,163,37205,1,0,0:0:0:0:
201,163,37327,5,2,3:2:0:0:
101,295,37571,1,2,0:0:0:0:
0,70,37815,1,8,3:0:0:0:
36,81,37937,1,8,3:0:0:0:
72,92,38059,86,0,B|112:73|112:73|154:90,1,85,0|2,1:0|0:0,0:0:0:0:
293,193,38546,2,0,P|308:158|293:112,1,85,2|2,3:2|0:0,0:0:0:0:
355,48,38912,2,0,B|395:33|423:58|414:65|443:94|471:89,1,127.5,2|2,0:0|1:2,0:0:0:0:
425,283,39522,5,2,3:2:0:0:
376,176,39766,2,0,L|390:126,1,42.5,2|0,0:0|0:0,0:0:0:0:
490,362,40010,6,0,L|404:379,1,85,0|0,1:0|3:0,0:0:0:0:
206,276,40498,2,0,B|259:292|259:292|271:305|271:305|322:324,1,127.5
425,283,40985,86,0,P|429:249|423:238,1,42.5,0|0,3:0|0:0,0:0:0:0:
206,276,41229,2,0,P|202:310|208:321,1,42.5,0|0,3:0|0:0,0:0:0:0:
356,115,41473,5,0,1:0:0:0:
273,384,41717,1,0,1:0:0:0:
27,62,41961,38,0,B|74:29|168:66|106:127|189:183|263:127,1,255,6|2,1:2|0:0,0:0:0:0:
102,260,43181,101,2,0:0:0:0:
60,137,43425,1,2,0:0:0:0:
111,288,43668,1,2,0:0:0:0:
251,121,43912,38,0,L|264:29,1,85,0|0,1:0|0:0,0:0:0:0:
235,234,44400,1,2,0:0:0:0:
422,339,44644,86,0,B|424:301|437:274|437:274|418:239|418:239|432:216|434:169,1,170,2|0,0:0|0:0,0:0:0:0:
274,48,45376,102,0,P|345:57|408:69,1,127.5,2|0,1:2|0:0,0:0:0:0:
245,22,45864,37,2,1:2:0:0:
154,212,46107,1,2,0:0:0:0:
346,324,46351,1,2,0:0:0:0:
301,185,46595,1,2,0:0:0:0:
129,364,46839,85,2,1:2:0:0:
302,209,47083,1,2,0:0:0:0:
86,86,47327,1,2,0:0:0:0:
70,227,47571,1,2,0:0:0:0:
274,48,47815,102,0,L|444:21,1,170,2|2,1:2|0:0,0:0:0:0:
189,281,48546,37,2,0:0:0:0:
201,216,48668,1,2,0:0:0:0:
214,153,48790,1,2,0:0:0:0:
9,372,49034,85,8,3:0:0:0:
302,296,49278,1,4,3:0:0:0:
89,203,49522,1,4,3:0:0:0:
334,381,49766,102,0,L|365:208,1,170,6|0,1:2|0:0,0:0:0:0:
242,63,50498,2,0,B|193:41|157:68|176:90|133:124|86:102,1,170,0|2,1:0|0:0,0:0:0:0:
346,0,51229,38,0,P|372:62|390:130,1,127.5,10|0,0:0|0:0,0:0:0:0:
204,262,51717,86,0,B|264:247|264:247|288:213|288:213|364:196,1,170,2|2,1:2|0:0,0:0:0:0:
122,323,52449,2,0,P|99:277|155:182,1,170,2|2,1:2|0:0,0:0:0:0:
216,359,53181,102,0,P|280:367|343:378,1,127.5,10|0,0:0|0:0,0:0:0:0:
467,306,53668,38,0,P|463:264|453:223,1,85,2|2,1:2|0:0,0:0:0:0:
423,383,54156,1,0,0:0:0:0:
257,233,54400,86,0,P|261:162|358:140,1,170,2|2,1:2|0:0,0:0:0:0:
121,11,55132,102,0,P|138:68|166:140,1,127.5,12|0,3:0|0:0,0:0:0:0:
24,304,55620,102,0,P|85:269|69:160,1,187.000005706787,6|2,1:2|1:2,0:0:0:0:
319,270,56595,6,0,P|250:284|231:393,1,152.999995330811,2|0,1:2|0:0,0:0:0:0:
305,355,57083,1,2,1:3:0:0:
186,197,57327,101,0,0:0:0:0:
225,126,57449,1,0,0:0:0:0:
168,58,57571,22,0,P|121:44|98:43,1,55.2499974708558,2|0,1:2|0:0,0:0:0:0:
186,197,57815,6,0,P|150:230|138:250,1,61.6250018806458,2|0,1:2|0:0,0:0:0:0:
383,313,58059,6,0,P|394:360|405:381,1,68,2|0,1:2|0:0,0:0:0:0:
436,53,58303,6,0,P|485:67|509:68,1,74.3750007092953,2|0,1:2|0:0,0:0:0:0:
164,358,58546,6,0,B|96:280|141:181|216:228|248:125|158:49,1,340,6|8,1:2|0:0,0:0:0:0:
164,358,59278,6,0,L|118:370,1,42.5,2|2,0:0|0:0,0:0:0:0:
313,153,59522,38,0,B|309:125|309:125|310:120|310:120|303:81,1,68,6|0,1:2|0:0,0:0:0:0:
326,239,59766,1,2,0:0:0:0:
395,169,59888,1,2,0:0:0:0:
226,123,60010,6,0,L|89:138,1,136,8|2,0:0|0:0,0:0:0:0:
5,149,60376,1,2,0:0:0:0:
120,234,60498,5,2,1:2:0:0:
128,268,60620,1,8,0:0:0:0:
136,302,60742,2,0,L|121:375,1,68,2|2,1:2|0:0,0:0:0:0:
312,323,60985,2,0,L|282:188,1,136,8|2,0:0|0:0,0:0:0:0:
226,123,61351,1,2,0:0:0:0:
311,38,61473,6,0,B|356:24|383:49|373:58|401:78|441:73,1,136,2|2,1:2|0:0,0:0:0:0:
497,23,61839,1,2,0:0:0:0:
418,162,61961,2,0,L|403:231,1,68,8|0,0:0|0:0,0:0:0:0:
436,73,62205,5,2,0:0:0:0:
282,190,62327,1,2,0:0:0:0:
344,326,62449,6,0,L|326:250,2,68,0|8|0,1:0|0:0|1:0,0:0:0:0:
343,326,62937,38,0,B|277:306|277:306|208:331,1,136,8|2,0:0|0:0,0:0:0:0:
126,293,63303,1,2,0:0:0:0:
19,378,63425,6,0,L|38:242,1,136,2|2,1:2|0:0,0:0:0:0:
126,183,63790,1,2,0:0:0:0:
22,75,63912,6,0,L|9:3,1,68,8|0,0:0|0:0,0:0:0:0:
38,165,64156,1,2,0:0:0:0:
162,48,64278,6,0,B|192:36|232:50|224:65|263:88|292:78,1,136,2|8,1:2|0:0,0:0:0:0:
355,142,64644,2,0,L|336:214,1,68,2|0,1:2|0:0,0:0:0:0:
479,83,64888,6,0,L|460:11,1,68,10|0,0:0|0:0,0:0:0:0:
463,240,65132,2,0,L|444:168,1,68,2|2,0:0|0:0,0:0:0:0:
395,364,65376,6,0,P|333:343|257:354,2,136,2|2|10,1:2|0:0|0:0,0:0:0:0:
136,83,66107,38,0,B|82:147|111:220|166:198|201:273|149:348,1,272,2|2,1:2|0:0,0:0:0:0:
21,191,66839,2,0,P|12:155|20:114,1,68,10|0,0:0|0:0,0:0:0:0:
261,216,67083,5,10,0:0:0:0:
91,280,67205,1,10,0:0:0:0:
204,144,67327,6,0,L|220:68,1,68,6|0,1:2|0:0,0:0:0:0:
178,252,67571,1,2,0:0:0:0:
261,216,67693,1,2,0:0:0:0:
339,323,67815,6,0,L|478:294,1,136,8|2,0:0|0:0,0:0:0:0:
504,211,68181,1,2,0:0:0:0:
397,116,68303,6,0,L|382:192,1,68,2|8,1:2|0:0,0:0:0:0:
378,217,68546,1,0,1:0:0:0:
487,123,68668,1,2,0:0:0:0:
341,36,68790,6,0,L|198:65,1,136,8|2,0:0|0:0,0:0:0:0:
151,125,69156,1,2,0:0:0:0:
46,71,69278,38,0,P|28:148|53:198,1,136,2|2,1:2|0:0,0:0:0:0:
139,274,69644,1,2,0:0:0:0:
69,351,69766,6,0,L|-8:342,1,68,8|0,0:0|0:0,0:0:0:0:
223,318,70010,2,0,L|300:327,1,68,2|2,0:0|0:0,0:0:0:0:
139,274,70254,6,0,L|131:207,2,68,0|8|0,1:0|0:0|1:0,0:0:0:0:
303,341,70742,2,0,L|321:200,1,136,8|0,0:0|0:0,0:0:0:0:
116,109,71229,6,0,B|173:132|215:89|194:75|234:30|299:57,1,204,2|0,1:2|0:0,0:0:0:0:
369,124,71717,2,0,P|426:111|451:102,1,68,10|0,0:0|0:0,0:0:0:0:
320,206,71961,5,2,0:0:0:0:
377,272,72083,2,0,P|491:298|541:316,1,136,2|8,1:2|0:0,0:0:0:0:
486,382,72449,1,2,1:2:0:0:
320,206,72693,6,0,P|285:272|309:324,1,136,10|2,0:0|0:0,0:0:0:0:
383,373,73059,1,2,0:0:0:0:
210,319,73181,38,0,B|160:333|160:333|144:355|144:355|85:373,2,136,2|2|8,1:2|0:0|0:0,0:0:0:0:
41,235,73912,2,0,P|35:148|140:120,1,204,6|0,1:2|0:0,0:0:0:0:
202,80,74400,2,0,P|208:39|206:10,1,68,0|0,1:0|0:0,0:0:0:0:
41,235,74644,5,12,0:0:0:0:
107,222,74765,1,8,0:0:0:0:
174,210,74887,1,10,0:0:0:0:
241,198,75009,1,10,0:0:0:0:
398,175,75132,6,0,B|403:206|403:206|401:215|401:215|407:248,1,68,6|0,1:2|0:0,0:0:0:0:
385,70,75376,1,2,0:0:0:0:
313,148,75498,1,2,0:0:0:0:
490,212,75620,2,0,L|505:72,1,136,8|2,0:0|0:0,0:0:0:0:
443,11,75985,1,2,0:0:0:0:
385,70,76107,6,0,L|307:55,1,68,2|8,1:2|0:0,0:0:0:0:
398,175,76351,1,2,1:2:0:0:
316,227,76473,6,0,L|232:210,2,68,2|8|0,0:0|0:0|0:0,0:0:0:0:
406,282,76839,1,2,0:0:0:0:
400,302,76961,1,2,0:0:0:0:
322,365,77083,6,0,B|262:356|262:356|247:342|247:342|183:334,1,136,2|2,1:2|0:0,0:0:0:0:
133,266,77449,1,2,0:0:0:0:
33,319,77571,38,0,L|51:389,1,68,8|0,0:0|0:0,0:0:0:0:
2,196,77815,1,2,0:0:0:0:
133,266,77937,1,2,0:0:0:0:
153,173,78059,6,0,L|84:158,2,68,0|8|0,1:0|0:0|1:0,0:0:0:0:
275,276,78546,2,0,L|416:251,1,136,8|2,0:0|0:0,0:0:0:0:
471,173,78912,1,0,0:0:0:0:
450,158,79034,6,0,P|421:109|458:36,1,136,2|2,1:2|0:0,0:0:0:0:
367,0,79400,1,2,0:0:0:0:
227,75,79522,6,0,L|150:86,1,68,8|0,0:0|0:0,0:0:0:0:
310,63,79766,1,2,0:0:0:0:
213,197,79888,6,0,B|161:185|161:185|142:167|142:167|83:157,1,136,2|8,1:2|0:0,0:0:0:0:
18,229,80254,2,0,P|7:265|20:294,1,68,2|0,1:2|0:0,0:0:0:0:
224,372,80498,6,0,P|235:336|222:307,1,68,10|0,0:0|0:0,0:0:0:0:
149,343,80742,1,2,0:0:0:0:
309,377,80864,1,2,0:0:0:0:
213,197,80985,38,0,P|196:134|217:67,2,136,2|2|10,1:2|0:0|0:0,0:0:0:0:
457,229,81717,6,0,B|390:213|370:130|370:130|357:213|285:233,1,272,2|8,1:2|0:0,0:0:0:0:
213,197,82327,1,8,0:0:0:0:
263,54,82449,5,8,3:0:0:0:
200,29,82570,1,8,3:0:0:0:
137,48,82692,1,4,3:0:0:0:
98,103,82814,1,4,3:0:0:0:
136,234,82937,6,0,L|120:318,1,68,6|0,1:2|0:0,0:0:0:0:
105,383,83181,1,2,0:0:0:0:
44,255,83303,1,2,0:0:0:0:
198,346,83425,6,0,L|335:317,1,136,8|2,0:0|0:0,0:0:0:0:
405,366,83790,1,2,0:0:0:0:
485,266,83912,6,0,L|499:188,1,68,2|8,1:2|0:0,0:0:0:0:
507,159,84156,1,2,1:2:0:0:
383,235,84278,1,2,0:0:0:0:
320,174,84400,38,0,P|313:99|349:45,1,136,8|2,0:0|0:0,0:0:0:0:
396,125,84766,1,2,0:0:0:0:
246,220,84888,6,0,B|194:206|194:206|177:181|177:181|117:167,1,136,2|2,1:2|0:0,0:0:0:0:
55,215,85254,1,2,0:0:0:0:
0,124,85376,2,0,L|19:51,1,68,8|0,0:0|0:0,0:0:0:0:
137,269,85620,5,2,1:2:0:0:
246,220,85742,2,0,P|212:156|249:96,1,136,2|0,0:0|0:0,0:0:0:0:
316,77,86107,5,2,1:2:0:0:
213,290,86351,1,10,0:0:0:0:
55,215,86595,1,2,0:0:0:0:
18,294,86717,1,2,0:0:0:0:
117,384,86839,6,0,B|178:372|178:372|193:374|193:374|255:363,1,136,6|0,1:2|1:0,0:0:0:0:
370,278,87205,1,0,0:0:0:0:
446,319,87327,2,0,L|467:395,1,68,8|0,0:0|0:0,0:0:0:0:
246,220,87571,2,0,L|225:144,1,68,2|2,0:0|0:0,0:0:0:0:
445,32,87815,5,6,1:2:0:0:
425,88,87937,1,8,0:0:0:0:
407,147,88059,2,0,L|433:250,1,68,0|0,1:0|0:0,0:0:0:0:
178,83,88303,2,0,L|199:7,1,68,10|0,0:0|0:0,0:0:0:0:
133,228,88546,37,8,0:0:0:0:
43,189,88668,1,8,0:0:0:0:
202,358,88790,6,0,P|239:332|247:304,1,76.4999976654053,6|0,1:2|0:0,0:0:0:0:
370,290,89034,2,0,P|365:244|345:224,1,76.4999976654053,2|0,0:0|0:0,3:0:0:0:
496,89,89278,2,0,P|454:69|426:77,1,76.4999976654053,10|0,0:0|0:0,0:0:0:0:
133,228,89522,6,0,L|92:0,1,229.499992996216,2|0,1:2|1:0,0:0:0:0:
252,123,90010,1,8,0:0:0:0:
252,123,90254,53,8,0:0:0:0:
176,87,90375,1,8,0:0:0:0:
97,113,90497,1,8,0:0:0:0:
57,186,90619,1,8,0:0:0:0:
110,311,90742,5,6,1:2:0:0:
256,192,90864,12,0,97571,0:0:0:0:
