osu file format v14

[General]
AudioFilename: audio.mp3
AudioLeadIn: 0
PreviewTime: 111228
Countdown: 0
SampleSet: Soft
StackLeniency: 0.7
Mode: 0
LetterboxInBreaks: 0
WidescreenStoryboard: 1

[Editor]
Bookmarks: 71085,75656,84799,140799,156085,175085
DistanceSpacing: 1.4
BeatDivisor: 4
GridSize: 32
TimelineZoom: 2.3

[Metadata]
Title:Streaming Heart
TitleUnicode:ストリーミングハート
Artist:Narumi
ArtistUnicode:鳴海
Creator:domSaur
Version:Normal
Source:
Tags:deco*27 kous deckous utaite cover japanese rock dubturt akitoshi corinn -laura- amateurre
BeatmapID:2779960
BeatmapSetID:1231251

[Difficulty]
HPDrainRate:3
CircleSize:3.4
OverallDifficulty:4
ApproachRate:5
SliderMultiplier:0.9
SliderTickRate:1

[Events]
//Background and Video events
0,0,"lmao.png",0,0
//Break Periods
2,10763,18506
2,75906,83649
2,103335,111078
//Storyboard Layer 0 (Background)
//Storyboard Layer 1 (Fail)
//Storyboard Layer 2 (Pass)
//Storyboard Layer 3 (Foreground)
//Storyboard Layer 4 (Overlay)
//Storyboard Sound Samples

[TimingPoints]
1421,285.714285714286,4,2,1,60,1,0
1421,-100,4,2,1,60,0,0
8278,-100,4,2,1,70,0,0
10563,-100,4,2,1,80,0,0
29992,-100,4,2,1,73,0,0
39135,-100,4,2,1,80,0,0
48278,-100,4,2,1,67,0,0
56849,-100,4,2,1,80,0,0
57421,-100,4,2,1,85,0,0
84849,-100,4,2,2,60,0,0
92849,-100,4,2,1,70,0,0
93992,-100,4,2,1,80,0,0
112278,-100,4,2,1,85,0,0
121421,-100,4,2,1,70,0,0
131706,-100,4,2,1,85,0,0
168278,-100,4,2,1,67,0,0

[Colours]
Combo1 : 140,137,173
Combo2 : 126,126,224
Combo3 : 188,238,72
Combo4 : 193,104,177

[HitObjects]
174,52,1421,5,0,1:0:0:0:
57,62,1706,2,0,P|56:110|58:160,1,90,2|2,1:2|1:2,0:0:0:0:
156,230,2278,2,0,P|157:182|155:132,1,90,2|0,1:2|0:0,0:0:0:0:
254,62,2849,2,0,P|253:110|255:160,1,90,0|0,1:0|1:0,0:0:0:0:
373,194,3421,2,0,L|417:189,2,45,2|2|2,1:2|0:0|1:2,0:0:0:0:
332,313,3992,6,0,P|287:318|242:319,1,90,2|2,1:2|1:2,0:0:0:0:
119,349,4563,2,0,P|113:304|112:259,1,90,2|0,1:2|1:0,0:0:0:0:
231,215,5135,2,0,P|234:164|226:114,1,90,0|0,1:2|1:0,0:0:0:0:
132,44,5706,2,0,L|79:46,2,45,2|2|2,1:2|0:0|1:2,0:0:0:0:
258,39,6278,6,0,B|302:42|300:68|351:68,1,90,2|2,1:2|1:2,0:0:0:0:
396,172,6849,2,0,B|444:161|445:190|491:188,2,90,2|0|0,1:2|1:0|1:0,0:0:0:0:
331,280,7706,2,0,B|283:269|282:298|236:296,1,90,0|2,1:0|1:2,0:0:0:0:
187,268,8135,2,0,L|128:260,1,45,2|2,0:0|1:2,0:0:0:0:
229,284,9421,6,0,B|227:321|227:321|233:362,2,67.5,8|8|0,1:3|1:3|1:0,0:0:0:0:
268,234,9992,2,0,L|290:136,1,90,8|0,0:3|1:0,0:0:0:0:
267,85,10421,2,0,L|213:98,1,45,8|6,0:0|1:0,0:0:0:0:
42,86,19706,6,0,B|64:97|90:90|90:90|122:110|122:110|154:100|181:114,1,135,6|2,1:0|1:0,0:0:0:0:
215,152,20278,1,8,0:0:0:0:
219,277,20563,1,2,0:1:0:0:
99,316,20849,6,0,B|86:282|86:282|94:240,2,67.5,2|2|2,1:0|1:0|1:0,0:0:0:0:
141,363,21421,2,0,B|243:355,1,90,8|2,0:0|0:1,0:0:0:0:
355,338,21992,6,0,P|366:316|358:199,1,135,2|2,1:0|1:0,0:0:0:0:
334,152,22563,1,8,0:0:0:0:
398,43,22849,1,2,1:0:0:0:
272,30,23135,6,0,L|187:23,2,67.5,2|2|2,1:0|1:0|1:0,0:0:0:0:
311,79,23706,2,0,B|320:106|320:106|317:136|310:177,1,90,8|2,0:0|0:1,0:0:0:0:
222,255,24278,6,0,B|180:265|180:265|84:260,1,135,2|2,1:0|1:0,0:0:0:0:
51,208,24849,1,8,0:0:0:0:
36,83,25135,1,2,1:0:0:0:
161,75,25421,6,0,B|156:-1,2,67.5,2|2|2,1:0|1:0|1:0,0:0:0:0:
210,114,25992,2,0,P|256:118|305:90,1,90,8|2,0:0|0:1,0:0:0:0:
408,143,26563,6,0,P|420:208|400:272,1,135,2|2,1:0|1:0,0:0:0:0:
400,335,27135,1,8,0:0:0:0:
274,347,27421,1,2,0:1:0:0:
148,354,27706,6,0,L|63:347,2,67.5,2|2|2,1:0|1:0|1:0,0:0:0:0:
200,318,28278,1,8,0:0:0:0:
167,196,28563,2,0,B|161:165|158:135|158:135|167:108,1,90,2|8,1:0|1:3,0:0:0:0:
256,192,28921,12,4,29992,1:2:0:0:
177,195,30563,6,0,P|129:199|84:198,1,90,10|2,0:0|0:0,0:0:0:0:
53,145,30992,2,0,L|40:43,2,90,2|2|2,0:0|1:2|0:0,0:0:0:0:
97,100,31706,2,0,B|147:88|205:90,1,90,8|2,0:0|0:0,0:0:0:0:
312,89,32278,5,2,1:2:0:0:
391,186,32563,2,0,P|404:224|389:284,1,90,2|10,0:0|0:0,0:0:0:0:
297,350,33135,1,2,0:0:0:0:
297,350,33278,2,0,L|195:361,2,90,2|2|2,0:0|1:2|0:0,0:0:0:0:
314,289,33992,2,0,B|313:256|313:256|303:234|303:234|301:188,1,90,8|2,0:0|0:0,0:0:0:0:
221,103,34563,6,0,B|177:121|177:121|151:171|199:215,1,135,2|0,1:2|1:0,0:0:0:0:
224,253,35135,1,10,0:0:0:0:
142,349,35421,1,2,0:0:0:0:
142,349,35563,2,0,L|48:346,1,90,2|0,0:0|1:0,0:0:0:0:
116,237,36135,2,0,P|134:193|68:123,1,135,2|2,0:0|0:0,0:0:0:0:
32,97,36706,2,0,L|25:46,1,45,2|2,0:0|1:2,0:0:0:0:
150,32,37135,6,0,L|244:40,1,90,2|10,0:0|0:0,0:0:0:0:
365,37,37706,1,2,0:0:0:0:
433,143,37992,2,0,L|485:133,2,45,2|8|0,1:2|0:0|1:0,0:0:0:0:
381,180,38421,2,0,B|365:194|365:194|330:196|289:179,1,90,0|8,1:0|0:0,0:0:0:0:
246,145,38849,2,0,L|197:154,1,45,8|8,0:0|0:0,0:0:0:0:
140,136,39135,6,0,B|124:110|124:110|119:84|125:37,2,90,4|10|2,1:0|1:2|1:2,0:0:0:0:
236,54,39992,1,10,1:2:0:0:
340,125,40278,6,0,P|333:170|326:215,1,90,2|10,1:2|1:2,0:0:0:0:
278,255,40706,2,0,B|245:267|245:267|181:257,1,90,0|2,0:0|0:0,0:0:0:0:
158,203,41135,1,8,1:0:0:0:
148,77,41421,1,0,1:0:0:0:
273,64,41706,6,0,L|376:56,2,90,10|2|10,1:2|1:2|1:2,0:0:0:0:
291,188,42563,2,0,P|293:232|304:279,1,90,0|10,1:2|1:2,0:0:0:0:
343,325,42992,2,0,L|237:339,1,90,2|2,0:0|0:0,0:0:0:0:
194,359,43421,1,8,1:0:0:0:
166,236,43706,1,0,1:0:0:0:
46,277,43992,6,0,P|31:228|21:178,2,90,10|0|8,1:2|1:0|1:2,0:0:0:0:
143,359,44849,2,0,B|185:361|180:329|243:324,1,90,2|10,1:2|1:2,0:0:0:0:
242,265,45278,2,0,P|250:226|259:156,1,90,2|2,0:2|0:0,0:0:0:0:
240,115,45706,1,8,1:0:0:0:
113,114,45992,1,0,1:0:0:0:
12,189,46278,6,0,P|3:143|0:97,2,90,10|0|8,1:2|1:0|1:0,0:0:0:0:
137,204,47135,1,2,1:2:0:0:
196,315,47421,2,0,B|278:308|261:366|371:358,1,180,10|8,1:2|1:0,0:0:0:0:
451,265,48278,6,0,P|449:216|443:167,1,90,4|0,1:2|0:0,0:0:0:0:
445,112,48706,2,0,P|396:112|347:132,1,90,0|0,1:0|0:0,0:0:0:0:
310,168,49135,1,0,1:2:0:0:
281,46,49421,6,0,L|177:34,1,90,2|2,1:2|0:0,0:0:0:0:
128,29,49849,2,0,L|110:134,1,90,0|0,1:0|0:0,0:0:0:0:
108,181,50278,1,2,1:2:0:0:
210,255,50563,6,0,B|205:313|205:313|178:342,1,90,2|0,1:2|0:0,0:0:0:0:
121,349,50992,2,0,L|31:359,1,90,0|0,1:0|0:0,0:0:0:0:
16,297,51421,1,2,1:2:0:0:
21,171,51706,6,0,P|14:128|4:76,1,90,2|0,1:2|0:0,0:0:0:0:
53,40,52135,2,0,P|102:28|156:30,1,90,0|0,1:0|0:0,0:0:0:0:
202,44,52563,1,2,1:2:0:0:
123,142,52849,6,0,B|111:178|125:213|125:213|161:226,1,90,2|0,1:2|0:0,0:0:0:0:
204,229,53278,2,0,L|306:216,1,90,0|0,1:0|0:0,0:0:0:0:
332,168,53706,1,2,1:2:0:0:
455,195,53992,6,0,P|462:245|452:289,1,90,2|2,1:2|0:0,0:0:0:0:
416,334,54421,2,0,L|315:357,1,90,0|0,1:0|0:0,0:0:0:0:
266,343,54849,1,2,1:2:0:0:
140,337,55135,6,0,B|93:336|94:314|42:312,2,90,2|0|0,1:2|1:0|1:0,0:0:0:0:
240,262,55992,1,2,1:2:0:0:
122,215,56278,2,0,B|68:130|109:37,1,180,0|0,1:0|3:0,0:0:0:0:
358,28,57421,6,0,B|388:76|359:125,1,90,4|8,1:0|1:0,0:0:0:0:
318,156,57849,2,0,B|358:154|369:178|418:186,1,90,2|0,0:0|0:0,0:0:0:0:
460,210,58278,1,10,1:2:0:0:
403,323,58563,6,0,P|368:327|299:338,1,90,2|10,1:2|1:2,0:0:0:0:
254,312,58992,1,2,0:0:0:0:
133,349,59278,2,0,P|129:325|125:296,1,45,2|10,0:0|1:2,0:0:0:0:
75,267,59563,2,0,B|59:237|59:237|64:173,1,90,2|0,0:0|0:0,0:0:0:0:
75,118,59992,1,10,1:2:0:0:
163,28,60278,1,2,1:2:0:0:
194,144,60563,1,10,1:2:0:0:
194,144,60706,6,0,L|285:132,1,90,2|0,0:0|0:0,0:0:0:0:
334,94,61135,1,10,1:2:0:0:
442,157,61421,2,0,B|462:190|462:190|444:253,1,90,2|10,1:2|1:2,0:0:0:0:
355,325,61992,6,0,B|302:309|255:355,1,90,2|8,1:2|1:0,0:0:0:0:
220,302,62421,2,0,B|188:334|135:318,1,90,2|0,0:0|0:0,0:0:0:0:
74,305,62849,1,10,1:2:0:0:
28,187,63135,6,0,B|16:160|16:160|26:81,1,90,2|10,1:2|1:2,0:0:0:0:
41,39,63563,1,2,0:0:0:0:
163,69,63849,2,0,P|187:65|216:61,1,45,2|10,0:0|1:2,0:0:0:0:
266,38,64135,2,0,B|285:29|285:29|363:57,1,90,2|2,0:0|0:0,0:0:0:0:
405,82,64563,2,0,P|450:80|495:73,2,90,10|2|10,1:2|1:2|1:2,0:0:0:0:
303,156,65421,5,0,1:0:0:0:
303,156,65992,2,0,P|300:202|310:262,1,90,0|0,3:0|3:0,0:0:0:0:
430,261,66563,6,0,P|437:305|436:350,1,90,6|8,1:0|1:0,0:0:0:0:
373,340,66992,2,0,P|328:347|282:357,1,90,2|0,0:1|0:0,0:0:0:0:
221,346,67421,1,10,1:0:0:0:
48,268,67849,6,0,B|30:289|30:289|21:316|38:355,2,90,2|2|2,0:1|0:1|0:1,0:0:0:0:
75,211,68563,1,8,1:0:0:0:
70,84,68849,6,0,B|104:78|104:78|121:66|121:66|172:58,1,90,2|8,1:0|1:0,0:0:0:0:
216,79,69278,2,0,L|318:85,1,90,2|0,0:1|0:0,0:0:0:0:
362,56,69706,1,10,1:0:0:0:
503,181,70135,6,0,L|512:271,2,90,2|2|2,0:1|0:1|0:1,0:0:0:0:
494,118,70849,1,8,1:0:0:0:
389,47,71135,6,0,P|343:43|286:49,1,90,2|8,1:0|1:0,0:0:0:0:
237,60,71563,2,0,L|254:158,1,90,2|0,0:1|0:0,0:0:0:0:
211,197,71992,1,10,1:0:0:0:
22,216,72421,6,0,L|31:306,2,90,2|2|2,0:1|0:1|0:1,0:0:0:0:
41,156,73135,1,8,1:0:0:0:
141,79,73421,6,0,P|148:123|147:168,1,90,2|8,1:0|1:0,0:0:0:0:
208,179,73849,2,0,L|298:173,1,90,2|0,0:1|0:0,0:0:0:0:
346,132,74278,1,10,1:0:0:0:
294,313,74706,6,0,L|204:322,1,90,2|10,0:1|0:1,0:0:0:0:
146,295,75135,1,8,1:0:0:0:
116,172,75421,1,0,1:0:0:0:
237,139,75706,1,4,1:0:0:0:
57,129,84849,6,0,P|40:170|48:214,1,90,4|10,1:2|0:0,0:0:0:0:
84,266,85278,2,0,P|131:263|225:261,1,135,2|10,1:2|0:0,0:0:0:0:
279,245,85849,2,0,L|280:189,1,45,2|0,0:0|0:0,0:0:0:0:
402,55,86421,2,0,B|421:134|408:189,1,135,2|10,1:2|0:0,0:0:0:0:
359,228,86992,6,0,L|366:280,1,45,2|0,0:0|1:0,0:0:0:0:
265,349,87421,1,10,0:0:0:0:
265,349,87563,2,0,L|245:204,1,135,2|8,1:2|0:0,0:0:0:0:
283,163,88135,2,0,L|272:62,2,90,2|2|2,0:0|0:0|1:2,0:0:0:0:
359,263,88992,2,0,P|388:259|410:254,1,45,2|8,0:0|0:0,0:0:0:0:
481,161,89421,6,0,B|444:128|444:128|395:133|362:186,1,135,0|0,1:0|1:0,0:0:0:0:
315,197,89992,1,2,0:0:0:0:
293,324,90278,1,10,0:0:0:0:
293,324,90421,2,0,B|240:320|240:320|204:332|204:332|152:328,1,135,2|8,0:0|0:0,0:0:0:0:
98,339,90992,2,0,P|86:296|91:204,1,135,2|10,1:2|0:0,0:0:0:0:
114,148,91563,2,0,L|107:97,1,45,2|0,0:0|1:0,0:0:0:0:
220,46,91992,6,0,L|314:54,1,90,10|2,0:0|0:0,0:0:0:0:
434,72,92563,1,10,0:0:0:0:
412,199,92849,1,10,3:2:0:0:
412,199,93135,2,0,B|396:213|396:213|337:179|275:235,1,135,0|8,3:0|1:3,0:0:0:0:
136,333,93992,6,0,B|120:307|120:307|115:281|121:234,2,90,4|10|2,1:0|1:2|1:2,0:0:0:0:
261,317,94849,1,10,1:2:0:0:
236,193,95135,2,0,P|229:148|222:103,1,90,2|8,1:2|1:0,0:0:0:0:
179,58,95563,2,0,B|138:73|90:73,1,90,2|2,0:0|0:0,0:0:0:0:
37,107,95992,1,10,1:2:0:0:
19,231,96278,1,0,1:0:0:0:
87,336,96563,6,0,B|124:328|124:328|144:331|144:331|176:323,2,90,10|2|10,1:2|1:2|1:2,0:0:0:0:
146,224,97421,2,0,P|191:212|248:214,1,90,2|10,1:2|1:2,0:0:0:0:
291,238,97849,2,0,B|321:242|321:242|395:221,1,90,2|2,0:0|0:0,0:0:0:0:
387,162,98278,1,8,1:0:0:0:
265,129,98563,1,0,0:0:0:0:
141,102,98849,6,0,P|126:53|116:3,2,90,10|2|10,1:2|1:2|1:2,0:0:0:0:
245,182,99706,2,0,P|241:217|233:276,1,90,2|8,1:2|1:0,0:0:0:0:
194,321,100135,2,0,P|155:313|85:304,1,90,2|2,0:0|0:0,0:0:0:0:
51,339,100563,1,8,1:0:0:0:
8,220,100849,5,0,1:0:0:0:
13,93,101135,2,0,L|110:99,1,90,10|2,1:2|1:2,0:0:0:0:
220,53,101706,1,10,1:2:0:0:
326,121,101992,2,0,P|329:166|328:221,1,90,10|10,1:2|1:2,0:0:0:0:
278,249,102421,2,0,B|243:247|232:280|181:275,2,90,2|10|10,0:0|0:0|0:0,0:0:0:0:
317,298,103135,1,4,1:2:0:0:
167,85,112278,6,0,B|126:77|111:112|63:115,2,90,6|2|10,1:0|1:0|0:1,0:0:0:0:
286,45,113135,1,2,0:0:0:0:
395,107,113421,2,0,B|412:147|412:147|403:212,1,90,2|2,1:0|0:0,0:0:0:0:
366,242,113849,1,0,0:0:0:0:
366,242,113992,2,0,L|264:236,1,90,10|0,0:1|0:0,0:0:0:0:
153,265,114563,6,0,P|107:272|80:315,1,90,6|0,1:0|1:0,0:0:0:0:
40,352,114992,1,2,1:0:0:0:
40,352,115135,2,0,L|27:255,1,90,10|0,0:1|0:0,0:0:0:0:
87,151,115706,2,0,L|87:57,1,90,2|0,1:0|1:0,0:0:0:0:
148,38,116135,1,0,0:0:0:0:
148,38,116278,2,0,L|206:32,1,45,10|2,0:1|1:1,0:0:0:0:
243,71,116563,2,0,L|301:65,1,45,2|2,0:1|0:1,0:0:0:0:
345,38,116849,6,0,B|385:36|385:36|416:44|434:77,1,90,2|2,1:0|1:0,0:0:0:0:
443,188,117421,2,0,P|391:193|344:198,1,90,10|0,0:1|0:0,0:0:0:0:
229,213,117992,2,0,B|209:182|209:182|206:110,2,90,2|2|10,1:0|1:0|0:1,0:0:0:0:
442,347,119135,6,0,L|336:356,1,90,2|0,1:0|1:0,0:0:0:0:
290,358,119563,2,0,L|198:356,1,90,2|0,1:0|1:0,0:0:0:0:
142,330,119992,1,2,0:3:0:0:
252,268,120278,2,0,P|299:265|342:263,2,90,2|2|2,0:0|1:3|1:2,0:0:0:0:
58,106,121421,6,0,L|161:115,1,90,4|0,1:2|0:0,0:0:0:0:
175,57,121849,2,0,L|273:50,1,90,0|0,1:0|0:0,0:0:0:0:
327,41,122278,1,2,1:2:0:0:
417,129,122563,6,0,P|371:131|312:142,1,90,2|2,1:2|0:2,0:0:0:0:
282,182,122992,2,0,B|276:211|276:211|286:287,1,90,0|0,1:0|0:0,0:0:0:0:
330,314,123421,1,2,1:2:0:0:
216,368,123706,6,0,B|180:370|158:363|158:363|129:336,1,90,2|0,1:2|0:0,0:0:0:0:
80,308,124135,2,0,L|70:211,1,90,0|0,1:0|0:0,0:0:0:0:
82,156,124563,1,2,1:2:0:0:
70,30,124849,5,2,1:2:0:0:
195,23,125135,2,0,P|246:17|298:14,2,90,2|2|2,0:0|0:0|1:2,0:0:0:0:
177,147,125992,6,0,B|164:182|169:210|169:210|197:238,1,90,2|0,1:2|0:0,0:0:0:0:
241,260,126421,2,0,P|288:255|334:247,1,90,0|0,1:0|0:0,0:0:0:0:
389,228,126849,1,2,1:2:0:0:
472,133,127135,6,0,P|479:83|469:39,1,90,2|2,1:2|0:0,0:0:0:0:
408,37,127563,2,0,L|318:50,1,90,0|0,1:0|0:0,0:0:0:0:
256,41,127992,1,2,1:2:0:0:
129,42,128278,6,0,P|122:87|136:131,2,90,2|0|0,1:2|1:0|1:0,0:0:0:0:
232,113,129135,1,2,1:2:0:0:
350,156,129421,2,0,P|380:241|341:332,1,180,2|0,3:2|1:0,0:0:0:0:
191,98,131421,5,8,0:0:0:0:
191,98,131706,2,0,B|140:83|88:100,1,90,4|8,1:0|1:0,0:0:0:0:
40,111,132135,2,0,B|25:162|42:214,1,90,2|0,0:0|0:0,0:0:0:0:
54,260,132563,1,10,1:2:0:0:
156,333,132849,6,0,P|191:337|260:348,1,90,2|10,1:2|1:2,0:0:0:0:
307,336,133278,1,2,0:0:0:0:
432,325,133563,2,0,P|428:301|424:272,1,45,2|10,0:0|1:2,0:0:0:0:
396,224,133849,2,0,B|380:194|380:194|385:130,1,90,2|0,0:0|0:0,0:0:0:0:
391,75,134278,2,0,B|434:68|439:85|485:77,2,90,10|2|10,1:2|1:2|1:2,0:0:0:0:
328,64,134992,6,0,P|289:61|237:52,1,90,2|0,0:0|0:0,0:0:0:0:
176,41,135421,1,10,1:2:0:0:
56,79,135706,2,0,B|36:112|36:112|42:178,1,90,2|10,1:2|1:2,0:0:0:0:
77,283,136278,6,0,B|122:300|184:271,1,90,2|8,1:2|1:0,0:0:0:0:
226,296,136706,2,0,B|262:274|325:282,1,90,2|0,0:0|0:0,0:0:0:0:
373,300,137135,1,10,1:2:0:0:
322,185,137421,6,0,B|310:158|310:158|311:129|326:82,1,90,2|10,1:2|1:2,0:0:0:0:
379,75,137849,1,2,0:0:0:0:
256,43,138135,2,0,P|232:39|203:35,1,45,2|10,0:0|1:2,0:0:0:0:
153,61,138421,2,0,B|133:71|133:71|56:80,1,90,2|2,0:0|0:0,0:0:0:0:
42,137,138849,2,0,P|44:182|51:227,2,90,10|2|10,1:2|1:2|1:2,0:0:0:0:
103,151,139563,5,10,0:2:0:0:
219,134,140849,6,0,B|234:83|217:31,2,90,4|8|0,1:0|1:0|1:0,0:0:0:0:
126,219,141706,1,10,1:2:0:0:
163,339,141992,6,0,P|198:343|267:354,2,90,2|10|0,1:2|1:2|1:0,0:0:0:0:
42,321,142849,1,10,1:2:0:0:
42,321,142992,2,0,P|33:273|31:227,1,90,2|0,0:0|0:0,0:0:0:0:
83,195,143421,1,10,1:2:0:0:
206,172,143706,1,2,1:2:0:0:
233,295,143992,1,10,1:2:0:0:
233,295,144135,6,0,P|184:303|133:318,1,90,2|0,0:0|0:0,0:0:0:0:
83,328,144563,2,0,B|67:290|64:265|64:265|68:227,2,90,10|2|10,1:2|1:2|1:2,0:0:0:0:
160,227,145421,6,0,B|195:222|217:215|217:215|250:187,2,90,2|8|0,1:2|1:0|0:0,0:0:0:0:
78,130,146278,1,10,1:2:0:0:
197,92,146563,2,0,P|196:57|191:-14,2,90,2|10|0,1:2|1:2|0:0,0:0:0:0:
135,204,147421,5,10,1:2:0:0:
135,204,147563,2,0,P|138:257|142:300,1,90,2|0,0:0|0:0,0:0:0:0:
169,356,147992,1,10,1:2:0:0:
169,356,148135,2,0,P|218:356|264:346,1,90,2|0,0:0|0:0,0:0:0:0:
289,295,148563,1,10,1:2:0:0:
289,295,148706,2,0,B|392:319|431:247|431:247|409:156|464:104,1,315,2|0,0:0|3:0,0:0:0:0:
362,27,149992,5,2,0:1:0:0:
240,45,150278,1,4,1:0:0:0:
240,45,150421,2,0,P|195:52|149:62,1,90,2|0,0:1|0:0,0:0:0:0:
92,84,150849,1,10,1:0:0:0:
30,263,151278,6,0,B|31:298|40:331|40:331|53:347,2,90,2|2|2,0:1|0:1|0:1,0:0:0:0:
60,207,151992,1,8,1:0:0:0:
134,308,152278,6,0,P|183:305|237:283,1,90,2|8,1:0|1:0,0:0:0:0:
279,267,152706,2,0,B|321:269|321:269|380:288,1,90,2|0,0:1|0:0,0:0:0:0:
421,314,153135,1,10,1:0:0:0:
476,133,153563,6,0,L|467:43,2,90,2|2|2,0:1|0:1|0:1,0:0:0:0:
448,190,154278,1,8,1:0:0:0:
345,116,154563,6,0,P|299:120|242:118,1,90,2|8,1:0|1:0,0:0:0:0:
192,130,154992,2,0,L|183:34,1,90,2|0,0:1|0:0,0:0:0:0:
120,39,155421,1,10,1:0:0:0:
25,202,155849,6,0,P|14:237|16:292,2,90,2|2|2,0:1|0:1|0:1,0:0:0:0:
69,157,156563,1,8,1:0:0:0:
162,239,156849,6,0,L|155:335,1,90,2|8,1:0|1:0,0:0:0:0:
211,358,157278,2,0,B|240:362|240:362|301:352,1,90,2|0,0:1|0:0,0:0:0:0:
341,304,157706,1,10,1:0:0:0:
468,164,158135,6,0,B|479:125|479:125|464:69,2,90,2|2|0,0:1|0:1|0:0,0:0:0:0:
430,214,158849,1,8,1:0:0:0:
331,292,159135,6,0,P|284:296|228:294,1,90,6|8,1:0|1:0,0:0:0:0:
179,309,159563,2,0,L|163:220,1,90,2|0,0:1|0:0,0:0:0:0:
182,160,159992,1,10,1:0:0:0:
370,140,160421,6,0,L|379:50,2,90,2|2|2,0:1|0:1|0:1,0:0:0:0:
364,202,161135,1,8,0:0:0:0:
346,326,161421,6,0,P|298:331|247:341,1,90,2|8,1:0|1:0,0:0:0:0:
195,323,161849,2,0,P|152:325|106:338,1,90,2|0,0:1|0:0,0:0:0:0:
60,293,162278,1,10,1:0:0:0:
114,112,162706,6,0,P|114:68|100:23,2,90,2|2|2,0:1|0:1|0:1,0:0:0:0:
74,162,163421,1,8,1:0:0:0:
86,287,163706,6,0,B|127:284|142:300|189:289,1,90,2|8,1:0|1:0,0:0:0:0:
229,258,164135,2,0,L|327:275,1,90,2|0,0:1|0:0,0:0:0:0:
375,298,164563,1,10,1:0:0:0:
447,125,164992,6,0,P|452:87|438:35,2,90,2|2|2,0:1|0:1|0:1,0:0:0:0:
403,170,165706,1,8,0:0:0:0:
279,150,165992,6,0,P|234:152|174:161,1,90,2|8,1:0|1:0,0:0:0:0:
136,192,166421,2,0,L|153:290,1,90,2|0,0:1|0:0,0:0:0:0:
112,330,166849,2,0,B|81:335|81:335|62:347|62:347|20:357,2,90,10|0|8,1:0|1:0|3:1,0:0:0:0:
168,358,167563,2,0,B|288:355|255:269|382:281,1,225,2|4,3:1|1:2,0:0:0:0:
449,181,168563,6,0,P|454:138|439:91,1,90,2|2,0:0|0:0,0:0:0:0:
333,27,169135,2,0,P|328:70|343:117,1,90,2|0,0:0|0:0,0:0:0:0:
242,192,169706,2,0,L|137:187,1,90
99,152,170135,2,0,L|42:162,2,45,2|2|2,0:0|0:0|0:0,0:0:0:0:
84,340,170849,6,0,P|73:297|86:243,1,90,2|2,0:0|0:0,0:0:0:0:
201,214,171421,2,0,L|210:165,1,45,2|2,0:0|0:0,0:0:0:0:
243,48,171849,2,0,B|213:34|213:34|141:37,1,90,2|2,0:0|0:0,0:0:0:0:
49,104,172421,2,0,L|-8:114,2,45,2|2|2,0:0|0:0|0:0,0:0:0:0:
222,179,173135,6,0,L|316:172,1,90,2|2,0:0|0:0,0:0:0:0:
425,116,173706,2,0,L|442:59,2,45,2|0|0,0:0|0:0|0:0,0:0:0:0:
413,178,174135,2,0,L|426:273,1,90,2|2,0:0|0:0,0:0:0:0:
328,348,174706,2,0,L|271:358,2,45,2|2|2,0:0|0:0|0:0,0:0:0:0:
159,262,175421,6,0,P|144:312|163:353,1,90,2|2,0:0|0:0,0:0:0:0:
258,269,175992,1,2,0:0:0:0:
258,269,176135,2,0,L|276:160,2,90,2|2|2,0:0|0:0|0:0,0:0:0:0:
181,168,176992,2,0,B|167:126|167:126|177:62,1,90,2|2,0:0|0:0,0:0:0:0:
