osu file format v14

[General]
AudioFilename: audio.mp3
AudioLeadIn: 0
PreviewTime: 67376
Countdown: 0
SampleSet: Soft
StackLeniency: 0.7
Mode: 3
LetterboxInBreaks: 0
SpecialStyle: 0
WidescreenStoryboard: 1

[Editor]
Bookmarks: 376,13176,25976,38776,51576,80376,96376,109176,121976,134776,150776,179576,192376,208376,221176,227576,233976,253176
DistanceSpacing: 2
BeatDivisor: 4
GridSize: 4
TimelineZoom: 1.2

[Metadata]
Title:Houmatsumugen Kochoujin
TitleUnicode:泡沫夢幻・胡蝶刃
Artist:Narmaya (CV: M.A.O)
ArtistUnicode:ナルメア (CV: M.A.O)
Creator:Critical_Star
Version:DH's 4K Kyokasuigetsu
Source:グランブルーファンタジー
Tags:character song original video game soundtrack granblue fantasy gbf black butterfly japanese DH dudehacker Drum-hitnormal
BeatmapID:1630017
BeatmapSetID:775728

[Difficulty]
HPDrainRate:8
CircleSize:4
OverallDifficulty:8
ApproachRate:5
SliderMultiplier:1.4
SliderTickRate:1

[Events]
//Background and Video events
0,0,"BG.jpg",0,0
//Break Periods
//Storyboard Layer 0 (Background)
//Storyboard Layer 1 (Fail)
//Storyboard Layer 2 (Pass)
//Storyboard Layer 3 (Foreground)
//Storyboard Layer 4 (Overlay)
//Storyboard Sound Samples
Sample,376,0,"intro.mp3",100
Sample,12376,0,"dance.mp3",100
Sample,37976,0,"letsgo.mp3",100
Sample,121376,0,"dance2.mp3",100
Sample,252376,0,"owari.mp3",100
Sample,270376,0,"victory.mp3",100

[TimingPoints]
376,400,4,2,1,30,1,0

[HitObjects]
64,192,376,5,0,0:0:0:0:
192,192,376,1,0,0:0:0:0:
320,192,576,1,0,0:0:0:0:
64,192,776,1,0,0:0:0:0:
192,192,976,1,0,0:0:0:0:
448,192,1076,1,0,0:0:0:0:
320,192,1276,1,0,0:0:0:0:
448,192,1476,1,0,0:0:0:0:
192,192,1576,1,0,0:0:0:0:
320,192,1776,1,0,0:0:0:0:
64,192,1976,1,0,0:0:0:0:
192,192,2176,1,0,0:0:0:0:
320,192,2376,1,0,0:0:0:0:
192,192,2576,1,0,0:0:0:0:
448,192,2676,1,0,0:0:0:0:
320,192,2876,1,0,0:0:0:0:
448,192,3076,1,0,0:0:0:0:
192,192,3176,1,0,0:0:0:0:
64,192,3376,1,0,0:0:0:0:
192,192,3576,1,0,0:0:0:0:
320,192,3776,1,0,0:0:0:0:
64,192,3976,1,0,0:0:0:0:
192,192,4176,1,0,0:0:0:0:
448,192,4276,1,0,0:0:0:0:
320,192,4476,1,0,0:0:0:0:
448,192,4676,1,0,0:0:0:0:
192,192,4776,1,0,0:0:0:0:
320,192,4976,1,0,0:0:0:0:
64,192,5176,1,0,0:0:0:0:
192,192,5376,1,0,0:0:0:0:
320,192,5576,1,0,0:0:0:0:
192,192,5776,1,0,0:0:0:0:
448,192,5876,1,0,0:0:0:0:
320,192,6076,1,0,0:0:0:0:
448,192,6276,1,0,0:0:0:0:
192,192,6376,1,0,0:0:0:0:
64,192,6576,1,0,0:0:0:0:
64,192,6776,1,0,0:0:0:0:
320,192,6776,1,0,0:0:0:0:
448,192,6776,1,0,0:0:0:0:
192,192,6876,1,0,0:0:0:0:
64,192,6976,1,0,0:0:0:0:
448,192,7076,1,0,0:0:0:0:
320,192,7176,1,0,0:0:0:0:
192,192,7276,1,0,0:0:0:0:
64,192,7376,1,0,0:0:0:0:
448,192,7476,1,0,0:0:0:0:
320,192,7576,1,0,0:0:0:0:
192,192,7676,1,0,0:0:0:0:
64,192,7776,1,0,0:0:0:0:
448,192,7876,1,0,0:0:0:0:
320,192,7976,1,0,0:0:0:0:
192,192,8076,1,0,0:0:0:0:
64,192,8176,1,0,0:0:0:0:
448,192,8276,1,0,0:0:0:0:
320,192,8376,1,0,0:0:0:0:
192,192,8476,1,0,0:0:0:0:
64,192,8576,1,0,0:0:0:0:
448,192,8676,1,0,0:0:0:0:
320,192,8776,1,0,0:0:0:0:
192,192,8876,1,0,0:0:0:0:
64,192,8976,1,0,0:0:0:0:
448,192,9076,1,0,0:0:0:0:
320,192,9176,1,0,0:0:0:0:
192,192,9276,1,0,0:0:0:0:
64,192,9376,1,0,0:0:0:0:
448,192,9476,1,0,0:0:0:0:
320,192,9576,1,0,0:0:0:0:
192,192,9676,1,0,0:0:0:0:
64,192,9776,1,0,0:0:0:0:
448,192,9876,1,0,0:0:0:0:
64,192,9976,1,0,0:0:0:0:
192,192,9976,1,0,0:0:0:0:
320,192,9976,1,0,0:0:0:0:
448,192,10076,1,0,0:0:0:0:
64,192,10176,1,0,0:0:0:0:
192,192,10276,1,0,0:0:0:0:
320,192,10376,1,0,0:0:0:0:
64,192,10476,1,0,0:0:0:0:
448,192,10576,1,0,0:0:0:0:
192,192,10676,1,0,0:0:0:0:
64,192,10776,1,0,0:0:0:0:
320,192,10776,1,0,0:0:0:0:
448,192,10776,1,0,0:0:0:0:
192,192,10876,1,0,0:0:0:0:
64,192,10976,1,0,0:0:0:0:
448,192,11076,1,0,0:0:0:0:
320,192,11176,1,0,0:0:0:0:
192,192,11276,1,0,0:0:0:0:
64,192,11376,1,0,0:0:0:0:
448,192,11476,1,0,0:0:0:0:
64,192,11576,1,0,0:0:0:0:
192,192,11576,1,0,0:0:0:0:
320,192,11576,1,0,0:0:0:0:
448,192,11676,1,0,0:0:0:0:
320,192,11776,1,0,0:0:0:0:
64,192,11876,1,0,0:0:0:0:
192,192,11876,1,0,0:0:0:0:
448,192,11876,1,0,0:0:0:0:
320,192,11976,1,0,0:0:0:0:
192,192,12076,1,0,0:0:0:0:
64,192,12176,1,0,0:0:0:0:
320,192,12176,1,0,0:0:0:0:
448,192,12176,1,0,0:0:0:0:
192,192,12276,1,0,0:0:0:0:
64,192,12376,1,0,0:0:0:0:
320,192,12376,1,0,0:0:0:0:
448,192,12376,1,0,0:0:0:0:
64,192,12776,1,0,0:0:0:0:
448,192,12776,1,0,0:0:0:0:
192,192,12876,1,0,0:0:0:0:
320,192,12976,1,0,0:0:0:0:
192,192,13076,1,0,0:0:0:0:
64,192,13176,128,0,14576:0:0:0:0:
320,192,13176,1,0,0:0:0:0:
448,192,13176,1,0,0:0:0:0:
448,192,13376,128,0,13576:0:0:0:0:
192,192,13576,1,0,0:0:0:0:
320,192,13576,1,0,0:0:0:0:
448,192,13776,128,0,13976:0:0:0:0:
192,192,13976,1,0,0:0:0:0:
320,192,13976,1,0,0:0:0:0:
448,192,14176,128,0,14376:0:0:0:0:
192,192,14376,1,0,0:0:0:0:
320,192,14376,1,0,0:0:0:0:
448,192,14576,128,0,14776:0:0:0:0:
192,192,14676,128,0,14776:0:0:0:0:
64,192,14776,1,0,0:0:0:0:
320,192,14776,128,0,16176:0:0:0:0:
64,192,14976,128,0,15176:0:0:0:0:
192,192,15176,1,0,0:0:0:0:
448,192,15176,1,0,0:0:0:0:
64,192,15376,128,0,15576:0:0:0:0:
192,192,15576,1,0,0:0:0:0:
448,192,15576,1,0,0:0:0:0:
64,192,15776,128,0,15976:0:0:0:0:
192,192,15976,1,0,0:0:0:0:
448,192,15976,1,0,0:0:0:0:
64,192,16176,128,0,16376:0:0:0:0:
448,192,16276,128,0,16376:0:0:0:0:
192,192,16376,128,0,17776:0:0:0:0:
320,192,16376,1,0,0:0:0:0:
320,192,16576,128,0,16776:0:0:0:0:
64,192,16776,1,0,0:0:0:0:
448,192,16776,1,0,0:0:0:0:
320,192,16976,128,0,17176:0:0:0:0:
64,192,17176,1,0,0:0:0:0:
448,192,17176,1,0,0:0:0:0:
320,192,17376,128,0,17576:0:0:0:0:
64,192,17576,1,0,0:0:0:0:
448,192,17576,1,0,0:0:0:0:
320,192,17776,128,0,17976:0:0:0:0:
192,192,17876,128,0,17976:0:0:0:0:
64,192,17976,1,0,0:0:0:0:
448,192,17976,128,0,18376:0:0:0:0:
64,192,18176,128,0,18376:0:0:0:0:
192,192,18376,1,0,0:0:0:0:
320,192,18376,128,0,18776:0:0:0:0:
64,192,18576,128,0,18776:0:0:0:0:
192,192,18776,128,0,19176:0:0:0:0:
448,192,18776,1,0,0:0:0:0:
448,192,18976,128,0,19176:0:0:0:0:
64,192,19176,128,0,19576:0:0:0:0:
320,192,19176,1,0,0:0:0:0:
448,192,19376,128,0,19576:0:0:0:0:
192,192,19576,1,0,0:0:0:0:
320,192,19576,128,0,19876:0:0:0:0:
192,192,19776,128,0,20076:0:0:0:0:
448,192,19776,128,0,19876:0:0:0:0:
64,192,19976,128,0,20276:0:0:0:0:
448,192,19976,1,0,0:0:0:0:
320,192,20176,128,0,20476:0:0:0:0:
448,192,20176,128,0,20276:0:0:0:0:
64,192,20376,1,0,0:0:0:0:
192,192,20376,128,0,20676:0:0:0:0:
64,192,20576,128,0,20876:0:0:0:0:
448,192,20576,128,0,20676:0:0:0:0:
320,192,20776,128,0,21076:0:0:0:0:
448,192,20776,1,0,0:0:0:0:
192,192,20976,128,0,21176:0:0:0:0:
448,192,20976,128,0,21076:0:0:0:0:
64,192,21076,128,0,21176:0:0:0:0:
320,192,21176,1,0,0:0:0:0:
448,192,21176,128,0,21476:0:0:0:0:
64,192,21376,128,0,21476:0:0:0:0:
320,192,21376,128,0,21576:0:0:0:0:
192,192,21576,1,0,0:0:0:0:
448,192,21576,128,0,21876:0:0:0:0:
64,192,21776,128,0,21876:0:0:0:0:
192,192,21776,128,0,21976:0:0:0:0:
64,192,21976,128,0,22276:0:0:0:0:
448,192,21976,1,0,0:0:0:0:
192,192,22176,128,0,22276:0:0:0:0:
320,192,22176,128,0,22376:0:0:0:0:
64,192,22376,128,0,22676:0:0:0:0:
448,192,22376,1,0,0:0:0:0:
192,192,22576,128,0,22676:0:0:0:0:
448,192,22576,128,0,22776:0:0:0:0:
320,192,22676,128,0,22776:0:0:0:0:
64,192,22776,128,0,23176:0:0:0:0:
192,192,22776,1,0,0:0:0:0:
320,192,22876,1,0,0:0:0:0:
192,192,22976,1,0,0:0:0:0:
448,192,23076,1,0,0:0:0:0:
192,192,23176,128,0,23576:0:0:0:0:
320,192,23176,1,0,0:0:0:0:
448,192,23276,1,0,0:0:0:0:
64,192,23376,1,0,0:0:0:0:
448,192,23476,1,0,0:0:0:0:
64,192,23576,1,0,0:0:0:0:
320,192,23576,128,0,23976:0:0:0:0:
192,192,23676,1,0,0:0:0:0:
448,192,23776,1,0,0:0:0:0:
192,192,23876,1,0,0:0:0:0:
64,192,23976,1,0,0:0:0:0:
448,192,23976,128,0,24276:0:0:0:0:
192,192,24076,1,0,0:0:0:0:
320,192,24176,128,0,24276:0:0:0:0:
192,192,24276,128,0,24376:0:0:0:0:
64,192,24376,128,0,25176:0:0:0:0:
320,192,24376,1,0,0:0:0:0:
448,192,24376,1,0,0:0:0:0:
192,192,24776,128,0,25176:0:0:0:0:
448,192,25176,128,0,25876:0:0:0:0:
192,192,25576,1,0,0:0:0:0:
320,192,25576,128,0,25976:0:0:0:0:
64,192,25976,128,0,27576:0:0:0:0:
192,192,25976,1,0,0:0:0:0:
448,192,25976,1,0,0:0:0:0:
320,192,27576,128,0,30776:0:0:0:0:
192,192,29176,128,0,32376:0:0:0:0:
448,192,30776,128,0,33976:0:0:0:0:
64,192,32376,128,0,37176:0:0:0:0:
192,192,33976,128,0,37976:0:0:0:0:
320,192,35576,128,0,37976:0:0:0:0:
448,192,37176,128,0,37976:0:0:0:0:
320,192,38376,1,0,0:0:0:0:
448,192,38376,1,0,0:0:0:0:
192,192,38476,1,0,0:0:0:0:
320,192,38576,1,0,0:0:0:0:
192,192,38676,1,0,0:0:0:0:
64,192,38776,1,0,0:0:0:0:
320,192,38776,1,0,0:0:0:0:
448,192,38776,1,0,0:0:0:0:
192,192,38876,1,0,0:0:0:0:
448,192,38976,1,0,0:0:0:0:
320,192,39076,1,0,0:0:0:0:
192,192,39176,1,0,0:0:0:0:
64,192,39176,1,0,0:0:0:0:
448,192,39276,1,0,0:0:0:0:
192,192,39376,1,0,0:0:0:0:
320,192,39476,1,0,0:0:0:0:
64,192,39576,1,0,0:0:0:0:
448,192,39576,1,0,0:0:0:0:
192,192,39676,1,0,0:0:0:0:
448,192,39776,1,0,0:0:0:0:
320,192,39876,1,0,0:0:0:0:
192,192,39976,1,0,0:0:0:0:
64,192,39976,1,0,0:0:0:0:
448,192,40076,1,0,0:0:0:0:
192,192,40176,1,0,0:0:0:0:
320,192,40276,1,0,0:0:0:0:
64,192,40376,1,0,0:0:0:0:
192,192,40376,1,0,0:0:0:0:
448,192,40476,1,0,0:0:0:0:
320,192,40576,1,0,0:0:0:0:
192,192,40676,1,0,0:0:0:0:
320,192,40776,1,0,0:0:0:0:
448,192,40776,1,0,0:0:0:0:
64,192,40876,1,0,0:0:0:0:
192,192,40976,1,0,0:0:0:0:
320,192,41076,1,0,0:0:0:0:
64,192,41176,1,0,0:0:0:0:
448,192,41176,1,0,0:0:0:0:
192,192,41276,1,0,0:0:0:0:
320,192,41376,1,0,0:0:0:0:
64,192,41476,1,0,0:0:0:0:
320,192,41576,1,0,0:0:0:0:
448,192,41576,1,0,0:0:0:0:
192,192,41676,1,0,0:0:0:0:
448,192,41776,1,0,0:0:0:0:
320,192,41876,1,0,0:0:0:0:
64,192,41976,1,0,0:0:0:0:
192,192,41976,1,0,0:0:0:0:
320,192,42076,1,0,0:0:0:0:
64,192,42176,1,0,0:0:0:0:
448,192,42276,1,0,0:0:0:0:
64,192,42376,1,0,0:0:0:0:
192,192,42376,1,0,0:0:0:0:
320,192,42476,1,0,0:0:0:0:
192,192,42576,1,0,0:0:0:0:
64,192,42676,1,0,0:0:0:0:
320,192,42776,1,0,0:0:0:0:
448,192,42776,1,0,0:0:0:0:
192,192,42876,1,0,0:0:0:0:
448,192,42976,1,0,0:0:0:0:
320,192,43076,1,0,0:0:0:0:
64,192,43176,1,0,0:0:0:0:
192,192,43176,1,0,0:0:0:0:
448,192,43276,1,0,0:0:0:0:
192,192,43376,1,0,0:0:0:0:
320,192,43476,1,0,0:0:0:0:
64,192,43576,1,0,0:0:0:0:
448,192,43576,1,0,0:0:0:0:
192,192,43676,1,0,0:0:0:0:
448,192,43776,1,0,0:0:0:0:
64,192,43876,1,0,0:0:0:0:
192,192,43976,1,0,0:0:0:0:
320,192,43976,1,0,0:0:0:0:
448,192,44076,1,0,0:0:0:0:
64,192,44176,1,0,0:0:0:0:
320,192,44276,1,0,0:0:0:0:
64,192,44376,1,0,0:0:0:0:
192,192,44376,1,0,0:0:0:0:
448,192,44476,1,0,0:0:0:0:
192,192,44576,1,0,0:0:0:0:
320,192,44676,1,0,0:0:0:0:
64,192,44776,1,0,0:0:0:0:
448,192,44776,1,0,0:0:0:0:
192,192,44876,1,0,0:0:0:0:
320,192,44976,1,0,0:0:0:0:
448,192,45076,1,0,0:0:0:0:
64,192,45176,1,0,0:0:0:0:
192,192,45176,1,0,0:0:0:0:
320,192,45276,1,0,0:0:0:0:
64,192,45376,1,0,0:0:0:0:
192,192,45476,1,0,0:0:0:0:
320,192,45576,1,0,0:0:0:0:
448,192,45576,1,0,0:0:0:0:
64,192,45676,1,0,0:0:0:0:
448,192,45776,1,0,0:0:0:0:
192,192,45876,1,0,0:0:0:0:
448,192,45976,1,0,0:0:0:0:
320,192,45976,1,0,0:0:0:0:
192,192,46076,1,0,0:0:0:0:
320,192,46176,1,0,0:0:0:0:
64,192,46276,1,0,0:0:0:0:
448,192,46376,1,0,0:0:0:0:
192,192,46376,1,0,0:0:0:0:
320,192,46476,1,0,0:0:0:0:
192,192,46576,1,0,0:0:0:0:
64,192,46676,1,0,0:0:0:0:
320,192,46776,1,0,0:0:0:0:
448,192,46776,1,0,0:0:0:0:
64,192,46876,1,0,0:0:0:0:
320,192,46976,1,0,0:0:0:0:
192,192,47076,1,0,0:0:0:0:
320,192,47176,1,0,0:0:0:0:
448,192,47176,1,0,0:0:0:0:
64,192,47276,1,0,0:0:0:0:
448,192,47376,1,0,0:0:0:0:
192,192,47476,1,0,0:0:0:0:
64,192,47576,1,0,0:0:0:0:
320,192,47576,1,0,0:0:0:0:
448,192,47676,1,0,0:0:0:0:
192,192,47776,1,0,0:0:0:0:
320,192,47876,1,0,0:0:0:0:
64,192,47976,1,0,0:0:0:0:
192,192,47976,1,0,0:0:0:0:
448,192,48076,1,0,0:0:0:0:
64,192,48176,1,0,0:0:0:0:
192,192,48276,1,0,0:0:0:0:
320,192,48376,128,0,48576:0:0:0:0:
448,192,48376,128,0,48476:0:0:0:0:
192,192,48476,128,0,48676:0:0:0:0:
64,192,48576,128,0,48776:0:0:0:0:
448,192,48676,128,0,48776:0:0:0:0:
320,192,48776,128,0,48976:0:0:0:0:
192,192,48776,128,0,48876:0:0:0:0:
448,192,48876,128,0,49076:0:0:0:0:
64,192,48976,128,0,49176:0:0:0:0:
192,192,49076,128,0,49176:0:0:0:0:
448,192,49176,128,0,49376:0:0:0:0:
320,192,49176,128,0,49276:0:0:0:0:
64,192,49276,128,0,49476:0:0:0:0:
192,192,49376,128,0,49576:0:0:0:0:
320,192,49476,128,0,49576:0:0:0:0:
448,192,49576,128,0,49776:0:0:0:0:
64,192,49576,128,0,49676:0:0:0:0:
320,192,49676,128,0,49876:0:0:0:0:
192,192,49776,128,0,49976:0:0:0:0:
64,192,49876,128,0,49976:0:0:0:0:
448,192,49976,128,0,50276:0:0:0:0:
320,192,49976,128,0,50176:0:0:0:0:
64,192,50076,128,0,50276:0:0:0:0:
192,192,50176,128,0,50376:0:0:0:0:
320,192,50276,128,0,50376:0:0:0:0:
448,192,50376,128,0,50676:0:0:0:0:
64,192,50376,128,0,50476:0:0:0:0:
192,192,50576,128,0,50676:0:0:0:0:
320,192,50576,128,0,50676:0:0:0:0:
64,192,50776,1,0,0:0:0:0:
192,192,50826,1,0,0:0:0:0:
448,192,50876,1,0,0:0:0:0:
320,192,50926,1,0,0:0:0:0:
64,192,50976,1,0,0:0:0:0:
192,192,51026,1,0,0:0:0:0:
448,192,51076,1,0,0:0:0:0:
320,192,51126,1,0,0:0:0:0:
64,192,51176,1,0,0:0:0:0:
192,192,51226,1,0,0:0:0:0:
448,192,51276,1,0,0:0:0:0:
320,192,51326,1,0,0:0:0:0:
64,192,51376,1,0,0:0:0:0:
192,192,51426,1,0,0:0:0:0:
448,192,51476,1,0,0:0:0:0:
320,192,51526,1,0,0:0:0:0:
64,192,51576,128,0,52276:0:0:0:0:
192,192,51576,1,0,0:0:0:0:
448,192,51576,128,0,53176:0:0:0:0:
320,192,51976,128,0,52376:0:0:0:0:
64,192,52376,128,0,53076:0:0:0:0:
192,192,52776,128,0,53176:0:0:0:0:
64,192,53176,128,0,54776:0:0:0:0:
320,192,53176,128,0,53876:0:0:0:0:
448,192,53576,128,0,53976:0:0:0:0:
320,192,53976,128,0,54676:0:0:0:0:
192,192,54376,128,0,54776:0:0:0:0:
320,192,54776,128,0,55476:0:0:0:0:
448,192,54776,128,0,56376:0:0:0:0:
64,192,55176,128,0,55576:0:0:0:0:
320,192,55576,128,0,56276:0:0:0:0:
192,192,55976,128,0,56376:0:0:0:0:
64,192,56376,128,0,57876:0:0:0:0:
320,192,56376,128,0,57076:0:0:0:0:
448,192,56776,128,0,57176:0:0:0:0:
320,192,57176,128,0,57876:0:0:0:0:
192,192,57576,128,0,57876:0:0:0:0:
320,192,57976,1,0,0:0:0:0:
64,192,57976,1,0,0:0:0:0:
192,192,57976,1,0,0:0:0:0:
448,192,57976,1,0,0:0:0:0:
448,192,58176,1,0,0:0:0:0:
64,192,58376,1,0,0:0:0:0:
320,192,58376,1,0,0:0:0:0:
448,192,58376,1,0,0:0:0:0:
320,192,58576,1,0,0:0:0:0:
64,192,58776,1,0,0:0:0:0:
192,192,58776,1,0,0:0:0:0:
448,192,58776,1,0,0:0:0:0:
64,192,58976,1,0,0:0:0:0:
192,192,59176,1,0,0:0:0:0:
320,192,59176,1,0,0:0:0:0:
448,192,59176,1,0,0:0:0:0:
192,192,59376,1,0,0:0:0:0:
64,192,59576,1,0,0:0:0:0:
320,192,59576,1,0,0:0:0:0:
448,192,59576,1,0,0:0:0:0:
192,192,59576,1,0,0:0:0:0:
320,192,59776,1,0,0:0:0:0:
64,192,59976,1,0,0:0:0:0:
192,192,59976,1,0,0:0:0:0:
448,192,59976,1,0,0:0:0:0:
448,192,60176,1,0,0:0:0:0:
64,192,60376,1,0,0:0:0:0:
192,192,60376,1,0,0:0:0:0:
320,192,60376,1,0,0:0:0:0:
64,192,60576,1,0,0:0:0:0:
192,192,60776,1,0,0:0:0:0:
320,192,60776,1,0,0:0:0:0:
448,192,60776,1,0,0:0:0:0:
448,192,60976,1,0,0:0:0:0:
64,192,61176,1,0,0:0:0:0:
192,192,61176,1,0,0:0:0:0:
320,192,61176,1,0,0:0:0:0:
448,192,61176,1,0,0:0:0:0:
64,192,61376,1,0,0:0:0:0:
192,192,61376,1,0,0:0:0:0:
64,192,61576,1,0,0:0:0:0:
192,192,61576,1,0,0:0:0:0:
64,192,61776,1,0,0:0:0:0:
192,192,61776,1,0,0:0:0:0:
320,192,61976,1,0,0:0:0:0:
448,192,61976,1,0,0:0:0:0:
320,192,62176,1,0,0:0:0:0:
448,192,62176,1,0,0:0:0:0:
320,192,62376,1,0,0:0:0:0:
448,192,62376,1,0,0:0:0:0:
320,192,62576,1,0,0:0:0:0:
448,192,62576,1,0,0:0:0:0:
64,192,62776,1,0,0:0:0:0:
192,192,62776,1,0,0:0:0:0:
448,192,62776,1,0,0:0:0:0:
320,192,62776,1,0,0:0:0:0:
64,192,62976,1,0,0:0:0:0:
192,192,62976,1,0,0:0:0:0:
64,192,63176,1,0,0:0:0:0:
192,192,63176,1,0,0:0:0:0:
64,192,63376,1,0,0:0:0:0:
192,192,63376,1,0,0:0:0:0:
448,192,63576,1,0,0:0:0:0:
320,192,63576,1,0,0:0:0:0:
64,192,63576,1,0,0:0:0:0:
192,192,63676,1,0,0:0:0:0:
448,192,63776,1,0,0:0:0:0:
64,192,63776,1,0,0:0:0:0:
320,192,63876,1,0,0:0:0:0:
192,192,63976,1,0,0:0:0:0:
64,192,63976,1,0,0:0:0:0:
448,192,64076,1,0,0:0:0:0:
320,192,64176,1,0,0:0:0:0:
192,192,64176,1,0,0:0:0:0:
64,192,64276,1,0,0:0:0:0:
448,192,64376,128,0,65776:0:0:0:0:
320,192,64376,1,0,0:0:0:0:
192,192,64376,1,0,0:0:0:0:
64,192,64576,128,0,65776:0:0:0:0:
192,192,64776,128,0,65776:0:0:0:0:
320,192,64976,128,0,65776:0:0:0:0:
192,192,65976,128,0,66109:0:0:0:0:
320,192,65976,128,0,66176:0:0:0:0:
448,192,65976,128,0,66242:0:0:0:0:
64,192,66242,128,0,66509:0:0:0:0:
192,192,66242,128,0,66442:0:0:0:0:
320,192,66242,128,0,66376:0:0:0:0:
192,192,66509,128,0,66642:0:0:0:0:
320,192,66509,128,0,66709:0:0:0:0:
448,192,66509,128,0,66776:0:0:0:0:
64,192,66776,128,0,67042:0:0:0:0:
192,192,66776,128,0,66976:0:0:0:0:
320,192,66776,128,0,66909:0:0:0:0:
192,192,67176,1,0,0:0:0:0:
320,192,67176,1,0,0:0:0:0:
448,192,67376,1,0,0:0:0:0:
320,192,67476,1,0,0:0:0:0:
64,192,67576,1,0,0:0:0:0:
192,192,67576,1,0,0:0:0:0:
448,192,67576,1,0,0:0:0:0:
64,192,67776,1,0,0:0:0:0:
320,192,67776,1,0,0:0:0:0:
192,192,67976,1,0,0:0:0:0:
320,192,67976,1,0,0:0:0:0:
320,192,68176,1,0,0:0:0:0:
448,192,68176,1,0,0:0:0:0:
64,192,68276,1,0,0:0:0:0:
192,192,68276,1,0,0:0:0:0:
320,192,68376,1,0,0:0:0:0:
448,192,68376,1,0,0:0:0:0:
64,192,68476,1,0,0:0:0:0:
192,192,68576,1,0,0:0:0:0:
320,192,68676,1,0,0:0:0:0:
64,192,68776,1,0,0:0:0:0:
448,192,68776,1,0,0:0:0:0:
320,192,68976,1,0,0:0:0:0:
448,192,68976,1,0,0:0:0:0:
192,192,69076,1,0,0:0:0:0:
64,192,69176,1,0,0:0:0:0:
448,192,69176,1,0,0:0:0:0:
64,192,69376,1,0,0:0:0:0:
320,192,69376,1,0,0:0:0:0:
192,192,69576,1,0,0:0:0:0:
448,192,69576,1,0,0:0:0:0:
320,192,69776,1,0,0:0:0:0:
448,192,69776,1,0,0:0:0:0:
64,192,69876,1,0,0:0:0:0:
192,192,69876,1,0,0:0:0:0:
320,192,69976,1,0,0:0:0:0:
448,192,69976,1,0,0:0:0:0:
192,192,70076,1,0,0:0:0:0:
320,192,70176,1,0,0:0:0:0:
448,192,70276,1,0,0:0:0:0:
64,192,70376,1,0,0:0:0:0:
192,192,70376,1,0,0:0:0:0:
320,192,70476,1,0,0:0:0:0:
192,192,70576,1,0,0:0:0:0:
448,192,70576,1,0,0:0:0:0:
64,192,70676,1,0,0:0:0:0:
320,192,70776,1,0,0:0:0:0:
448,192,70776,1,0,0:0:0:0:
64,192,70876,1,0,0:0:0:0:
192,192,70976,1,0,0:0:0:0:
320,192,71076,1,0,0:0:0:0:
64,192,71176,1,0,0:0:0:0:
448,192,71176,1,0,0:0:0:0:
192,192,71276,1,0,0:0:0:0:
320,192,71376,1,0,0:0:0:0:
448,192,71476,1,0,0:0:0:0:
64,192,71576,1,0,0:0:0:0:
192,192,71576,1,0,0:0:0:0:
320,192,71676,1,0,0:0:0:0:
448,192,71776,1,0,0:0:0:0:
64,192,71876,1,0,0:0:0:0:
192,192,71976,1,0,0:0:0:0:
320,192,71976,1,0,0:0:0:0:
448,192,72076,1,0,0:0:0:0:
64,192,72176,1,0,0:0:0:0:
192,192,72276,1,0,0:0:0:0:
320,192,72376,1,0,0:0:0:0:
448,192,72376,1,0,0:0:0:0:
448,192,72576,1,0,0:0:0:0:
64,192,72676,1,0,0:0:0:0:
192,192,72676,1,0,0:0:0:0:
320,192,72776,1,0,0:0:0:0:
448,192,72776,1,0,0:0:0:0:
64,192,72976,1,0,0:0:0:0:
192,192,72976,1,0,0:0:0:0:
320,192,73076,1,0,0:0:0:0:
64,192,73176,1,0,0:0:0:0:
448,192,73176,1,0,0:0:0:0:
320,192,73376,1,0,0:0:0:0:
192,192,73476,1,0,0:0:0:0:
320,192,73576,1,0,0:0:0:0:
448,192,73576,1,0,0:0:0:0:
64,192,73776,1,0,0:0:0:0:
192,192,73776,1,0,0:0:0:0:
64,192,73976,1,0,0:0:0:0:
320,192,73976,1,0,0:0:0:0:
448,192,73976,1,0,0:0:0:0:
192,192,74176,1,0,0:0:0:0:
448,192,74176,1,0,0:0:0:0:
192,192,74376,1,0,0:0:0:0:
320,192,74376,1,0,0:0:0:0:
64,192,74576,1,0,0:0:0:0:
320,192,74576,1,0,0:0:0:0:
192,192,74676,1,0,0:0:0:0:
448,192,74676,1,0,0:0:0:0:
64,192,74776,1,0,0:0:0:0:
320,192,74776,1,0,0:0:0:0:
448,192,74876,1,0,0:0:0:0:
192,192,74976,1,0,0:0:0:0:
64,192,75076,1,0,0:0:0:0:
320,192,75176,1,0,0:0:0:0:
448,192,75176,1,0,0:0:0:0:
192,192,75376,1,0,0:0:0:0:
448,192,75376,1,0,0:0:0:0:
320,192,75476,1,0,0:0:0:0:
64,192,75576,1,0,0:0:0:0:
192,192,75576,1,0,0:0:0:0:
448,192,75676,1,0,0:0:0:0:
64,192,75776,1,0,0:0:0:0:
320,192,75776,1,0,0:0:0:0:
192,192,75876,1,0,0:0:0:0:
320,192,75976,1,0,0:0:0:0:
448,192,75976,1,0,0:0:0:0:
64,192,76076,1,0,0:0:0:0:
320,192,76176,1,0,0:0:0:0:
448,192,76176,1,0,0:0:0:0:
64,192,76276,1,0,0:0:0:0:
192,192,76276,1,0,0:0:0:0:
320,192,76376,1,0,0:0:0:0:
448,192,76376,1,0,0:0:0:0:
64,192,76476,1,0,0:0:0:0:
192,192,76576,1,0,0:0:0:0:
320,192,76676,1,0,0:0:0:0:
64,192,76776,1,0,0:0:0:0:
448,192,76776,1,0,0:0:0:0:
320,192,76876,1,0,0:0:0:0:
64,192,76976,1,0,0:0:0:0:
192,192,76976,1,0,0:0:0:0:
448,192,77076,1,0,0:0:0:0:
64,192,77176,1,0,0:0:0:0:
192,192,77176,128,0,77442:0:0:0:0:
320,192,77176,1,0,0:0:0:0:
64,192,77442,1,0,0:0:0:0:
320,192,77442,1,0,0:0:0:0:
448,192,77442,128,0,77709:0:0:0:0:
64,192,77709,1,0,0:0:0:0:
192,192,77709,1,0,0:0:0:0:
320,192,77709,128,0,77976:0:0:0:0:
64,192,77976,128,0,78242:0:0:0:0:
192,192,77976,1,0,0:0:0:0:
448,192,77976,1,0,0:0:0:0:
192,192,78242,1,0,0:0:0:0:
320,192,78242,1,0,0:0:0:0:
448,192,78242,128,0,78509:0:0:0:0:
64,192,78509,1,0,0:0:0:0:
192,192,78509,128,0,78776:0:0:0:0:
320,192,78509,1,0,0:0:0:0:
64,192,78776,1,0,0:0:0:0:
320,192,78776,128,0,79042:0:0:0:0:
448,192,78776,1,0,0:0:0:0:
64,192,79042,128,0,79309:0:0:0:0:
192,192,79042,1,0,0:0:0:0:
448,192,79042,1,0,0:0:0:0:
192,192,79309,128,0,79576:0:0:0:0:
320,192,79309,1,0,0:0:0:0:
448,192,79309,1,0,0:0:0:0:
64,192,79576,1,0,0:0:0:0:
320,192,79576,1,0,0:0:0:0:
448,192,79576,1,0,0:0:0:0:
192,192,79976,1,0,0:0:0:0:
320,192,79976,1,0,0:0:0:0:
448,192,79976,1,0,0:0:0:0:
64,192,80176,1,0,0:0:0:0:
192,192,80276,1,0,0:0:0:0:
64,192,80376,1,0,0:0:0:0:
320,192,80376,1,0,0:0:0:0:
448,192,80376,1,0,0:0:0:0:
192,192,80576,1,0,0:0:0:0:
448,192,80576,1,0,0:0:0:0:
192,192,80776,1,0,0:0:0:0:
320,192,80776,1,0,0:0:0:0:
64,192,80976,1,0,0:0:0:0:
192,192,80976,1,0,0:0:0:0:
320,192,81076,1,0,0:0:0:0:
448,192,81076,1,0,0:0:0:0:
64,192,81176,1,0,0:0:0:0:
192,192,81176,1,0,0:0:0:0:
448,192,81276,1,0,0:0:0:0:
320,192,81376,1,0,0:0:0:0:
192,192,81476,1,0,0:0:0:0:
64,192,81576,1,0,0:0:0:0:
448,192,81576,1,0,0:0:0:0:
64,192,81776,1,0,0:0:0:0:
192,192,81776,1,0,0:0:0:0:
320,192,81876,1,0,0:0:0:0:
64,192,81976,1,0,0:0:0:0:
448,192,81976,1,0,0:0:0:0:
192,192,82176,1,0,0:0:0:0:
448,192,82176,1,0,0:0:0:0:
64,192,82376,1,0,0:0:0:0:
320,192,82376,1,0,0:0:0:0:
448,192,82476,1,0,0:0:0:0:
64,192,82576,1,0,0:0:0:0:
192,192,82576,1,0,0:0:0:0:
320,192,82676,1,0,0:0:0:0:
448,192,82676,1,0,0:0:0:0:
64,192,82776,1,0,0:0:0:0:
192,192,82776,1,0,0:0:0:0:
320,192,82876,1,0,0:0:0:0:
192,192,82976,1,0,0:0:0:0:
64,192,83076,1,0,0:0:0:0:
320,192,83176,1,0,0:0:0:0:
448,192,83176,1,0,0:0:0:0:
192,192,83276,1,0,0:0:0:0:
320,192,83376,1,0,0:0:0:0:
64,192,83376,1,0,0:0:0:0:
448,192,83476,1,0,0:0:0:0:
64,192,83576,1,0,0:0:0:0:
192,192,83576,1,0,0:0:0:0:
448,192,83676,1,0,0:0:0:0:
320,192,83776,1,0,0:0:0:0:
192,192,83876,1,0,0:0:0:0:
64,192,83976,1,0,0:0:0:0:
448,192,83976,1,0,0:0:0:0:
320,192,84076,1,0,0:0:0:0:
192,192,84176,1,0,0:0:0:0:
64,192,84276,1,0,0:0:0:0:
320,192,84376,1,0,0:0:0:0:
448,192,84376,1,0,0:0:0:0:
192,192,84476,1,0,0:0:0:0:
64,192,84576,1,0,0:0:0:0:
320,192,84676,1,0,0:0:0:0:
448,192,84676,1,0,0:0:0:0:
64,192,84776,1,0,0:0:0:0:
192,192,84776,1,0,0:0:0:0:
320,192,84976,1,0,0:0:0:0:
448,192,84976,1,0,0:0:0:0:
192,192,85076,1,0,0:0:0:0:
64,192,85176,1,0,0:0:0:0:
448,192,85176,1,0,0:0:0:0:
320,192,85276,1,0,0:0:0:0:
192,192,85376,1,0,0:0:0:0:
320,192,85476,1,0,0:0:0:0:
64,192,85576,1,0,0:0:0:0:
192,192,85576,1,0,0:0:0:0:
448,192,85676,1,0,0:0:0:0:
64,192,85776,1,0,0:0:0:0:
320,192,85776,1,0,0:0:0:0:
192,192,85876,1,0,0:0:0:0:
64,192,85976,1,0,0:0:0:0:
448,192,85976,1,0,0:0:0:0:
192,192,86176,1,0,0:0:0:0:
320,192,86276,1,0,0:0:0:0:
448,192,86276,1,0,0:0:0:0:
64,192,86376,1,0,0:0:0:0:
192,192,86376,1,0,0:0:0:0:
320,192,86576,1,0,0:0:0:0:
448,192,86576,1,0,0:0:0:0:
64,192,86776,1,0,0:0:0:0:
192,192,86776,1,0,0:0:0:0:
448,192,86776,1,0,0:0:0:0:
320,192,86876,1,0,0:0:0:0:
64,192,86976,1,0,0:0:0:0:
192,192,87076,1,0,0:0:0:0:
320,192,87176,1,0,0:0:0:0:
448,192,87176,1,0,0:0:0:0:
64,192,87276,1,0,0:0:0:0:
192,192,87376,1,0,0:0:0:0:
320,192,87476,1,0,0:0:0:0:
64,192,87576,1,0,0:0:0:0:
448,192,87576,1,0,0:0:0:0:
192,192,87676,1,0,0:0:0:0:
320,192,87776,1,0,0:0:0:0:
64,192,87976,1,0,0:0:0:0:
448,192,87976,1,0,0:0:0:0:
192,192,88076,1,0,0:0:0:0:
320,192,88176,1,0,0:0:0:0:
192,192,88276,1,0,0:0:0:0:
320,192,88376,1,0,0:0:0:0:
448,192,88376,1,0,0:0:0:0:
64,192,88476,1,0,0:0:0:0:
192,192,88576,1,0,0:0:0:0:
320,192,88676,1,0,0:0:0:0:
64,192,88776,1,0,0:0:0:0:
192,192,88776,1,0,0:0:0:0:
448,192,88876,1,0,0:0:0:0:
320,192,88976,1,0,0:0:0:0:
192,192,89076,1,0,0:0:0:0:
64,192,89176,1,0,0:0:0:0:
448,192,89176,1,0,0:0:0:0:
320,192,89276,1,0,0:0:0:0:
192,192,89376,1,0,0:0:0:0:
320,192,89476,1,0,0:0:0:0:
64,192,89576,1,0,0:0:0:0:
448,192,89576,1,0,0:0:0:0:
192,192,89676,1,0,0:0:0:0:
320,192,89776,1,0,0:0:0:0:
448,192,89776,1,0,0:0:0:0:
64,192,89876,1,0,0:0:0:0:
192,192,89976,1,0,0:0:0:0:
320,192,89976,1,0,0:0:0:0:
448,192,89976,1,0,0:0:0:0:
64,192,90076,1,0,0:0:0:0:
192,192,90176,1,0,0:0:0:0:
320,192,90276,1,0,0:0:0:0:
64,192,90376,1,0,0:0:0:0:
448,192,90376,1,0,0:0:0:0:
192,192,90476,1,0,0:0:0:0:
320,192,90576,1,0,0:0:0:0:
64,192,90676,1,0,0:0:0:0:
192,192,90776,1,0,0:0:0:0:
448,192,90776,1,0,0:0:0:0:
320,192,90876,1,0,0:0:0:0:
192,192,90976,1,0,0:0:0:0:
320,192,91176,1,0,0:0:0:0:
448,192,91176,1,0,0:0:0:0:
192,192,91276,1,0,0:0:0:0:
64,192,91376,1,0,0:0:0:0:
448,192,91376,1,0,0:0:0:0:
320,192,91476,1,0,0:0:0:0:
64,192,91576,128,0,91876:0:0:0:0:
192,192,91576,128,0,91776:0:0:0:0:
448,192,91576,128,0,91676:0:0:0:0:
64,192,91976,128,0,92376:0:0:0:0:
320,192,91976,128,0,92376:0:0:0:0:
448,192,91976,128,0,92976:0:0:0:0:
192,192,92376,128,0,92676:0:0:0:0:
320,192,92676,128,0,92976:0:0:0:0:
64,192,92976,128,0,93176:0:0:0:0:
192,192,93176,1,0,0:0:0:0:
320,192,93176,1,0,0:0:0:0:
448,192,93176,1,0,0:0:0:0:
64,192,93276,1,0,0:0:0:0:
320,192,93376,1,0,0:0:0:0:
192,192,93476,1,0,0:0:0:0:
320,192,93576,1,0,0:0:0:0:
448,192,93576,1,0,0:0:0:0:
64,192,93676,1,0,0:0:0:0:
448,192,93776,1,0,0:0:0:0:
320,192,93876,1,0,0:0:0:0:
64,192,93976,1,0,0:0:0:0:
192,192,93976,1,0,0:0:0:0:
448,192,94076,1,0,0:0:0:0:
192,192,94176,1,0,0:0:0:0:
320,192,94276,1,0,0:0:0:0:
64,192,94376,1,0,0:0:0:0:
448,192,94376,1,0,0:0:0:0:
192,192,94476,1,0,0:0:0:0:
320,192,94576,1,0,0:0:0:0:
448,192,94676,1,0,0:0:0:0:
64,192,94776,128,0,94909:0:0:0:0:
192,192,94776,128,0,94976:0:0:0:0:
320,192,94776,128,0,95042:0:0:0:0:
64,192,95042,128,0,95309:0:0:0:0:
192,192,95042,128,0,95242:0:0:0:0:
448,192,95042,128,0,95176:0:0:0:0:
192,192,95309,128,0,95576:0:0:0:0:
320,192,95309,128,0,95509:0:0:0:0:
448,192,95309,128,0,95442:0:0:0:0:
64,192,95576,128,0,95709:0:0:0:0:
320,192,95576,128,0,95776:0:0:0:0:
448,192,95576,128,0,95842:0:0:0:0:
64,192,95976,1,0,0:0:0:0:
320,192,95976,1,0,0:0:0:0:
192,192,96076,1,0,0:0:0:0:
448,192,96176,1,0,0:0:0:0:
320,192,96276,1,0,0:0:0:0:
64,192,96376,1,0,0:0:0:0:
192,192,96376,1,0,0:0:0:0:
448,192,96376,128,0,97776:0:0:0:0:
64,192,96576,128,0,96776:0:0:0:0:
192,192,96776,1,0,0:0:0:0:
320,192,96776,1,0,0:0:0:0:
64,192,96976,128,0,97176:0:0:0:0:
192,192,97176,1,0,0:0:0:0:
320,192,97176,1,0,0:0:0:0:
64,192,97376,128,0,97576:0:0:0:0:
192,192,97576,1,0,0:0:0:0:
320,192,97576,1,0,0:0:0:0:
64,192,97776,128,0,97976:0:0:0:0:
192,192,97776,128,0,97876:0:0:0:0:
320,192,97876,128,0,97976:0:0:0:0:
192,192,97976,128,0,99376:0:0:0:0:
448,192,97976,1,0,0:0:0:0:
448,192,98176,128,0,98376:0:0:0:0:
64,192,98376,1,0,0:0:0:0:
320,192,98376,1,0,0:0:0:0:
448,192,98576,128,0,98776:0:0:0:0:
64,192,98776,1,0,0:0:0:0:
320,192,98776,1,0,0:0:0:0:
448,192,98976,128,0,99176:0:0:0:0:
64,192,99176,1,0,0:0:0:0:
320,192,99176,1,0,0:0:0:0:
320,192,99376,128,0,99476:0:0:0:0:
448,192,99376,128,0,99576:0:0:0:0:
64,192,99476,128,0,99576:0:0:0:0:
192,192,99576,1,0,0:0:0:0:
320,192,99576,128,0,100976:0:0:0:0:
192,192,99776,128,0,99976:0:0:0:0:
64,192,99976,1,0,0:0:0:0:
448,192,99976,1,0,0:0:0:0:
192,192,100176,128,0,100376:0:0:0:0:
64,192,100376,1,0,0:0:0:0:
448,192,100376,1,0,0:0:0:0:
192,192,100576,128,0,100776:0:0:0:0:
64,192,100776,1,0,0:0:0:0:
448,192,100776,1,0,0:0:0:0:
192,192,100976,128,0,101176:0:0:0:0:
448,192,100976,128,0,101076:0:0:0:0:
320,192,101076,128,0,101176:0:0:0:0:
64,192,101176,128,0,101576:0:0:0:0:
448,192,101176,1,0,0:0:0:0:
448,192,101376,128,0,101576:0:0:0:0:
192,192,101576,128,0,101976:0:0:0:0:
320,192,101576,1,0,0:0:0:0:
448,192,101776,128,0,101976:0:0:0:0:
64,192,101976,1,0,0:0:0:0:
320,192,101976,128,0,102376:0:0:0:0:
64,192,102176,128,0,102376:0:0:0:0:
192,192,102376,1,0,0:0:0:0:
448,192,102376,128,0,102776:0:0:0:0:
64,192,102576,128,0,102776:0:0:0:0:
192,192,102776,128,0,103076:0:0:0:0:
320,192,102776,1,0,0:0:0:0:
448,192,102976,128,0,103076:0:0:0:0:
320,192,103076,128,0,103376:0:0:0:0:
64,192,103176,1,0,0:0:0:0:
192,192,103176,1,0,0:0:0:0:
192,192,103376,128,0,103576:0:0:0:0:
448,192,103376,128,0,103476:0:0:0:0:
64,192,103476,128,0,103576:0:0:0:0:
320,192,103576,128,0,103876:0:0:0:0:
448,192,103576,1,0,0:0:0:0:
64,192,103776,128,0,103876:0:0:0:0:
448,192,103876,128,0,104176:0:0:0:0:
64,192,103976,1,0,0:0:0:0:
192,192,103976,1,0,0:0:0:0:
64,192,104176,128,0,104276:0:0:0:0:
320,192,104176,128,0,104376:0:0:0:0:
448,192,104276,128,0,104376:0:0:0:0:
64,192,104376,128,0,104676:0:0:0:0:
192,192,104376,1,0,0:0:0:0:
448,192,104576,128,0,104676:0:0:0:0:
192,192,104676,128,0,104976:0:0:0:0:
320,192,104776,1,0,0:0:0:0:
448,192,104776,1,0,0:0:0:0:
320,192,104976,128,0,105176:0:0:0:0:
448,192,104976,128,0,105076:0:0:0:0:
64,192,105176,128,0,105376:0:0:0:0:
448,192,105176,128,0,105476:0:0:0:0:
192,192,105276,128,0,105476:0:0:0:0:
320,192,105376,128,0,105576:0:0:0:0:
64,192,105476,128,0,105676:0:0:0:0:
448,192,105576,128,0,105776:0:0:0:0:
320,192,105676,128,0,105876:0:0:0:0:
192,192,105776,128,0,105976:0:0:0:0:
64,192,105876,128,0,105976:0:0:0:0:
320,192,105976,1,0,0:0:0:0:
448,192,105976,128,0,106376:0:0:0:0:
192,192,106076,1,0,0:0:0:0:
320,192,106176,1,0,0:0:0:0:
64,192,106276,1,0,0:0:0:0:
192,192,106376,1,0,0:0:0:0:
320,192,106376,128,0,106776:0:0:0:0:
64,192,106476,1,0,0:0:0:0:
448,192,106576,1,0,0:0:0:0:
64,192,106676,1,0,0:0:0:0:
192,192,106776,128,0,107176:0:0:0:0:
448,192,106776,1,0,0:0:0:0:
320,192,106876,1,0,0:0:0:0:
64,192,106976,1,0,0:0:0:0:
320,192,107076,1,0,0:0:0:0:
64,192,107176,128,0,107476:0:0:0:0:
448,192,107176,1,0,0:0:0:0:
320,192,107276,1,0,0:0:0:0:
192,192,107376,128,0,107476:0:0:0:0:
448,192,107376,128,0,107476:0:0:0:0:
320,192,107476,128,0,107576:0:0:0:0:
64,192,107576,1,0,0:0:0:0:
192,192,107576,1,0,0:0:0:0:
448,192,107576,128,0,108376:0:0:0:0:
320,192,107976,128,0,108376:0:0:0:0:
64,192,108376,128,0,109076:0:0:0:0:
192,192,108776,128,0,109176:0:0:0:0:
320,192,108776,1,0,0:0:0:0:
64,192,109176,128,0,109876:0:0:0:0:
320,192,109176,1,0,0:0:0:0:
448,192,109176,128,0,109276:0:0:0:0:
448,192,109376,128,0,109476:0:0:0:0:
448,192,109576,128,0,109676:0:0:0:0:
320,192,109776,128,0,109876:0:0:0:0:
448,192,109776,128,0,109876:0:0:0:0:
64,192,109976,128,0,110076:0:0:0:0:
192,192,109976,128,0,110076:0:0:0:0:
320,192,109976,128,0,110676:0:0:0:0:
192,192,110176,128,0,110276:0:0:0:0:
192,192,110376,128,0,110476:0:0:0:0:
64,192,110576,128,0,110676:0:0:0:0:
192,192,110576,128,0,110676:0:0:0:0:
320,192,110776,128,0,110876:0:0:0:0:
320,192,110976,128,0,111076:0:0:0:0:
192,192,111176,128,0,111276:0:0:0:0:
320,192,111176,128,0,111276:0:0:0:0:
192,192,111376,128,0,111476:0:0:0:0:
64,192,111576,128,0,111676:0:0:0:0:
320,192,111576,128,0,111676:0:0:0:0:
448,192,111576,128,0,111676:0:0:0:0:
448,192,111776,128,0,111876:0:0:0:0:
64,192,111976,128,0,112076:0:0:0:0:
64,192,112176,128,0,112276:0:0:0:0:
192,192,112376,128,0,112676:0:0:0:0:
320,192,112376,128,0,112476:0:0:0:0:
320,192,112576,128,0,112676:0:0:0:0:
320,192,112776,128,0,112876:0:0:0:0:
448,192,112776,128,0,113076:0:0:0:0:
192,192,112976,128,0,113076:0:0:0:0:
320,192,112976,128,0,113076:0:0:0:0:
64,192,113176,128,0,113276:0:0:0:0:
192,192,113176,128,0,113276:0:0:0:0:
320,192,113176,128,0,113476:0:0:0:0:
64,192,113376,128,0,113476:0:0:0:0:
64,192,113576,128,0,113676:0:0:0:0:
192,192,113576,128,0,113876:0:0:0:0:
64,192,113776,128,0,113876:0:0:0:0:
448,192,113776,128,0,113876:0:0:0:0:
320,192,113876,128,0,114076:0:0:0:0:
448,192,113976,128,0,114076:0:0:0:0:
192,192,114076,128,0,114376:0:0:0:0:
448,192,114176,128,0,114276:0:0:0:0:
64,192,114376,128,0,114476:0:0:0:0:
320,192,114376,128,0,114576:0:0:0:0:
448,192,114376,128,0,114776:0:0:0:0:
64,192,114576,128,0,114676:0:0:0:0:
64,192,114776,128,0,115576:0:0:0:0:
192,192,114776,128,0,114876:0:0:0:0:
320,192,114776,128,0,114876:0:0:0:0:
320,192,114976,128,0,115076:0:0:0:0:
448,192,114976,128,0,115076:0:0:0:0:
192,192,115176,128,0,115576:0:0:0:0:
320,192,115176,128,0,115276:0:0:0:0:
320,192,115376,128,0,115476:0:0:0:0:
320,192,115576,128,0,115676:0:0:0:0:
448,192,115576,128,0,117076:0:0:0:0:
320,192,115776,128,0,115876:0:0:0:0:
320,192,115976,128,0,116076:0:0:0:0:
64,192,116176,128,0,116276:0:0:0:0:
320,192,116176,128,0,116276:0:0:0:0:
64,192,116376,128,0,116476:0:0:0:0:
192,192,116376,128,0,116476:0:0:0:0:
192,192,116576,128,0,116676:0:0:0:0:
64,192,116776,128,0,116876:0:0:0:0:
64,192,116976,128,0,117076:0:0:0:0:
192,192,116976,128,0,117076:0:0:0:0:
320,192,117176,128,0,117276:0:0:0:0:
320,192,117376,128,0,117476:0:0:0:0:
192,192,117576,128,0,117676:0:0:0:0:
448,192,117576,128,0,117676:0:0:0:0:
192,192,117776,128,0,117876:0:0:0:0:
64,192,117976,128,0,118076:0:0:0:0:
192,192,117976,128,0,118076:0:0:0:0:
448,192,117976,128,0,118076:0:0:0:0:
448,192,118176,128,0,118276:0:0:0:0:
64,192,118376,128,0,118476:0:0:0:0:
64,192,118576,128,0,118676:0:0:0:0:
192,192,118776,128,0,119576:0:0:0:0:
320,192,118776,128,0,119976:0:0:0:0:
448,192,118776,128,0,120376:0:0:0:0:
64,192,119576,128,0,121176:0:0:0:0:
192,192,119976,128,0,121176:0:0:0:0:
320,192,120376,128,0,121176:0:0:0:0:
448,192,120776,128,0,121176:0:0:0:0:
64,192,121576,1,0,0:0:0:0:
320,192,121576,1,0,0:0:0:0:
448,192,121576,1,0,0:0:0:0:
64,192,121976,1,0,0:0:0:0:
192,192,121976,1,0,0:0:0:0:
448,192,121976,1,0,0:0:0:0:
320,192,122076,1,0,0:0:0:0:
192,192,122176,1,0,0:0:0:0:
64,192,122276,1,0,0:0:0:0:
320,192,122376,1,0,0:0:0:0:
448,192,122376,1,0,0:0:0:0:
64,192,122476,1,0,0:0:0:0:
192,192,122576,1,0,0:0:0:0:
320,192,122676,1,0,0:0:0:0:
64,192,122776,1,0,0:0:0:0:
448,192,122776,1,0,0:0:0:0:
192,192,122876,1,0,0:0:0:0:
448,192,122976,1,0,0:0:0:0:
320,192,123076,1,0,0:0:0:0:
192,192,123176,1,0,0:0:0:0:
64,192,123176,1,0,0:0:0:0:
448,192,123276,1,0,0:0:0:0:
192,192,123376,1,0,0:0:0:0:
320,192,123476,1,0,0:0:0:0:
64,192,123576,1,0,0:0:0:0:
192,192,123576,1,0,0:0:0:0:
448,192,123676,1,0,0:0:0:0:
64,192,123776,1,0,0:0:0:0:
192,192,123876,1,0,0:0:0:0:
320,192,123976,1,0,0:0:0:0:
448,192,123976,1,0,0:0:0:0:
192,192,124076,1,0,0:0:0:0:
64,192,124176,1,0,0:0:0:0:
320,192,124276,1,0,0:0:0:0:
64,192,124376,1,0,0:0:0:0:
448,192,124376,1,0,0:0:0:0:
192,192,124476,1,0,0:0:0:0:
320,192,124576,1,0,0:0:0:0:
64,192,124676,1,0,0:0:0:0:
320,192,124776,1,0,0:0:0:0:
448,192,124776,1,0,0:0:0:0:
192,192,124876,1,0,0:0:0:0:
448,192,124976,1,0,0:0:0:0:
320,192,125076,1,0,0:0:0:0:
64,192,125176,1,0,0:0:0:0:
192,192,125176,1,0,0:0:0:0:
320,192,125276,1,0,0:0:0:0:
64,192,125376,1,0,0:0:0:0:
448,192,125476,1,0,0:0:0:0:
64,192,125576,1,0,0:0:0:0:
192,192,125576,1,0,0:0:0:0:
320,192,125676,1,0,0:0:0:0:
192,192,125776,1,0,0:0:0:0:
64,192,125876,1,0,0:0:0:0:
320,192,125976,1,0,0:0:0:0:
448,192,125976,1,0,0:0:0:0:
192,192,126076,1,0,0:0:0:0:
448,192,126176,1,0,0:0:0:0:
320,192,126276,1,0,0:0:0:0:
64,192,126376,1,0,0:0:0:0:
192,192,126376,1,0,0:0:0:0:
448,192,126476,1,0,0:0:0:0:
320,192,126576,1,0,0:0:0:0:
192,192,126676,1,0,0:0:0:0:
64,192,126776,1,0,0:0:0:0:
448,192,126776,1,0,0:0:0:0:
320,192,126876,1,0,0:0:0:0:
448,192,126976,1,0,0:0:0:0:
64,192,127076,1,0,0:0:0:0:
192,192,127176,1,0,0:0:0:0:
320,192,127176,1,0,0:0:0:0:
448,192,127276,1,0,0:0:0:0:
64,192,127376,1,0,0:0:0:0:
320,192,127476,1,0,0:0:0:0:
64,192,127576,1,0,0:0:0:0:
192,192,127576,1,0,0:0:0:0:
448,192,127676,1,0,0:0:0:0:
192,192,127776,1,0,0:0:0:0:
320,192,127876,1,0,0:0:0:0:
64,192,127976,1,0,0:0:0:0:
448,192,127976,1,0,0:0:0:0:
192,192,128076,1,0,0:0:0:0:
320,192,128176,1,0,0:0:0:0:
448,192,128276,1,0,0:0:0:0:
64,192,128376,1,0,0:0:0:0:
192,192,128376,1,0,0:0:0:0:
320,192,128476,1,0,0:0:0:0:
64,192,128576,1,0,0:0:0:0:
192,192,128676,1,0,0:0:0:0:
320,192,128776,1,0,0:0:0:0:
448,192,128776,1,0,0:0:0:0:
64,192,128876,1,0,0:0:0:0:
448,192,128976,1,0,0:0:0:0:
192,192,129076,1,0,0:0:0:0:
448,192,129176,1,0,0:0:0:0:
320,192,129176,1,0,0:0:0:0:
192,192,129276,1,0,0:0:0:0:
320,192,129376,1,0,0:0:0:0:
64,192,129476,1,0,0:0:0:0:
448,192,129576,1,0,0:0:0:0:
192,192,129576,1,0,0:0:0:0:
320,192,129676,1,0,0:0:0:0:
192,192,129776,1,0,0:0:0:0:
64,192,129876,1,0,0:0:0:0:
320,192,129976,1,0,0:0:0:0:
448,192,129976,1,0,0:0:0:0:
64,192,130076,1,0,0:0:0:0:
320,192,130176,1,0,0:0:0:0:
192,192,130276,1,0,0:0:0:0:
320,192,130376,1,0,0:0:0:0:
448,192,130376,1,0,0:0:0:0:
64,192,130476,1,0,0:0:0:0:
448,192,130576,1,0,0:0:0:0:
192,192,130676,1,0,0:0:0:0:
64,192,130776,1,0,0:0:0:0:
320,192,130776,1,0,0:0:0:0:
448,192,130876,1,0,0:0:0:0:
192,192,130976,1,0,0:0:0:0:
320,192,131076,1,0,0:0:0:0:
64,192,131176,1,0,0:0:0:0:
192,192,131176,1,0,0:0:0:0:
448,192,131276,1,0,0:0:0:0:
64,192,131376,1,0,0:0:0:0:
192,192,131476,1,0,0:0:0:0:
320,192,131576,128,0,131976:0:0:0:0:
448,192,131576,1,0,0:0:0:0:
64,192,131676,1,0,0:0:0:0:
448,192,131776,1,0,0:0:0:0:
192,192,131876,1,0,0:0:0:0:
64,192,131976,128,0,132176:0:0:0:0:
448,192,131976,128,0,132376:0:0:0:0:
192,192,132176,128,0,132576:0:0:0:0:
64,192,132376,128,0,132576:0:0:0:0:
320,192,132376,128,0,132776:0:0:0:0:
64,192,132776,128,0,133176:0:0:0:0:
448,192,132776,128,0,132976:0:0:0:0:
192,192,132976,128,0,133376:0:0:0:0:
320,192,133176,1,0,0:0:0:0:
448,192,133176,128,0,133476:0:0:0:0:
64,192,133476,128,0,133776:0:0:0:0:
192,192,133576,128,0,133876:0:0:0:0:
320,192,133576,1,0,0:0:0:0:
448,192,133676,128,0,133876:0:0:0:0:
320,192,133776,128,0,133976:0:0:0:0:
64,192,133976,128,0,134076:0:0:0:0:
448,192,133976,1,0,0:0:0:0:
192,192,134076,128,0,134176:0:0:0:0:
64,192,134176,128,0,134276:0:0:0:0:
192,192,134276,128,0,134376:0:0:0:0:
320,192,134376,128,0,134776:0:0:0:0:
448,192,134376,128,0,134776:0:0:0:0:
64,192,134776,128,0,135476:0:0:0:0:
192,192,134776,128,0,136376:0:0:0:0:
320,192,135176,128,0,135576:0:0:0:0:
64,192,135576,128,0,136276:0:0:0:0:
448,192,135976,128,0,136376:0:0:0:0:
64,192,136376,128,0,137976:0:0:0:0:
320,192,136376,128,0,137076:0:0:0:0:
448,192,136776,128,0,137176:0:0:0:0:
320,192,137176,128,0,137876:0:0:0:0:
192,192,137576,128,0,137976:0:0:0:0:
320,192,137976,128,0,138676:0:0:0:0:
448,192,137976,128,0,139576:0:0:0:0:
192,192,138376,128,0,138776:0:0:0:0:
320,192,138776,128,0,139476:0:0:0:0:
64,192,139176,128,0,139576:0:0:0:0:
192,192,139576,128,0,141076:0:0:0:0:
320,192,139576,128,0,140276:0:0:0:0:
64,192,139976,128,0,140376:0:0:0:0:
320,192,140376,128,0,141076:0:0:0:0:
448,192,140776,128,0,141076:0:0:0:0:
64,192,141176,1,0,0:0:0:0:
320,192,141176,1,0,0:0:0:0:
448,192,141176,1,0,0:0:0:0:
192,192,141176,1,0,0:0:0:0:
320,192,141376,1,0,0:0:0:0:
64,192,141576,1,0,0:0:0:0:
192,192,141576,1,0,0:0:0:0:
448,192,141576,1,0,0:0:0:0:
448,192,141776,1,0,0:0:0:0:
64,192,141976,1,0,0:0:0:0:
192,192,141976,1,0,0:0:0:0:
320,192,141976,1,0,0:0:0:0:
64,192,142176,1,0,0:0:0:0:
192,192,142376,1,0,0:0:0:0:
320,192,142376,1,0,0:0:0:0:
448,192,142376,1,0,0:0:0:0:
192,192,142576,1,0,0:0:0:0:
64,192,142776,1,0,0:0:0:0:
320,192,142776,1,0,0:0:0:0:
448,192,142776,1,0,0:0:0:0:
192,192,142776,1,0,0:0:0:0:
320,192,142976,1,0,0:0:0:0:
64,192,143176,1,0,0:0:0:0:
192,192,143176,1,0,0:0:0:0:
448,192,143176,1,0,0:0:0:0:
448,192,143376,1,0,0:0:0:0:
64,192,143576,1,0,0:0:0:0:
192,192,143576,1,0,0:0:0:0:
320,192,143576,1,0,0:0:0:0:
64,192,143776,1,0,0:0:0:0:
192,192,143976,1,0,0:0:0:0:
320,192,143976,1,0,0:0:0:0:
448,192,143976,1,0,0:0:0:0:
448,192,144176,1,0,0:0:0:0:
64,192,144376,1,0,0:0:0:0:
192,192,144376,1,0,0:0:0:0:
320,192,144376,1,0,0:0:0:0:
448,192,144376,1,0,0:0:0:0:
64,192,144576,1,0,0:0:0:0:
192,192,144576,1,0,0:0:0:0:
64,192,144776,1,0,0:0:0:0:
192,192,144776,1,0,0:0:0:0:
64,192,144976,1,0,0:0:0:0:
192,192,144976,1,0,0:0:0:0:
320,192,145176,1,0,0:0:0:0:
448,192,145176,1,0,0:0:0:0:
320,192,145376,1,0,0:0:0:0:
448,192,145376,1,0,0:0:0:0:
320,192,145576,1,0,0:0:0:0:
448,192,145576,1,0,0:0:0:0:
320,192,145776,1,0,0:0:0:0:
448,192,145776,1,0,0:0:0:0:
64,192,145976,1,0,0:0:0:0:
192,192,145976,1,0,0:0:0:0:
448,192,145976,1,0,0:0:0:0:
320,192,145976,1,0,0:0:0:0:
64,192,146176,1,0,0:0:0:0:
192,192,146176,1,0,0:0:0:0:
64,192,146376,1,0,0:0:0:0:
192,192,146376,1,0,0:0:0:0:
64,192,146576,1,0,0:0:0:0:
192,192,146576,1,0,0:0:0:0:
448,192,146776,1,0,0:0:0:0:
320,192,146776,1,0,0:0:0:0:
64,192,146776,1,0,0:0:0:0:
192,192,146876,1,0,0:0:0:0:
448,192,146976,1,0,0:0:0:0:
64,192,146976,1,0,0:0:0:0:
320,192,147076,1,0,0:0:0:0:
192,192,147176,1,0,0:0:0:0:
64,192,147176,1,0,0:0:0:0:
448,192,147276,1,0,0:0:0:0:
320,192,147376,1,0,0:0:0:0:
192,192,147376,1,0,0:0:0:0:
64,192,147476,1,0,0:0:0:0:
448,192,147576,128,0,148976:0:0:0:0:
320,192,147576,1,0,0:0:0:0:
192,192,147576,1,0,0:0:0:0:
64,192,147776,128,0,148976:0:0:0:0:
192,192,147976,128,0,148976:0:0:0:0:
320,192,148176,128,0,148976:0:0:0:0:
192,192,149176,128,0,149309:0:0:0:0:
320,192,149176,128,0,149376:0:0:0:0:
448,192,149176,128,0,149442:0:0:0:0:
64,192,149442,128,0,149709:0:0:0:0:
192,192,149442,128,0,149642:0:0:0:0:
320,192,149442,128,0,149576:0:0:0:0:
192,192,149709,128,0,149842:0:0:0:0:
320,192,149709,128,0,149909:0:0:0:0:
448,192,149709,128,0,149976:0:0:0:0:
64,192,149976,128,0,150242:0:0:0:0:
192,192,149976,128,0,150176:0:0:0:0:
320,192,149976,128,0,150109:0:0:0:0:
192,192,150376,1,0,0:0:0:0:
320,192,150376,1,0,0:0:0:0:
448,192,150576,1,0,0:0:0:0:
320,192,150676,1,0,0:0:0:0:
64,192,150776,128,0,150876:0:0:0:0:
192,192,150776,128,0,150876:0:0:0:0:
448,192,150776,128,0,150876:0:0:0:0:
320,192,150876,128,0,150976:0:0:0:0:
192,192,150976,128,0,151076:0:0:0:0:
448,192,150976,128,0,151076:0:0:0:0:
64,192,151076,128,0,151176:0:0:0:0:
192,192,151176,128,0,151276:0:0:0:0:
448,192,151176,128,0,151276:0:0:0:0:
320,192,151276,128,0,151376:0:0:0:0:
64,192,151376,128,0,151476:0:0:0:0:
192,192,151376,128,0,151476:0:0:0:0:
320,192,151476,128,0,151576:0:0:0:0:
448,192,151476,128,0,151576:0:0:0:0:
192,192,151576,128,0,151676:0:0:0:0:
64,192,151676,128,0,151776:0:0:0:0:
448,192,151776,128,0,151876:0:0:0:0:
192,192,151876,128,0,151976:0:0:0:0:
320,192,151976,128,0,152076:0:0:0:0:
192,192,152076,128,0,152176:0:0:0:0:
64,192,152176,128,0,152276:0:0:0:0:
320,192,152176,128,0,152276:0:0:0:0:
448,192,152276,128,0,152376:0:0:0:0:
64,192,152376,128,0,152476:0:0:0:0:
320,192,152376,128,0,152476:0:0:0:0:
192,192,152476,128,0,152576:0:0:0:0:
320,192,152576,128,0,152676:0:0:0:0:
448,192,152576,128,0,152676:0:0:0:0:
64,192,152676,128,0,152776:0:0:0:0:
320,192,152776,128,0,152876:0:0:0:0:
448,192,152776,128,0,152876:0:0:0:0:
192,192,152876,128,0,152976:0:0:0:0:
64,192,152976,128,0,153076:0:0:0:0:
320,192,152976,128,0,153076:0:0:0:0:
192,192,153076,128,0,153176:0:0:0:0:
448,192,153076,128,0,153176:0:0:0:0:
64,192,153176,128,0,153376:0:0:0:0:
192,192,153276,128,0,153476:0:0:0:0:
320,192,153376,128,0,153576:0:0:0:0:
448,192,153476,128,0,153676:0:0:0:0:
64,192,153576,128,0,153776:0:0:0:0:
192,192,153676,128,0,153876:0:0:0:0:
320,192,153776,128,0,153976:0:0:0:0:
448,192,153876,128,0,153976:0:0:0:0:
64,192,153976,128,0,154076:0:0:0:0:
192,192,153976,128,0,154076:0:0:0:0:
320,192,154076,128,0,154176:0:0:0:0:
448,192,154176,128,0,154276:0:0:0:0:
320,192,154276,128,0,154376:0:0:0:0:
192,192,154376,128,0,154476:0:0:0:0:
448,192,154376,128,0,154476:0:0:0:0:
64,192,154476,128,0,154576:0:0:0:0:
448,192,154576,128,0,154676:0:0:0:0:
192,192,154676,128,0,154776:0:0:0:0:
64,192,154776,128,0,154876:0:0:0:0:
320,192,154776,128,0,154876:0:0:0:0:
192,192,154876,128,0,154976:0:0:0:0:
64,192,154976,128,0,155076:0:0:0:0:
448,192,155076,128,0,155176:0:0:0:0:
192,192,155176,128,0,155276:0:0:0:0:
320,192,155176,128,0,155276:0:0:0:0:
64,192,155276,128,0,155376:0:0:0:0:
320,192,155376,128,0,155476:0:0:0:0:
192,192,155476,128,0,155576:0:0:0:0:
64,192,155576,128,0,155676:0:0:0:0:
320,192,155576,128,0,155676:0:0:0:0:
448,192,155676,128,0,155776:0:0:0:0:
192,192,155776,128,0,155876:0:0:0:0:
320,192,155876,128,0,155976:0:0:0:0:
448,192,155876,128,0,155976:0:0:0:0:
64,192,155976,128,0,156076:0:0:0:0:
448,192,156076,128,0,156176:0:0:0:0:
320,192,156176,128,0,156376:0:0:0:0:
192,192,156276,128,0,156476:0:0:0:0:
64,192,156376,128,0,156676:0:0:0:0:
448,192,156376,128,0,156576:0:0:0:0:
192,192,156676,128,0,156876:0:0:0:0:
448,192,156676,128,0,156976:0:0:0:0:
320,192,156776,128,0,156876:0:0:0:0:
320,192,156976,128,0,157176:0:0:0:0:
192,192,157076,128,0,157176:0:0:0:0:
64,192,157176,128,0,157276:0:0:0:0:
448,192,157176,128,0,157276:0:0:0:0:
192,192,157276,128,0,157376:0:0:0:0:
64,192,157376,128,0,157476:0:0:0:0:
320,192,157376,128,0,157476:0:0:0:0:
448,192,157476,128,0,157576:0:0:0:0:
64,192,157576,128,0,157676:0:0:0:0:
192,192,157576,128,0,157676:0:0:0:0:
320,192,157676,128,0,157776:0:0:0:0:
192,192,157776,128,0,157876:0:0:0:0:
448,192,157776,128,0,157876:0:0:0:0:
64,192,157876,128,0,157976:0:0:0:0:
320,192,157876,128,0,157976:0:0:0:0:
192,192,157976,128,0,158076:0:0:0:0:
448,192,157976,128,0,158076:0:0:0:0:
64,192,158076,128,0,158176:0:0:0:0:
320,192,158176,128,0,158276:0:0:0:0:
192,192,158276,128,0,158376:0:0:0:0:
320,192,158376,128,0,158476:0:0:0:0:
448,192,158376,128,0,158476:0:0:0:0:
64,192,158476,128,0,158576:0:0:0:0:
192,192,158576,128,0,158676:0:0:0:0:
448,192,158576,128,0,158676:0:0:0:0:
320,192,158676,128,0,158776:0:0:0:0:
64,192,158776,128,0,158876:0:0:0:0:
448,192,158776,128,0,158976:0:0:0:0:
320,192,158876,128,0,159076:0:0:0:0:
192,192,158976,128,0,159176:0:0:0:0:
64,192,159076,128,0,159276:0:0:0:0:
320,192,159176,128,0,159376:0:0:0:0:
448,192,159176,128,0,159276:0:0:0:0:
192,192,159276,128,0,159476:0:0:0:0:
448,192,159376,128,0,159576:0:0:0:0:
64,192,159476,128,0,159576:0:0:0:0:
320,192,159476,128,0,159676:0:0:0:0:
192,192,159576,128,0,159776:0:0:0:0:
64,192,159676,128,0,159876:0:0:0:0:
448,192,159776,128,0,159976:0:0:0:0:
320,192,159876,128,0,160076:0:0:0:0:
64,192,159976,128,0,160176:0:0:0:0:
192,192,160076,128,0,160276:0:0:0:0:
320,192,160176,128,0,160376:0:0:0:0:
448,192,160276,128,0,160376:0:0:0:0:
64,192,160376,128,0,160776:0:0:0:0:
192,192,160376,128,0,160509:0:0:0:0:
192,192,160642,128,0,161042:0:0:0:0:
320,192,160642,128,0,160776:0:0:0:0:
64,192,160909,128,0,161042:0:0:0:0:
448,192,160909,128,0,161309:0:0:0:0:
192,192,161176,128,0,161309:0:0:0:0:
320,192,161176,128,0,161576:0:0:0:0:
64,192,161442,128,0,161576:0:0:0:0:
192,192,161442,128,0,161842:0:0:0:0:
320,192,161709,128,0,161842:0:0:0:0:
448,192,161709,128,0,162109:0:0:0:0:
64,192,161976,128,0,162376:0:0:0:0:
192,192,161976,128,0,162109:0:0:0:0:
320,192,162242,128,0,162642:0:0:0:0:
448,192,162242,128,0,162376:0:0:0:0:
64,192,162509,128,0,162642:0:0:0:0:
192,192,162509,128,0,162909:0:0:0:0:
320,192,162776,128,0,162909:0:0:0:0:
448,192,162776,128,0,163176:0:0:0:0:
64,192,163176,128,0,163476:0:0:0:0:
192,192,163176,1,0,0:0:0:0:
320,192,163176,1,0,0:0:0:0:
448,192,163376,1,0,0:0:0:0:
320,192,163476,1,0,0:0:0:0:
64,192,163576,128,0,163676:0:0:0:0:
192,192,163576,128,0,163676:0:0:0:0:
448,192,163576,128,0,163676:0:0:0:0:
320,192,163676,128,0,163776:0:0:0:0:
192,192,163776,128,0,163876:0:0:0:0:
448,192,163776,128,0,163876:0:0:0:0:
64,192,163876,128,0,163976:0:0:0:0:
192,192,163976,128,0,164076:0:0:0:0:
448,192,163976,128,0,164076:0:0:0:0:
320,192,164076,128,0,164176:0:0:0:0:
64,192,164176,128,0,164276:0:0:0:0:
192,192,164176,128,0,164276:0:0:0:0:
320,192,164276,128,0,164376:0:0:0:0:
448,192,164276,128,0,164376:0:0:0:0:
192,192,164376,128,0,164476:0:0:0:0:
64,192,164476,128,0,164576:0:0:0:0:
448,192,164576,128,0,164676:0:0:0:0:
192,192,164676,128,0,164776:0:0:0:0:
320,192,164776,128,0,164876:0:0:0:0:
192,192,164876,128,0,164976:0:0:0:0:
64,192,164976,128,0,165076:0:0:0:0:
320,192,164976,128,0,165076:0:0:0:0:
448,192,165076,128,0,165176:0:0:0:0:
64,192,165176,128,0,165376:0:0:0:0:
192,192,165176,128,0,165276:0:0:0:0:
320,192,165276,128,0,165476:0:0:0:0:
192,192,165376,128,0,165576:0:0:0:0:
64,192,165476,128,0,165676:0:0:0:0:
320,192,165576,128,0,165676:0:0:0:0:
448,192,165576,128,0,165776:0:0:0:0:
192,192,165676,128,0,165876:0:0:0:0:
320,192,165776,128,0,165976:0:0:0:0:
448,192,165876,128,0,166076:0:0:0:0:
64,192,165976,128,0,166176:0:0:0:0:
192,192,165976,128,0,166076:0:0:0:0:
320,192,166076,128,0,166276:0:0:0:0:
192,192,166176,128,0,166376:0:0:0:0:
64,192,166276,128,0,166476:0:0:0:0:
320,192,166376,128,0,166576:0:0:0:0:
448,192,166376,128,0,166476:0:0:0:0:
192,192,166476,128,0,166676:0:0:0:0:
448,192,166576,128,0,166776:0:0:0:0:
320,192,166676,128,0,166776:0:0:0:0:
64,192,166776,128,0,166876:0:0:0:0:
192,192,166776,128,0,166876:0:0:0:0:
320,192,166876,128,0,166976:0:0:0:0:
448,192,166976,128,0,167076:0:0:0:0:
320,192,167076,128,0,167176:0:0:0:0:
192,192,167176,128,0,167276:0:0:0:0:
448,192,167176,128,0,167276:0:0:0:0:
64,192,167276,128,0,167376:0:0:0:0:
448,192,167376,128,0,167476:0:0:0:0:
192,192,167476,128,0,167576:0:0:0:0:
64,192,167576,128,0,167676:0:0:0:0:
320,192,167576,128,0,167676:0:0:0:0:
192,192,167676,128,0,167776:0:0:0:0:
64,192,167776,128,0,167876:0:0:0:0:
320,192,167876,128,0,167976:0:0:0:0:
448,192,167876,128,0,167976:0:0:0:0:
192,192,167976,128,0,168076:0:0:0:0:
64,192,168076,128,0,168176:0:0:0:0:
320,192,168176,128,0,168276:0:0:0:0:
448,192,168176,128,0,168276:0:0:0:0:
192,192,168276,128,0,168376:0:0:0:0:
64,192,168376,128,0,168476:0:0:0:0:
320,192,168376,128,0,168476:0:0:0:0:
448,192,168476,128,0,168576:0:0:0:0:
192,192,168576,128,0,168676:0:0:0:0:
320,192,168676,128,0,168776:0:0:0:0:
64,192,168776,128,0,168876:0:0:0:0:
448,192,168876,128,0,168976:0:0:0:0:
320,192,168976,128,0,169176:0:0:0:0:
192,192,169076,128,0,169276:0:0:0:0:
64,192,169176,128,0,169476:0:0:0:0:
448,192,169176,128,0,169376:0:0:0:0:
448,192,169476,128,0,169776:0:0:0:0:
64,192,169576,128,0,169776:0:0:0:0:
192,192,169576,128,0,169676:0:0:0:0:
320,192,169776,128,0,169976:0:0:0:0:
192,192,169876,128,0,169976:0:0:0:0:
64,192,169976,128,0,170076:0:0:0:0:
448,192,169976,128,0,170076:0:0:0:0:
192,192,170076,128,0,170176:0:0:0:0:
320,192,170176,128,0,170276:0:0:0:0:
448,192,170276,128,0,170376:0:0:0:0:
64,192,170376,128,0,170476:0:0:0:0:
192,192,170376,128,0,170476:0:0:0:0:
320,192,170476,128,0,170576:0:0:0:0:
448,192,170576,128,0,170676:0:0:0:0:
192,192,170676,128,0,170776:0:0:0:0:
320,192,170776,128,0,170876:0:0:0:0:
448,192,170776,128,0,170876:0:0:0:0:
64,192,170876,128,0,170976:0:0:0:0:
320,192,170976,128,0,171076:0:0:0:0:
192,192,171076,128,0,171176:0:0:0:0:
320,192,171176,128,0,171276:0:0:0:0:
448,192,171176,128,0,171276:0:0:0:0:
64,192,171276,128,0,171376:0:0:0:0:
192,192,171376,128,0,171476:0:0:0:0:
320,192,171476,128,0,171576:0:0:0:0:
64,192,171576,128,0,171676:0:0:0:0:
448,192,171576,128,0,171776:0:0:0:0:
320,192,171676,128,0,171876:0:0:0:0:
192,192,171776,128,0,171976:0:0:0:0:
64,192,171876,128,0,172076:0:0:0:0:
320,192,171976,128,0,172176:0:0:0:0:
448,192,171976,128,0,172076:0:0:0:0:
192,192,172076,128,0,172276:0:0:0:0:
448,192,172176,128,0,172376:0:0:0:0:
320,192,172276,128,0,172476:0:0:0:0:
64,192,172376,128,0,172476:0:0:0:0:
192,192,172376,128,0,172576:0:0:0:0:
448,192,172476,128,0,172676:0:0:0:0:
64,192,172576,128,0,172776:0:0:0:0:
192,192,172676,128,0,172876:0:0:0:0:
320,192,172776,128,0,172876:0:0:0:0:
448,192,172776,128,0,172976:0:0:0:0:
64,192,172876,128,0,173076:0:0:0:0:
192,192,172976,128,0,173076:0:0:0:0:
320,192,172976,128,0,173176:0:0:0:0:
64,192,173176,128,0,173276:0:0:0:0:
192,192,173176,128,0,173276:0:0:0:0:
448,192,173176,128,0,173276:0:0:0:0:
320,192,173276,128,0,173376:0:0:0:0:
64,192,173376,128,0,173476:0:0:0:0:
192,192,173476,128,0,173576:0:0:0:0:
320,192,173576,128,0,173676:0:0:0:0:
448,192,173576,128,0,173676:0:0:0:0:
64,192,173676,128,0,173776:0:0:0:0:
448,192,173776,128,0,173876:0:0:0:0:
320,192,173876,128,0,173976:0:0:0:0:
64,192,173976,128,0,174076:0:0:0:0:
192,192,173976,128,0,174076:0:0:0:0:
448,192,174076,128,0,174176:0:0:0:0:
192,192,174176,128,0,174276:0:0:0:0:
320,192,174276,128,0,174376:0:0:0:0:
64,192,174376,128,0,174576:0:0:0:0:
448,192,174376,128,0,174476:0:0:0:0:
192,192,174476,128,0,174676:0:0:0:0:
320,192,174576,128,0,174776:0:0:0:0:
448,192,174676,128,0,174776:0:0:0:0:
64,192,174776,128,0,174976:0:0:0:0:
192,192,174776,128,0,174976:0:0:0:0:
192,192,175176,128,0,175376:0:0:0:0:
320,192,175176,128,0,175576:0:0:0:0:
448,192,175176,128,0,176376:0:0:0:0:
64,192,175576,128,0,175876:0:0:0:0:
192,192,175876,128,0,176176:0:0:0:0:
320,192,176176,128,0,176376:0:0:0:0:
64,192,176376,128,0,177976:0:0:0:0:
192,192,176376,1,0,0:0:0:0:
320,192,176576,1,0,0:0:0:0:
192,192,176776,1,0,0:0:0:0:
448,192,176976,1,0,0:0:0:0:
320,192,177176,1,0,0:0:0:0:
192,192,177376,1,0,0:0:0:0:
448,192,177576,1,0,0:0:0:0:
192,192,177776,1,0,0:0:0:0:
320,192,177976,1,0,0:0:0:0:
448,192,177976,128,0,179576:0:0:0:0:
192,192,178242,1,0,0:0:0:0:
320,192,178509,1,0,0:0:0:0:
64,192,178776,1,0,0:0:0:0:
192,192,179042,1,0,0:0:0:0:
320,192,179309,1,0,0:0:0:0:
64,192,179576,128,0,180376:0:0:0:0:
192,192,179576,1,0,0:0:0:0:
320,192,180776,128,0,181176:0:0:0:0:
192,192,181176,128,0,181776:0:0:0:0:
448,192,181976,128,0,182376:0:0:0:0:
320,192,182376,128,0,182776:0:0:0:0:
192,192,182776,128,0,183976:0:0:0:0:
64,192,183976,128,0,184176:0:0:0:0:
320,192,184176,128,0,184376:0:0:0:0:
448,192,184376,128,0,185176:0:0:0:0:
320,192,185576,128,0,185976:0:0:0:0:
192,192,185976,128,0,186376:0:0:0:0:
448,192,186376,128,0,186776:0:0:0:0:
320,192,186576,128,0,187176:0:0:0:0:
64,192,187176,128,0,187576:0:0:0:0:
192,192,187376,128,0,187976:0:0:0:0:
448,192,187976,128,0,188376:0:0:0:0:
320,192,188376,128,0,188776:0:0:0:0:
192,192,188776,128,0,189176:0:0:0:0:
64,192,189176,128,0,191576:0:0:0:0:
320,192,189776,128,0,189876:0:0:0:0:
192,192,189876,128,0,189976:0:0:0:0:
448,192,189976,128,0,190276:0:0:0:0:
192,192,190276,128,0,190576:0:0:0:0:
320,192,190576,128,0,190776:0:0:0:0:
448,192,190776,128,0,191576:0:0:0:0:
192,192,191576,128,0,191776:0:0:0:0:
320,192,191776,128,0,191876:0:0:0:0:
192,192,191876,128,0,191976:0:0:0:0:
448,192,191976,128,0,192076:0:0:0:0:
320,192,192076,128,0,192176:0:0:0:0:
64,192,192176,128,0,192276:0:0:0:0:
192,192,192276,128,0,192376:0:0:0:0:
64,192,192376,1,0,0:0:0:0:
320,192,192376,1,0,0:0:0:0:
448,192,192376,128,0,193176:0:0:0:0:
64,192,192776,1,0,0:0:0:0:
192,192,192776,1,0,0:0:0:0:
64,192,193176,1,0,0:0:0:0:
192,192,193176,1,0,0:0:0:0:
192,192,193576,128,0,193976:0:0:0:0:
320,192,193576,1,0,0:0:0:0:
64,192,193976,1,0,0:0:0:0:
320,192,193976,128,0,194776:0:0:0:0:
448,192,193976,1,0,0:0:0:0:
64,192,194376,1,0,0:0:0:0:
192,192,194376,1,0,0:0:0:0:
448,192,194576,1,0,0:0:0:0:
192,192,194676,1,0,0:0:0:0:
64,192,194776,1,0,0:0:0:0:
448,192,194776,1,0,0:0:0:0:
64,192,194976,1,0,0:0:0:0:
320,192,195076,1,0,0:0:0:0:
192,192,195176,128,0,195576:0:0:0:0:
448,192,195176,1,0,0:0:0:0:
320,192,195376,1,0,0:0:0:0:
64,192,195576,128,0,196576:0:0:0:0:
320,192,195576,1,0,0:0:0:0:
448,192,195576,1,0,0:0:0:0:
192,192,195976,1,0,0:0:0:0:
448,192,195976,1,0,0:0:0:0:
320,192,196176,1,0,0:0:0:0:
192,192,196276,1,0,0:0:0:0:
320,192,196376,1,0,0:0:0:0:
448,192,196376,1,0,0:0:0:0:
192,192,196576,1,0,0:0:0:0:
448,192,196676,1,0,0:0:0:0:
192,192,196776,1,0,0:0:0:0:
320,192,196776,128,0,197176:0:0:0:0:
64,192,196976,1,0,0:0:0:0:
64,192,197176,1,0,0:0:0:0:
192,192,197176,1,0,0:0:0:0:
448,192,197176,128,0,197776:0:0:0:0:
320,192,197376,1,0,0:0:0:0:
64,192,197576,1,0,0:0:0:0:
192,192,197576,1,0,0:0:0:0:
64,192,197776,1,0,0:0:0:0:
192,192,197876,1,0,0:0:0:0:
320,192,197976,128,0,198376:0:0:0:0:
448,192,197976,1,0,0:0:0:0:
64,192,198376,1,0,0:0:0:0:
192,192,198376,128,0,198776:0:0:0:0:
64,192,198776,128,0,199576:0:0:0:0:
320,192,198776,1,0,0:0:0:0:
448,192,198776,1,0,0:0:0:0:
192,192,198876,1,0,0:0:0:0:
448,192,198976,1,0,0:0:0:0:
320,192,199076,1,0,0:0:0:0:
192,192,199176,1,0,0:0:0:0:
448,192,199176,1,0,0:0:0:0:
320,192,199276,1,0,0:0:0:0:
192,192,199376,1,0,0:0:0:0:
448,192,199476,1,0,0:0:0:0:
320,192,199576,1,0,0:0:0:0:
192,192,199576,1,0,0:0:0:0:
64,192,199676,1,0,0:0:0:0:
448,192,199776,1,0,0:0:0:0:
320,192,199876,1,0,0:0:0:0:
192,192,199976,128,0,200376:0:0:0:0:
64,192,199976,1,0,0:0:0:0:
320,192,200076,1,0,0:0:0:0:
448,192,200176,1,0,0:0:0:0:
320,192,200276,1,0,0:0:0:0:
64,192,200376,1,0,0:0:0:0:
448,192,200376,128,0,201176:0:0:0:0:
192,192,200476,1,0,0:0:0:0:
320,192,200576,1,0,0:0:0:0:
192,192,200676,1,0,0:0:0:0:
64,192,200776,1,0,0:0:0:0:
320,192,200776,1,0,0:0:0:0:
192,192,200876,1,0,0:0:0:0:
320,192,200976,1,0,0:0:0:0:
64,192,201076,1,0,0:0:0:0:
192,192,201176,1,0,0:0:0:0:
320,192,201176,128,0,201976:0:0:0:0:
448,192,201276,1,0,0:0:0:0:
64,192,201376,1,0,0:0:0:0:
192,192,201476,1,0,0:0:0:0:
64,192,201576,1,0,0:0:0:0:
448,192,201576,1,0,0:0:0:0:
192,192,201676,1,0,0:0:0:0:
64,192,201776,1,0,0:0:0:0:
448,192,201876,1,0,0:0:0:0:
64,192,201976,1,0,0:0:0:0:
192,192,201976,1,0,0:0:0:0:
320,192,202076,1,0,0:0:0:0:
192,192,202176,1,0,0:0:0:0:
448,192,202176,1,0,0:0:0:0:
64,192,202276,1,0,0:0:0:0:
320,192,202376,1,0,0:0:0:0:
448,192,202376,1,0,0:0:0:0:
192,192,202476,1,0,0:0:0:0:
64,192,202576,1,0,0:0:0:0:
448,192,202576,1,0,0:0:0:0:
320,192,202676,1,0,0:0:0:0:
64,192,202776,1,0,0:0:0:0:
192,192,202776,1,0,0:0:0:0:
448,192,202876,1,0,0:0:0:0:
192,192,202976,1,0,0:0:0:0:
320,192,202976,1,0,0:0:0:0:
64,192,203076,1,0,0:0:0:0:
320,192,203176,1,0,0:0:0:0:
448,192,203176,1,0,0:0:0:0:
192,192,203276,1,0,0:0:0:0:
64,192,203376,1,0,0:0:0:0:
448,192,203376,1,0,0:0:0:0:
320,192,203476,1,0,0:0:0:0:
64,192,203576,1,0,0:0:0:0:
192,192,203576,1,0,0:0:0:0:
448,192,203676,1,0,0:0:0:0:
64,192,203776,1,0,0:0:0:0:
192,192,203776,1,0,0:0:0:0:
320,192,203876,1,0,0:0:0:0:
192,192,203976,1,0,0:0:0:0:
448,192,203976,1,0,0:0:0:0:
64,192,204076,1,0,0:0:0:0:
192,192,204176,1,0,0:0:0:0:
320,192,204176,1,0,0:0:0:0:
448,192,204276,1,0,0:0:0:0:
64,192,204376,1,0,0:0:0:0:
192,192,204376,1,0,0:0:0:0:
320,192,204476,1,0,0:0:0:0:
448,192,204476,1,0,0:0:0:0:
64,192,204576,1,0,0:0:0:0:
192,192,204576,1,0,0:0:0:0:
320,192,204676,1,0,0:0:0:0:
64,192,204776,1,0,0:0:0:0:
448,192,204776,1,0,0:0:0:0:
192,192,204876,1,0,0:0:0:0:
320,192,204876,1,0,0:0:0:0:
64,192,204976,1,0,0:0:0:0:
448,192,204976,1,0,0:0:0:0:
320,192,205076,1,0,0:0:0:0:
64,192,205176,128,0,205976:0:0:0:0:
192,192,205176,1,0,0:0:0:0:
448,192,205176,128,0,205976:0:0:0:0:
192,192,205976,128,0,206076:0:0:0:0:
320,192,206076,128,0,206176:0:0:0:0:
192,192,206176,128,0,206276:0:0:0:0:
320,192,206276,128,0,206376:0:0:0:0:
192,192,206376,128,0,206476:0:0:0:0:
320,192,206476,128,0,206576:0:0:0:0:
192,192,206576,128,0,206676:0:0:0:0:
320,192,206676,128,0,206776:0:0:0:0:
64,192,206776,128,0,207042:0:0:0:0:
192,192,206776,128,0,206909:0:0:0:0:
448,192,206776,128,0,206909:0:0:0:0:
192,192,207042,128,0,207176:0:0:0:0:
320,192,207042,128,0,207309:0:0:0:0:
448,192,207042,128,0,207176:0:0:0:0:
64,192,207309,128,0,207442:0:0:0:0:
192,192,207309,128,0,207576:0:0:0:0:
448,192,207309,128,0,207442:0:0:0:0:
64,192,207576,128,0,207842:0:0:0:0:
320,192,207576,128,0,207776:0:0:0:0:
448,192,207576,128,0,207709:0:0:0:0:
448,192,207976,1,0,0:0:0:0:
320,192,208076,1,0,0:0:0:0:
192,192,208176,1,0,0:0:0:0:
64,192,208276,1,0,0:0:0:0:
192,192,208376,1,0,0:0:0:0:
320,192,208376,1,0,0:0:0:0:
448,192,208376,128,0,209376:0:0:0:0:
320,192,208576,1,0,0:0:0:0:
64,192,208776,1,0,0:0:0:0:
192,192,208776,1,0,0:0:0:0:
64,192,208976,1,0,0:0:0:0:
192,192,209176,1,0,0:0:0:0:
320,192,209176,1,0,0:0:0:0:
192,192,209376,128,0,209576:0:0:0:0:
320,192,209576,128,0,209776:0:0:0:0:
448,192,209576,1,0,0:0:0:0:
64,192,209776,128,0,210776:0:0:0:0:
320,192,209976,1,0,0:0:0:0:
448,192,209976,1,0,0:0:0:0:
320,192,210176,1,0,0:0:0:0:
192,192,210376,1,0,0:0:0:0:
448,192,210376,1,0,0:0:0:0:
192,192,210576,1,0,0:0:0:0:
320,192,210776,128,0,211176:0:0:0:0:
448,192,210776,1,0,0:0:0:0:
448,192,210976,1,0,0:0:0:0:
64,192,211176,1,0,0:0:0:0:
192,192,211176,128,0,211576:0:0:0:0:
64,192,211376,1,0,0:0:0:0:
320,192,211576,1,0,0:0:0:0:
448,192,211576,128,0,211876:0:0:0:0:
320,192,211776,128,0,211976:0:0:0:0:
64,192,211976,128,0,212276:0:0:0:0:
448,192,211976,1,0,0:0:0:0:
192,192,212176,128,0,212376:0:0:0:0:
64,192,212376,1,0,0:0:0:0:
320,192,212376,128,0,212676:0:0:0:0:
192,192,212576,128,0,212776:0:0:0:0:
320,192,212776,1,0,0:0:0:0:
448,192,212776,128,0,213076:0:0:0:0:
320,192,212976,128,0,213176:0:0:0:0:
64,192,213176,128,0,213776:0:0:0:0:
192,192,213176,1,0,0:0:0:0:
192,192,213376,1,0,0:0:0:0:
320,192,213576,1,0,0:0:0:0:
448,192,213576,1,0,0:0:0:0:
448,192,213776,128,0,213976:0:0:0:0:
320,192,213876,128,0,214076:0:0:0:0:
64,192,213976,1,0,0:0:0:0:
192,192,213976,128,0,214276:0:0:0:0:
64,192,214176,1,0,0:0:0:0:
448,192,214276,128,0,214576:0:0:0:0:
192,192,214376,1,0,0:0:0:0:
320,192,214376,1,0,0:0:0:0:
320,192,214576,128,0,214776:0:0:0:0:
64,192,214776,128,0,215176:0:0:0:0:
192,192,214776,1,0,0:0:0:0:
448,192,214776,1,0,0:0:0:0:
448,192,214976,1,0,0:0:0:0:
192,192,215176,128,0,215576:0:0:0:0:
320,192,215176,1,0,0:0:0:0:
320,192,215376,1,0,0:0:0:0:
64,192,215576,1,0,0:0:0:0:
448,192,215576,128,0,215976:0:0:0:0:
64,192,215776,128,0,215976:0:0:0:0:
192,192,215876,128,0,216076:0:0:0:0:
320,192,215976,128,0,216376:0:0:0:0:
64,192,216176,1,0,0:0:0:0:
192,192,216376,128,0,216676:0:0:0:0:
448,192,216376,1,0,0:0:0:0:
448,192,216676,128,0,216976:0:0:0:0:
192,192,216776,1,0,0:0:0:0:
320,192,216776,1,0,0:0:0:0:
64,192,216976,128,0,217176:0:0:0:0:
192,192,217176,1,0,0:0:0:0:
320,192,217176,128,0,217476:0:0:0:0:
192,192,217476,128,0,217776:0:0:0:0:
64,192,217576,1,0,0:0:0:0:
448,192,217576,1,0,0:0:0:0:
448,192,217776,128,0,217976:0:0:0:0:
64,192,217976,128,0,218076:0:0:0:0:
320,192,217976,1,0,0:0:0:0:
192,192,218076,128,0,218176:0:0:0:0:
64,192,218176,128,0,218276:0:0:0:0:
192,192,218276,128,0,218376:0:0:0:0:
320,192,218376,128,0,218476:0:0:0:0:
448,192,218376,1,0,0:0:0:0:
192,192,218476,128,0,218576:0:0:0:0:
320,192,218576,128,0,218676:0:0:0:0:
192,192,218676,128,0,218776:0:0:0:0:
64,192,218776,1,0,0:0:0:0:
448,192,218776,128,0,218876:0:0:0:0:
320,192,218876,128,0,218976:0:0:0:0:
448,192,218976,128,0,219076:0:0:0:0:
320,192,219076,128,0,219176:0:0:0:0:
64,192,219176,128,0,219376:0:0:0:0:
448,192,219176,1,0,0:0:0:0:
192,192,219276,128,0,219476:0:0:0:0:
320,192,219376,128,0,219576:0:0:0:0:
448,192,219476,128,0,219576:0:0:0:0:
64,192,219576,128,0,219842:0:0:0:0:
192,192,219576,128,0,219709:0:0:0:0:
192,192,219842,128,0,219976:0:0:0:0:
320,192,219842,128,0,220109:0:0:0:0:
448,192,219842,128,0,219976:0:0:0:0:
64,192,220109,128,0,220242:0:0:0:0:
192,192,220109,128,0,220242:0:0:0:0:
448,192,220109,128,0,220376:0:0:0:0:
64,192,220376,128,0,220642:0:0:0:0:
192,192,220376,128,0,220509:0:0:0:0:
320,192,220376,128,0,220509:0:0:0:0:
192,192,220776,1,0,0:0:0:0:
320,192,220776,1,0,0:0:0:0:
448,192,220976,1,0,0:0:0:0:
320,192,221076,1,0,0:0:0:0:
64,192,221176,1,0,0:0:0:0:
192,192,221176,1,0,0:0:0:0:
448,192,221176,1,0,0:0:0:0:
64,192,221376,1,0,0:0:0:0:
192,192,221376,1,0,0:0:0:0:
448,192,221376,1,0,0:0:0:0:
192,192,222776,1,0,0:0:0:0:
320,192,222776,1,0,0:0:0:0:
448,192,222776,1,0,0:0:0:0:
192,192,222976,1,0,0:0:0:0:
320,192,222976,1,0,0:0:0:0:
448,192,222976,1,0,0:0:0:0:
64,192,224376,1,0,0:0:0:0:
192,192,224376,1,0,0:0:0:0:
448,192,224376,1,0,0:0:0:0:
64,192,224576,1,0,0:0:0:0:
192,192,224576,1,0,0:0:0:0:
448,192,224576,1,0,0:0:0:0:
192,192,225776,128,0,225876:0:0:0:0:
320,192,225876,128,0,225976:0:0:0:0:
64,192,225976,128,0,226109:0:0:0:0:
192,192,225976,128,0,226109:0:0:0:0:
448,192,225976,128,0,226376:0:0:0:0:
192,192,226242,128,0,226642:0:0:0:0:
320,192,226242,128,0,226376:0:0:0:0:
320,192,226509,128,0,226909:0:0:0:0:
448,192,226509,128,0,226642:0:0:0:0:
64,192,226776,128,0,227176:0:0:0:0:
192,192,226776,128,0,226909:0:0:0:0:
320,192,227042,128,0,227176:0:0:0:0:
448,192,227042,128,0,227442:0:0:0:0:
192,192,227309,128,0,227442:0:0:0:0:
320,192,227309,128,0,227709:0:0:0:0:
64,192,227576,1,0,0:0:0:0:
192,192,227576,128,0,227976:0:0:0:0:
448,192,227576,1,0,0:0:0:0:
448,192,227776,1,0,0:0:0:0:
64,192,227976,1,0,0:0:0:0:
320,192,227976,1,0,0:0:0:0:
448,192,227976,1,0,0:0:0:0:
64,192,228176,1,0,0:0:0:0:
448,192,228176,1,0,0:0:0:0:
192,192,228276,1,0,0:0:0:0:
320,192,228276,1,0,0:0:0:0:
64,192,228376,1,0,0:0:0:0:
448,192,228376,1,0,0:0:0:0:
320,192,228576,1,0,0:0:0:0:
64,192,228776,1,0,0:0:0:0:
192,192,228776,1,0,0:0:0:0:
192,192,228976,1,0,0:0:0:0:
448,192,228976,1,0,0:0:0:0:
320,192,229176,1,0,0:0:0:0:
448,192,229176,1,0,0:0:0:0:
64,192,229376,1,0,0:0:0:0:
320,192,229376,1,0,0:0:0:0:
64,192,229576,1,0,0:0:0:0:
192,192,229576,1,0,0:0:0:0:
320,192,229776,1,0,0:0:0:0:
448,192,229776,1,0,0:0:0:0:
64,192,229876,1,0,0:0:0:0:
192,192,229876,1,0,0:0:0:0:
320,192,229976,1,0,0:0:0:0:
448,192,229976,1,0,0:0:0:0:
192,192,230176,1,0,0:0:0:0:
64,192,230376,1,0,0:0:0:0:
448,192,230376,1,0,0:0:0:0:
192,192,230576,1,0,0:0:0:0:
448,192,230576,1,0,0:0:0:0:
64,192,230776,1,0,0:0:0:0:
192,192,230776,1,0,0:0:0:0:
320,192,230776,1,0,0:0:0:0:
64,192,231042,1,0,0:0:0:0:
320,192,231042,1,0,0:0:0:0:
448,192,231042,1,0,0:0:0:0:
192,192,231309,1,0,0:0:0:0:
320,192,231309,1,0,0:0:0:0:
448,192,231309,1,0,0:0:0:0:
64,192,231576,1,0,0:0:0:0:
192,192,231576,1,0,0:0:0:0:
448,192,231576,1,0,0:0:0:0:
64,192,231842,1,0,0:0:0:0:
320,192,231842,1,0,0:0:0:0:
448,192,231842,1,0,0:0:0:0:
192,192,232109,1,0,0:0:0:0:
320,192,232109,1,0,0:0:0:0:
448,192,232109,1,0,0:0:0:0:
64,192,232376,1,0,0:0:0:0:
192,192,232376,1,0,0:0:0:0:
320,192,232376,1,0,0:0:0:0:
64,192,232642,1,0,0:0:0:0:
192,192,232642,1,0,0:0:0:0:
448,192,232642,1,0,0:0:0:0:
64,192,232909,1,0,0:0:0:0:
320,192,232909,1,0,0:0:0:0:
448,192,232909,1,0,0:0:0:0:
192,192,233176,1,0,0:0:0:0:
320,192,233176,1,0,0:0:0:0:
448,192,233176,1,0,0:0:0:0:
64,192,233576,1,0,0:0:0:0:
192,192,233576,1,0,0:0:0:0:
320,192,233576,1,0,0:0:0:0:
64,192,233776,1,0,0:0:0:0:
192,192,233876,1,0,0:0:0:0:
64,192,233976,1,0,0:0:0:0:
320,192,233976,1,0,0:0:0:0:
448,192,233976,1,0,0:0:0:0:
192,192,234176,1,0,0:0:0:0:
448,192,234176,1,0,0:0:0:0:
192,192,234376,1,0,0:0:0:0:
320,192,234376,1,0,0:0:0:0:
64,192,234576,1,0,0:0:0:0:
192,192,234576,1,0,0:0:0:0:
320,192,234676,1,0,0:0:0:0:
448,192,234676,1,0,0:0:0:0:
64,192,234776,1,0,0:0:0:0:
192,192,234776,1,0,0:0:0:0:
448,192,234876,1,0,0:0:0:0:
320,192,234976,1,0,0:0:0:0:
192,192,235076,1,0,0:0:0:0:
64,192,235176,1,0,0:0:0:0:
448,192,235176,1,0,0:0:0:0:
64,192,235376,1,0,0:0:0:0:
192,192,235376,1,0,0:0:0:0:
320,192,235476,1,0,0:0:0:0:
64,192,235576,1,0,0:0:0:0:
448,192,235576,1,0,0:0:0:0:
192,192,235776,1,0,0:0:0:0:
448,192,235776,1,0,0:0:0:0:
64,192,235976,1,0,0:0:0:0:
320,192,235976,1,0,0:0:0:0:
448,192,236076,1,0,0:0:0:0:
64,192,236176,1,0,0:0:0:0:
192,192,236176,1,0,0:0:0:0:
320,192,236276,1,0,0:0:0:0:
448,192,236276,1,0,0:0:0:0:
64,192,236376,1,0,0:0:0:0:
192,192,236376,1,0,0:0:0:0:
320,192,236476,1,0,0:0:0:0:
192,192,236576,1,0,0:0:0:0:
64,192,236676,1,0,0:0:0:0:
320,192,236776,1,0,0:0:0:0:
448,192,236776,1,0,0:0:0:0:
192,192,236876,1,0,0:0:0:0:
320,192,236976,1,0,0:0:0:0:
448,192,237076,1,0,0:0:0:0:
64,192,237176,1,0,0:0:0:0:
192,192,237176,1,0,0:0:0:0:
448,192,237276,1,0,0:0:0:0:
320,192,237376,1,0,0:0:0:0:
192,192,237476,1,0,0:0:0:0:
64,192,237576,1,0,0:0:0:0:
448,192,237576,1,0,0:0:0:0:
320,192,237676,1,0,0:0:0:0:
192,192,237776,1,0,0:0:0:0:
64,192,237876,1,0,0:0:0:0:
320,192,237976,1,0,0:0:0:0:
448,192,237976,1,0,0:0:0:0:
192,192,238076,1,0,0:0:0:0:
64,192,238176,1,0,0:0:0:0:
320,192,238276,1,0,0:0:0:0:
448,192,238276,1,0,0:0:0:0:
64,192,238376,1,0,0:0:0:0:
192,192,238376,1,0,0:0:0:0:
320,192,238576,1,0,0:0:0:0:
448,192,238576,1,0,0:0:0:0:
192,192,238676,1,0,0:0:0:0:
64,192,238776,1,0,0:0:0:0:
448,192,238776,1,0,0:0:0:0:
320,192,238876,1,0,0:0:0:0:
192,192,238976,1,0,0:0:0:0:
320,192,239076,1,0,0:0:0:0:
64,192,239176,1,0,0:0:0:0:
192,192,239176,1,0,0:0:0:0:
448,192,239276,1,0,0:0:0:0:
64,192,239376,1,0,0:0:0:0:
320,192,239376,1,0,0:0:0:0:
192,192,239476,1,0,0:0:0:0:
64,192,239576,1,0,0:0:0:0:
448,192,239576,1,0,0:0:0:0:
192,192,239776,1,0,0:0:0:0:
320,192,239876,1,0,0:0:0:0:
448,192,239876,1,0,0:0:0:0:
64,192,239976,1,0,0:0:0:0:
192,192,239976,1,0,0:0:0:0:
320,192,240176,1,0,0:0:0:0:
448,192,240176,1,0,0:0:0:0:
64,192,240376,1,0,0:0:0:0:
192,192,240376,1,0,0:0:0:0:
448,192,240376,1,0,0:0:0:0:
320,192,240476,1,0,0:0:0:0:
64,192,240576,1,0,0:0:0:0:
192,192,240676,1,0,0:0:0:0:
320,192,240776,1,0,0:0:0:0:
448,192,240776,1,0,0:0:0:0:
64,192,240876,1,0,0:0:0:0:
192,192,240976,1,0,0:0:0:0:
320,192,241076,1,0,0:0:0:0:
64,192,241176,1,0,0:0:0:0:
448,192,241176,1,0,0:0:0:0:
192,192,241276,1,0,0:0:0:0:
320,192,241376,1,0,0:0:0:0:
64,192,241576,1,0,0:0:0:0:
448,192,241576,1,0,0:0:0:0:
320,192,241676,1,0,0:0:0:0:
64,192,241776,1,0,0:0:0:0:
192,192,241876,1,0,0:0:0:0:
320,192,241976,1,0,0:0:0:0:
448,192,241976,1,0,0:0:0:0:
64,192,242076,1,0,0:0:0:0:
192,192,242176,1,0,0:0:0:0:
320,192,242276,1,0,0:0:0:0:
64,192,242376,1,0,0:0:0:0:
192,192,242376,1,0,0:0:0:0:
448,192,242476,1,0,0:0:0:0:
320,192,242576,1,0,0:0:0:0:
192,192,242676,1,0,0:0:0:0:
64,192,242776,1,0,0:0:0:0:
448,192,242776,1,0,0:0:0:0:
320,192,242876,1,0,0:0:0:0:
192,192,242976,1,0,0:0:0:0:
320,192,243076,1,0,0:0:0:0:
64,192,243176,1,0,0:0:0:0:
448,192,243176,1,0,0:0:0:0:
64,192,243376,1,0,0:0:0:0:
320,192,243376,1,0,0:0:0:0:
192,192,243576,1,0,0:0:0:0:
320,192,243576,1,0,0:0:0:0:
448,192,243576,1,0,0:0:0:0:
64,192,243676,1,0,0:0:0:0:
192,192,243776,1,0,0:0:0:0:
320,192,243876,1,0,0:0:0:0:
64,192,243976,1,0,0:0:0:0:
448,192,243976,1,0,0:0:0:0:
192,192,244076,1,0,0:0:0:0:
320,192,244176,1,0,0:0:0:0:
64,192,244276,1,0,0:0:0:0:
192,192,244376,1,0,0:0:0:0:
448,192,244376,1,0,0:0:0:0:
320,192,244476,1,0,0:0:0:0:
192,192,244576,1,0,0:0:0:0:
64,192,244676,1,0,0:0:0:0:
320,192,244776,1,0,0:0:0:0:
448,192,244776,1,0,0:0:0:0:
64,192,244876,1,0,0:0:0:0:
192,192,244976,1,0,0:0:0:0:
320,192,245076,1,0,0:0:0:0:
64,192,245176,1,0,0:0:0:0:
448,192,245176,1,0,0:0:0:0:
192,192,245276,1,0,0:0:0:0:
320,192,245376,1,0,0:0:0:0:
448,192,245476,1,0,0:0:0:0:
64,192,245576,1,0,0:0:0:0:
192,192,245576,1,0,0:0:0:0:
320,192,245676,1,0,0:0:0:0:
448,192,245776,1,0,0:0:0:0:
64,192,245876,1,0,0:0:0:0:
192,192,245976,1,0,0:0:0:0:
320,192,245976,1,0,0:0:0:0:
64,192,246076,1,0,0:0:0:0:
448,192,246176,1,0,0:0:0:0:
192,192,246276,1,0,0:0:0:0:
64,192,246376,1,0,0:0:0:0:
320,192,246376,1,0,0:0:0:0:
64,192,246576,1,0,0:0:0:0:
448,192,246576,1,0,0:0:0:0:
192,192,246776,128,0,246876:0:0:0:0:
320,192,246776,128,0,246876:0:0:0:0:
448,192,246776,128,0,246876:0:0:0:0:
64,192,246876,128,0,246976:0:0:0:0:
320,192,246976,128,0,247076:0:0:0:0:
192,192,247076,128,0,247176:0:0:0:0:
320,192,247176,128,0,247276:0:0:0:0:
448,192,247176,128,0,247276:0:0:0:0:
64,192,247276,128,0,247376:0:0:0:0:
448,192,247376,128,0,247476:0:0:0:0:
320,192,247476,128,0,247576:0:0:0:0:
64,192,247576,128,0,247676:0:0:0:0:
192,192,247576,128,0,247676:0:0:0:0:
448,192,247676,128,0,247776:0:0:0:0:
192,192,247776,128,0,247876:0:0:0:0:
320,192,247876,128,0,247976:0:0:0:0:
64,192,247976,128,0,248176:0:0:0:0:
448,192,247976,128,0,248076:0:0:0:0:
192,192,248076,128,0,248276:0:0:0:0:
320,192,248176,128,0,248376:0:0:0:0:
448,192,248276,128,0,248376:0:0:0:0:
64,192,248376,1,0,0:0:0:0:
192,192,248376,1,0,0:0:0:0:
64,192,248776,1,0,0:0:0:0:
320,192,248776,128,0,249976:0:0:0:0:
448,192,248776,128,0,249976:0:0:0:0:
64,192,249976,1,0,0:0:0:0:
192,192,249976,1,0,0:0:0:0:
320,192,250076,1,0,0:0:0:0:
192,192,250176,1,0,0:0:0:0:
64,192,250276,1,0,0:0:0:0:
320,192,250376,1,0,0:0:0:0:
192,192,250476,1,0,0:0:0:0:
448,192,250576,1,0,0:0:0:0:
320,192,250676,1,0,0:0:0:0:
192,192,250776,1,0,0:0:0:0:
448,192,250876,1,0,0:0:0:0:
192,192,250976,1,0,0:0:0:0:
64,192,251076,1,0,0:0:0:0:
448,192,251176,1,0,0:0:0:0:
192,192,251276,1,0,0:0:0:0:
320,192,251376,1,0,0:0:0:0:
448,192,251476,1,0,0:0:0:0:
64,192,251576,1,0,0:0:0:0:
192,192,251576,1,0,0:0:0:0:
320,192,251576,1,0,0:0:0:0:
64,192,251842,1,0,0:0:0:0:
320,192,251842,1,0,0:0:0:0:
448,192,251842,1,0,0:0:0:0:
192,192,252109,1,0,0:0:0:0:
320,192,252109,1,0,0:0:0:0:
448,192,252109,1,0,0:0:0:0:
64,192,252376,1,0,0:0:0:0:
192,192,252376,1,0,0:0:0:0:
448,192,252376,1,0,0:0:0:0:
320,192,252776,1,0,0:0:0:0:
448,192,252776,1,0,0:0:0:0:
64,192,252876,1,0,0:0:0:0:
192,192,252976,1,0,0:0:0:0:
320,192,253076,1,0,0:0:0:0:
64,192,253176,128,0,254576:0:0:0:0:
192,192,253176,1,0,0:0:0:0:
448,192,253176,1,0,0:0:0:0:
448,192,253376,128,0,253576:0:0:0:0:
192,192,253576,1,0,0:0:0:0:
320,192,253576,1,0,0:0:0:0:
448,192,253776,128,0,253976:0:0:0:0:
192,192,253976,1,0,0:0:0:0:
320,192,253976,1,0,0:0:0:0:
448,192,254176,128,0,254376:0:0:0:0:
192,192,254376,1,0,0:0:0:0:
320,192,254376,1,0,0:0:0:0:
320,192,254576,128,0,254676:0:0:0:0:
448,192,254576,128,0,254776:0:0:0:0:
192,192,254676,128,0,254776:0:0:0:0:
64,192,254776,1,0,0:0:0:0:
320,192,254776,128,0,256176:0:0:0:0:
64,192,254976,128,0,255176:0:0:0:0:
192,192,255176,1,0,0:0:0:0:
448,192,255176,1,0,0:0:0:0:
64,192,255376,128,0,255576:0:0:0:0:
192,192,255576,1,0,0:0:0:0:
448,192,255576,1,0,0:0:0:0:
64,192,255776,128,0,255976:0:0:0:0:
192,192,255976,1,0,0:0:0:0:
448,192,255976,1,0,0:0:0:0:
64,192,256176,128,0,256376:0:0:0:0:
192,192,256176,128,0,256276:0:0:0:0:
448,192,256276,128,0,256376:0:0:0:0:
192,192,256376,128,0,257776:0:0:0:0:
320,192,256376,1,0,0:0:0:0:
320,192,256576,128,0,256776:0:0:0:0:
64,192,256776,1,0,0:0:0:0:
448,192,256776,1,0,0:0:0:0:
320,192,256976,128,0,257176:0:0:0:0:
64,192,257176,1,0,0:0:0:0:
448,192,257176,1,0,0:0:0:0:
320,192,257376,128,0,257576:0:0:0:0:
64,192,257576,1,0,0:0:0:0:
448,192,257576,1,0,0:0:0:0:
64,192,257776,128,0,257876:0:0:0:0:
320,192,257776,128,0,257976:0:0:0:0:
192,192,257876,128,0,257976:0:0:0:0:
64,192,257976,1,0,0:0:0:0:
448,192,257976,128,0,258376:0:0:0:0:
64,192,258176,128,0,258376:0:0:0:0:
192,192,258376,1,0,0:0:0:0:
320,192,258376,128,0,258776:0:0:0:0:
64,192,258576,128,0,258776:0:0:0:0:
192,192,258776,128,0,259176:0:0:0:0:
448,192,258776,1,0,0:0:0:0:
448,192,258976,128,0,259176:0:0:0:0:
64,192,259176,128,0,259576:0:0:0:0:
320,192,259176,1,0,0:0:0:0:
448,192,259376,128,0,259576:0:0:0:0:
192,192,259576,1,0,0:0:0:0:
320,192,259576,128,0,259876:0:0:0:0:
192,192,259776,128,0,260076:0:0:0:0:
448,192,259776,128,0,259876:0:0:0:0:
64,192,259976,128,0,260276:0:0:0:0:
448,192,259976,1,0,0:0:0:0:
320,192,260176,128,0,260476:0:0:0:0:
448,192,260176,128,0,260276:0:0:0:0:
64,192,260376,1,0,0:0:0:0:
192,192,260376,128,0,260676:0:0:0:0:
64,192,260576,128,0,260876:0:0:0:0:
448,192,260576,128,0,260676:0:0:0:0:
320,192,260776,128,0,261076:0:0:0:0:
448,192,260776,1,0,0:0:0:0:
192,192,260976,128,0,261176:0:0:0:0:
448,192,260976,128,0,261076:0:0:0:0:
64,192,261076,128,0,261176:0:0:0:0:
320,192,261176,1,0,0:0:0:0:
448,192,261176,128,0,261476:0:0:0:0:
64,192,261376,128,0,261476:0:0:0:0:
320,192,261376,128,0,261576:0:0:0:0:
192,192,261576,1,0,0:0:0:0:
448,192,261576,128,0,261876:0:0:0:0:
192,192,261776,128,0,261976:0:0:0:0:
320,192,261776,128,0,261876:0:0:0:0:
64,192,261976,128,0,262276:0:0:0:0:
448,192,261976,1,0,0:0:0:0:
192,192,262176,128,0,262276:0:0:0:0:
320,192,262176,128,0,262376:0:0:0:0:
64,192,262376,128,0,262676:0:0:0:0:
448,192,262376,1,0,0:0:0:0:
192,192,262576,128,0,262676:0:0:0:0:
448,192,262576,128,0,262776:0:0:0:0:
320,192,262676,128,0,262776:0:0:0:0:
64,192,262776,128,0,263176:0:0:0:0:
192,192,262776,1,0,0:0:0:0:
320,192,262876,1,0,0:0:0:0:
192,192,262976,1,0,0:0:0:0:
448,192,263076,1,0,0:0:0:0:
192,192,263176,128,0,263576:0:0:0:0:
320,192,263176,1,0,0:0:0:0:
448,192,263276,1,0,0:0:0:0:
64,192,263376,1,0,0:0:0:0:
448,192,263476,1,0,0:0:0:0:
64,192,263576,1,0,0:0:0:0:
320,192,263576,128,0,263976:0:0:0:0:
192,192,263676,1,0,0:0:0:0:
448,192,263776,1,0,0:0:0:0:
192,192,263876,1,0,0:0:0:0:
64,192,263976,1,0,0:0:0:0:
448,192,263976,128,0,264276:0:0:0:0:
192,192,264076,1,0,0:0:0:0:
64,192,264176,128,0,264276:0:0:0:0:
320,192,264176,128,0,264276:0:0:0:0:
192,192,264276,128,0,264376:0:0:0:0:
64,192,264376,128,0,265176:0:0:0:0:
320,192,264376,128,0,264976:0:0:0:0:
448,192,264376,1,0,0:0:0:0:
192,192,265176,128,0,265776:0:0:0:0:
320,192,265176,1,0,0:0:0:0:
448,192,265176,128,0,265976:0:0:0:0:
64,192,265976,128,0,266576:0:0:0:0:
192,192,265976,1,0,0:0:0:0:
320,192,265976,128,0,266776:0:0:0:0:
64,192,266776,1,0,0:0:0:0:
192,192,266776,128,0,267576:0:0:0:0:
448,192,266776,128,0,267376:0:0:0:0:
64,192,267576,1,0,0:0:0:0:
320,192,267576,1,0,0:0:0:0:
448,192,267576,1,0,0:0:0:0:
192,192,267676,1,0,0:0:0:0:
320,192,267776,1,0,0:0:0:0:
192,192,267876,1,0,0:0:0:0:
448,192,267976,1,0,0:0:0:0:
320,192,268076,1,0,0:0:0:0:
192,192,268176,1,0,0:0:0:0:
64,192,268276,1,0,0:0:0:0:
448,192,268376,1,0,0:0:0:0:
192,192,268476,1,0,0:0:0:0:
320,192,268576,1,0,0:0:0:0:
448,192,268676,1,0,0:0:0:0:
64,192,268776,1,0,0:0:0:0:
192,192,268876,1,0,0:0:0:0:
320,192,268976,1,0,0:0:0:0:
448,192,269076,1,0,0:0:0:0:
64,192,269176,128,0,269309:0:0:0:0:
192,192,269176,128,0,269442:0:0:0:0:
320,192,269176,128,0,269376:0:0:0:0:
64,192,269442,128,0,269642:0:0:0:0:
320,192,269442,128,0,269709:0:0:0:0:
448,192,269442,128,0,269576:0:0:0:0:
64,192,269709,128,0,269976:0:0:0:0:
192,192,269709,128,0,269909:0:0:0:0:
448,192,269709,128,0,269842:0:0:0:0:
192,192,269976,128,0,270242:0:0:0:0:
320,192,269976,128,0,270176:0:0:0:0:
448,192,269976,128,0,270109:0:0:0:0:
