osu file format v14

[General]
AudioFilename: audio.mp3
AudioLeadIn: 0
PreviewTime: 321600
Countdown: 0
SampleSet: Soft
StackLeniency: 0.7
Mode: 0
LetterboxInBreaks: 0
WidescreenStoryboard: 1

[Editor]
Bookmarks: 550,107735,212016,255350,295350,312016,338683,393683,420350,453683,467016,480350,493683,520350,560350,583683,608101
DistanceSpacing: 0.2
BeatDivisor: 3
GridSize: 8
TimelineZoom: 2.899999

[Metadata]
Title:The Ultimate
TitleUnicode:ジ・アルティメット
Artist:Narita Tsutomu
ArtistUnicode:成田勤
Creator:Nathan
Version:Empyreal Ascension
Source:グランブルーファンタジー
Tags:idke granblue fantasy guranburu cygames rage of bahamut guraburu
BeatmapID:1662436
BeatmapSetID:792572

[Difficulty]
HPDrainRate:6
CircleSize:4
OverallDifficulty:9.5
ApproachRate:10
SliderMultiplier:2.5
SliderTickRate:1

[Events]
//Background and Video events
0,0,"forte.jpg",0,0
//Break Periods
2,21105,27728
2,150515,165014
//Storyboard Layer 0 (Background)
//Storyboard Layer 1 (Fail)
//Storyboard Layer 2 (Pass)
//Storyboard Layer 3 (Foreground)
//Storyboard Sound Samples

[TimingPoints]
550,500,4,2,1,30,1,0
550,-200,4,2,1,30,0,0
3550,-133.333333333333,4,2,1,30,0,0
5550,-114.285714285714,4,2,1,30,0,0
8550,-133.333333333333,4,2,1,30,0,0
15550,530.973451327434,4,2,1,50,1,0
16626,530.973451327434,4,2,1,70,1,0
16626,-148.148148148148,4,2,1,70,0,0
16743,-148.148148148148,4,2,1,10,0,0
20906,454.545454545455,4,2,1,50,1,0
28178,-200,4,2,1,30,0,0
30451,-100,4,2,1,30,0,0
31815,-200,4,2,1,30,0,0
49996,-166.666666666667,4,2,1,30,0,0
55224,-66.6666666666667,4,2,1,30,0,0
55451,-166.666666666667,4,2,1,30,0,0
64542,-142.857142857143,4,2,1,30,0,0
79087,-125,4,2,1,30,0,0
82042,-58.8235294117647,4,2,1,30,0,0
82269,-125,4,2,1,30,0,0
86360,-111.111111111111,4,2,1,30,0,0
93633,441.176470588235,4,2,1,50,1,0
93633,-100,4,2,1,50,0,0
94515,-200,4,2,1,50,0,0
94956,-66.6666666666667,4,2,1,50,0,0
95177,-83.3333333333333,4,2,1,50,0,0
96500,-66.6666666666667,4,2,1,50,0,0
97162,-100,4,2,1,50,0,0
98044,-200,4,2,1,50,0,0
98485,-66.6666666666667,4,2,1,50,0,0
98706,-83.3333333333333,4,2,1,50,0,0
99258,-66.6666666666667,4,2,1,50,0,0
101574,-100,4,2,1,50,0,0
102015,-66.6666666666667,4,2,1,50,0,0
102897,-100,4,2,1,50,0,0
103559,-66.6666666666667,4,2,1,50,0,0
104221,-100,4,2,1,50,0,0
105544,-66.6666666666667,4,2,1,50,0,0
106427,-100,4,2,1,50,0,0
106868,-66.6666666666667,4,2,1,50,0,0
107750,-83.3333333333333,4,2,1,50,0,0
108191,-125,4,2,1,50,0,0
109515,-125,4,2,1,50,0,0
109956,-83.3333333333333,4,2,1,50,0,0
110397,-62.5,4,2,1,50,0,0
110838,-62.5,4,2,1,50,0,0
111280,-83.3333333333333,4,2,1,50,0,0
111721,-125,4,2,1,50,0,0
112162,-100,4,2,1,50,0,0
113044,-125,4,2,1,50,0,0
113485,-83.3333333333333,4,2,1,50,0,0
114809,-83.3333333333333,4,2,1,50,0,0
115250,-125,4,2,1,50,0,0
115691,-100,4,2,1,50,0,0
116574,-125,4,2,1,50,0,0
117015,-83.3333333333333,4,2,1,50,0,0
117456,-71.4285714285714,4,2,1,50,0,0
117897,-62.5,4,2,1,50,0,0
118338,-83.3333333333333,4,2,1,50,0,0
118780,-125,4,2,1,50,0,0
120103,-125,4,2,1,50,0,0
120544,-83.3333333333333,4,2,1,50,0,0
121868,-71.4285714285714,4,2,1,50,0,0
122309,-100,4,2,1,50,0,0
122750,-83.3333333333333,4,2,1,50,0,0
123632,-100,4,2,1,50,0,0
124074,-71.4285714285714,4,2,1,50,0,0
125066,-125,4,2,1,50,0,0
125397,-71.4285714285714,4,2,1,50,0,0
125838,-100,4,2,1,50,0,0
126280,-125,4,2,1,50,0,0
127162,-100,4,2,1,50,0,0
127603,-71.4285714285714,4,2,1,50,0,0
128927,-71.4285714285714,4,2,1,50,0,0
129368,-100,4,2,1,50,0,0
129809,-125,4,2,1,50,0,0
130691,-100,4,2,1,50,0,0
131132,-71.4285714285714,4,2,1,50,0,0
131574,-62.5,4,2,1,50,0,0
132456,-71.4285714285714,4,2,1,50,0,0
132897,-100,4,2,1,50,0,0
133338,-125,4,2,1,50,0,0
134221,-100,4,2,1,50,0,0
134662,-71.4285714285714,4,2,1,50,0,0
135985,454.545454545455,4,2,1,50,1,0
136894,-200,4,2,1,50,0,0
161439,503.14465408805,4,2,1,50,1,0
161439,-200,4,2,1,30,0,0
162445,-100,4,2,1,30,0,0
163451,-50,4,2,1,30,0,0
165464,471.142520612485,4,2,1,30,1,0
175357,416.666666666667,4,2,1,40,1,0
175357,-50,4,2,1,40,0,0
176607,-125,4,2,1,40,0,0
176919,-50,4,2,1,40,0,0
177440,-71.4285714285714,4,2,1,40,0,0
178273,-125,4,2,1,40,0,0
178690,-50,4,2,1,40,0,0
179940,-125,4,2,1,40,0,0
180252,-50,4,2,1,40,0,0
180773,-71.4285714285714,4,2,1,40,0,0
180982,-50,4,2,1,40,0,0
181607,-125,4,2,1,40,0,0
182023,-50,4,2,1,40,0,0
183273,-100,4,2,1,40,0,0
183586,-50,4,2,1,40,0,0
184107,-71.4285714285714,4,2,1,40,0,0
184940,-100,4,2,1,40,0,0
186398,-125,4,2,1,40,0,0
186607,-71.4285714285714,4,2,1,40,0,0
186815,-125,4,2,1,40,0,0
187023,-83.3333333333333,4,2,1,40,0,0
188690,-71.4285714285714,4,2,1,50,0,1
189523,-55.5555555555556,4,2,1,50,0,1
191190,-62.5,4,2,1,50,0,1
192023,-71.4285714285714,4,2,1,50,0,1
193690,-100,4,2,1,50,0,1
194523,-62.5,4,2,1,50,0,1
195357,-71.4285714285714,4,2,1,50,0,1
196190,-62.5,4,2,1,50,0,1
197440,-71.4285714285714,4,2,1,50,0,1
197857,-62.5,4,2,1,50,0,1
198273,-55.5555555555556,4,2,1,50,0,1
198690,-62.5,4,2,1,50,0,1
199523,-83.3333333333333,4,2,1,50,0,1
200357,-71.4285714285714,4,2,1,50,0,1
201190,-100,4,2,1,50,0,1
201607,-125,4,2,1,50,0,1
202023,-100,4,2,1,50,0,1
203065,-71.4285714285714,4,2,1,50,0,1
203482,-83.3333333333333,4,2,1,50,0,1
204732,-71.4285714285714,4,2,1,50,0,1
205357,-62.5,4,2,1,50,0,1
207023,-62.5,4,2,1,50,0,1
208690,-71.4285714285714,4,2,1,50,0,1
210773,-71.4285714285714,4,2,1,50,0,1
212023,-100,4,2,1,50,0,0
214523,-66.6666666666667,4,2,1,50,0,0
219523,-100,4,2,1,50,0,0
221190,-66.6666666666667,4,2,1,50,0,0
240357,-100,4,2,1,50,0,0
240982,-66.6666666666667,4,2,1,50,0,0
242023,-200,4,2,1,50,0,0
242440,-66.6666666666667,4,2,1,50,0,0
243690,-200,4,2,1,50,0,0
244107,-66.6666666666667,4,2,1,50,0,0
245357,-200,4,2,1,50,0,0
245773,-66.6666666666667,4,2,1,50,0,0
247023,-200,4,2,1,50,0,0
247440,-66.6666666666667,4,2,1,50,0,0
253690,-80,4,2,1,50,0,0
254627,-100,4,2,1,50,0,0
255357,-100,4,2,1,50,0,0
256815,-66.6666666666667,4,2,1,50,0,0
257440,-100,4,2,1,50,0,0
258690,-66.6666666666667,4,2,1,50,0,0
260669,-71.4285714285714,4,2,1,50,0,0
260982,-76.9230769230769,4,2,1,50,0,0
262023,-100,4,2,1,50,0,0
263065,-66.6666666666667,4,2,1,50,0,0
267023,-62.5,4,2,1,50,0,0
267857,-58.8235294117647,4,2,1,50,0,0
268690,-100,4,2,1,50,0,0
270357,-66.6666666666667,4,2,1,50,0,0
271190,-100,4,2,1,50,0,0
273690,-66.6666666666667,4,2,1,50,0,0
274940,-55.5555555555556,4,2,1,50,0,0
278690,-100,4,2,1,50,0,0
279940,-66.6666666666667,4,2,1,50,0,0
282023,-66.6666666666667,4,2,1,50,0,1
295357,-57.1428571428571,4,2,1,50,0,1
312023,-83.3333333333333,4,2,1,50,0,0
314523,-66.6666666666667,4,2,1,50,0,0
314940,-83.3333333333333,4,2,1,50,0,0
318690,-125,4,2,1,50,0,0
322023,-83.3333333333333,4,2,1,50,0,0
323690,-66.6666666666667,4,2,1,50,0,0
325357,-66.6666666666667,4,2,1,50,0,1
334523,-55.5555555555556,4,2,1,50,0,1
335357,-50,4,2,1,50,0,1
337023,-66.6666666666667,4,2,1,50,0,1
340357,-55.5555555555556,4,2,1,50,0,1
350357,-50,4,2,1,50,0,1
352023,-58.8235294117647,4,2,1,50,0,1
362023,-55.5555555555556,4,2,1,50,0,0
363690,-55.5555555555556,4,2,1,50,0,0
367023,-66.6666666666667,4,2,1,50,0,1
369315,-55.5555555555556,4,2,1,50,0,1
370357,-66.6666666666667,4,2,1,50,0,1
372648,-55.5555555555556,4,2,1,50,0,1
373690,-55.5555555555556,4,2,1,50,0,1
380357,-50,4,2,1,50,0,1
380773,-100,4,2,1,50,0,1
381190,-40,4,2,1,50,0,1
381607,-80,4,2,1,50,0,1
382023,-33.3333333333333,4,2,1,50,0,1
382440,-66.6666666666667,4,2,1,50,0,1
382857,-28.5714285714286,4,2,1,50,0,1
383273,-57.1428571428571,4,2,1,50,0,1
383690,-33.3333333333333,4,2,1,50,0,1
384107,-66.6666666666667,4,2,1,50,0,1
384523,-40,4,2,1,50,0,1
384940,-80,4,2,1,50,0,1
385357,-50,4,2,1,50,0,1
385773,-100,4,2,1,50,0,1
386607,-50,4,2,1,50,0,1
387023,-50,4,2,1,50,0,1
387440,-100,4,2,1,50,0,1
387857,-40,4,2,1,50,0,1
388273,-80,4,2,1,50,0,1
388690,-33.3333333333333,4,2,1,50,0,1
389107,-66.6666666666667,4,2,1,50,0,1
389523,-28.5714285714286,4,2,1,50,0,1
389940,-57.1428571428571,4,2,1,50,0,1
390357,-50,4,2,1,50,0,1
391190,-28.5714285714286,4,2,1,50,0,1
391815,-50,4,2,1,50,0,0
393690,-66.6666666666667,4,2,1,50,0,0
402023,-62.5,4,2,1,50,0,0
402857,-58.8235294117647,4,2,1,50,0,0
403690,-55.5555555555556,4,2,1,50,0,0
405357,-66.6666666666667,4,2,1,50,0,0
406190,-83.3333333333333,4,2,1,50,0,0
407023,-166.666666666667,4,2,1,50,0,0
408690,-125,4,2,1,50,0,0
410357,-100,4,2,1,50,0,0
420357,-90.9090909090909,4,2,1,50,0,0
422023,-80,4,2,1,50,0,0
423690,-71.4285714285714,4,2,1,50,0,0
447023,-66.6666666666667,4,2,1,50,0,0
453690,-125,4,2,1,50,0,0
454523,-83.3333333333333,4,2,1,50,0,0
455148,-125,4,2,1,50,0,0
455357,-100,4,2,1,50,0,0
455773,-83.3333333333333,4,2,1,50,0,0
456190,-125,4,2,1,50,0,0
457857,-83.3333333333333,4,2,1,50,0,0
458482,-125,4,2,1,50,0,0
458690,-100,4,2,1,50,0,0
459107,-83.3333333333333,4,2,1,50,0,0
460357,-125,4,2,1,50,0,0
461190,-83.3333333333333,4,2,1,50,0,0
461815,-125,4,2,1,50,0,0
462023,-100,4,2,1,50,0,0
462857,-125,4,2,1,50,0,0
463690,-125,4,2,1,50,0,0
465773,-83.3333333333333,4,2,1,50,0,0
466086,-66.6666666666667,4,2,1,50,0,0
467023,-55.5555555555556,4,2,1,50,0,1
493586,-55.5555555555556,4,2,1,50,0,0
493690,-142.857142857143,4,2,1,50,0,0
520357,-125,4,2,1,50,0,0
543690,-178.571428571429,4,2,1,50,0,0
547023,-55.5555555555556,4,2,1,50,0,1
580357,-125,4,2,1,50,0,1
582440,-55.5555555555556,4,2,1,50,0,1
583690,-66.6666666666667,4,2,1,50,0,0
597036,422.535211267606,4,2,1,50,1,0
597036,-250,4,2,1,50,0,0
600416,431.654676258993,4,2,1,50,1,0
603862,441.176470588235,4,2,1,50,1,0
604744,-200,4,2,1,50,0,0
605626,446.096654275093,4,2,1,30,1,0
605626,-200,4,2,1,30,0,0
607410,449.438202247191,4,2,1,50,1,0
608084,-200,4,2,1,50,0,0
608308,452.830188679245,4,2,1,30,1,0
608308,-200,4,2,1,30,0,0
609213,459.770114942529,4,2,1,30,1,0
609213,-200,4,2,1,30,0,0
610592,472.44094488189,4,2,1,30,1,0
614277,-0.06,4,2,1,50,0,0

[Colours]
Combo1 : 78,217,62
Combo2 : 242,87,87
Combo3 : 188,95,243
Combo4 : 247,227,94
Combo5 : 71,100,237
Combo6 : 118,34,164
Combo7 : 242,158,43

[HitObjects]
340,259,550,6,0,B|365:236|368:209|368:209|432:215|433:168|499:171|499:171|488:193|494:284|401:315|401:315|360:333|367:352,1,437.500004172325,6|0,3:2|0:0,0:0:0:0:
366,351,2550,5,0,0:0:0:0:
294,192,3050,1,0,1:0:0:0:
445,145,3550,2,0,L|460:20,2,125.000004768372,0|0|0,1:0|1:0|1:0,1:0:0:0:
370,355,4550,85,0,1:0:0:0:
172,259,5550,6,0,B|147:236|144:209|144:209|80:215|79:168|13:171|13:171|24:193|18:284|111:315|111:315|152:333|145:352,2,437.500004172325,2|2|2,0:2|0:0|1:2,0:0:0:0:
256,192,8050,1,0,0:0:0:0:
59,69,8550,86,0,P|71:88|87:125,2,46.8750017881394,0|0|0,1:0|0:0|0:0,0:0:0:0:
59,69,9550,2,0,P|71:50|81:26,1,46.8750017881394,0|0,0:0|0:0,0:0:0:0:
6,117,9800,2,0,P|62:119|178:41,1,187.500007152558,0|0,0:0|0:0,0:0:0:0:
472,283,10550,6,0,P|435:276|399:278,2,46.8750017881394,0|0|0,1:0|0:0|0:0,0:0:0:0:
375,103,11550,2,0,P|382:140|399:172,1,46.8750017881394,0|0,0:0|0:0,0:0:0:0:
456,117,11800,1,0,0:0:0:0:
242,277,12050,2,0,P|320:254|382:196,1,140.625005364418,0|0,1:0|0:0,0:0:0:0:
357,366,12550,86,0,P|366:344|369:321,2,46.8750017881394,0|0|0,1:0|0:0|0:0,0:0:0:0:
126,216,13550,2,0,P|107:233|63:249,1,46.8750017881394,0|0,0:0|0:0,0:0:0:0:
59,167,13800,1,0,0:0:0:0:
210,250,14050,2,0,P|221:193|214:117,1,93.7500035762788,0|0,0:0|0:0,0:0:0:0:
14,98,14550,6,0,B|74:74|120:112|120:112|167:80|203:77|203:77|257:118|257:118|250:147|220:157,1,328.125012516976,0|0,1:0|0:0,0:0:0:0:
220,157,15550,86,0,B|226:74|271:35|271:35|317:71,2,166.666666666667,0|0|0,1:0|1:0|1:0,0:0:0:0:
0,304,16626,54,0,B|47:291|88:246|88:246|85:221|64:195|64:195|97:189|120:240|153:234|153:234|172:198|172:198|525:68|525:68|199:256|199:256|160:248|160:248|134:269|158:320|132:340|132:340|126:308|108:290|108:290|47:291|7:319,1,1360,6|4,3:2|0:0,0:0:0:0:
405,327,28178,38,0,P|449:305|491:236,1,125,4|0,3:2|0:0,0:0:0:0:
312,371,28860,2,0,P|331:325|319:246,1,125
236,308,29542,2,0,P|158:257|34:316,1,218.75
120,358,30451,70,0,P|149:317|25:151,1,250,2|0,0:0|0:0,0:0:0:0:
75,155,31360,21,0,1:0:0:0:
97,166,31474,1,0,1:0:0:0:
121,170,31587,1,0,1:0:0:0:
145,166,31701,1,0,1:0:0:0:
197,230,31815,70,0,P|197:129|219:92,1,125,4|0,3:2|0:0,0:0:0:0:
122,237,32496,2,0,P|209:287|230:325,1,125,0|0,0:0|0:0,0:0:0:0:
145,166,33178,1,0,0:0:0:0:
428,144,33406,22,0,P|383:197|309:217,1,125,0|0,1:0|0:0,0:0:0:0:
263,258,34087,2,0,P|244:233|234:203,1,62.5,0|0,0:0|0:0,0:0:0:0:
445,68,34542,69,0,1:0:0:0:
428,141,34656,1,0,1:0:0:0:
373,92,34769,1,0,1:0:0:0:
174,77,34996,1,0,1:0:0:0:
162,88,35224,1,0,1:0:0:0:
153,102,35451,22,0,P|93:76|14:85,1,125,4|0,3:2|0:0,0:0:0:0:
156,290,36133,1,0,0:0:0:0:
70,167,36360,2,0,P|86:200|90:239,1,62.5,0|0,0:0|0:0,0:0:0:0:
107,370,36815,70,0,P|142:338|293:309,1,187.5
369,353,37724,2,0,P|376:317|392:289,1,62.5
423,220,38178,2,0,P|450:244|466:271,1,62.5,0|0,0:0|0:0,0:0:0:0:
216,318,38633,21,0,1:0:0:0:
196,249,38746,1,0,1:0:0:0:
265,266,38860,2,0,P|280:262|295:258,1,31.25,0|0,1:0|1:0,1:0:0:0:
353,162,39087,70,0,P|296:136|234:135,1,125,4|0,3:2|0:0,0:0:0:0:
296,258,39769,1,0,0:0:0:0:
47,222,39996,2,0,P|83:212|113:198,1,62.5,0|0,0:0|0:0,0:0:0:0:
154,121,40451,22,0,P|130:176|118:310,1,187.5
47,359,41360,1,0,0:0:0:0:
40,369,41587,1,0,0:0:0:0:
349,293,41815,69,0,0:0:0:0:
363,297,42042,1,0,0:0:0:0:
378,300,42269,2,0,L|433:287,3,31.25,0|0|0|0,1:0|1:0|1:0|1:0,1:0:0:0:
266,337,42724,22,0,P|280:274|312:206,1,125,4|0,3:2|0:0,0:0:0:0:
108,156,43406,2,0,P|154:199|197:261,1,125,0|0,1:0|0:0,0:0:0:0:
243,90,44087,2,0,P|245:125|232:176,1,62.5,2|0,0:0|0:0,0:0:0:0:
99,374,44542,70,0,L|79:253,2,109.375,2|0|0,0:0|0:0|0:0,0:0:0:0:
12,192,45451,1,2,0:0:0:0:
12,192,45906,1,0,1:0:0:0:
39,126,46019,1,0,1:0:0:0:
83,182,46133,2,0,P|107:177|136:161,1,31.25,0|0,1:0|1:0,1:0:0:0:
229,6,46360,22,0,P|209:42|180:130,1,125,4|0,3:2|0:0,0:0:0:0:
271,299,47042,2,0,P|249:263|188:194,1,125,0|0,1:0|0:0,0:0:0:0:
359,128,47724,70,0,P|344:132|331:133,3,23.4375,2|0|0|0,0:0|0:0|0:0|0:0,0:0:0:0:
472,108,48065,1,0,0:0:0:0:
447,269,48178,22,0,P|450:278|454:295,3,23.4375,2|0|0|0,0:0|0:0|0:0|0:0,0:0:0:0:
472,108,48519,1,0,0:0:0:0:
420,193,48633,70,0,P|429:189|443:188,3,23.4375,2|0|0|0,0:0|0:0|0:0|0:0,0:0:0:0:
131,77,49087,2,0,P|121:73|108:72,3,23.4375,2|0|0|0,0:0|0:0|0:0|0:0,0:0:0:0:
131,293,49542,2,0,P|121:289|108:288,3,23.4375,2|0|0|0,0:0|0:0|0:0|0:0,0:0:0:0:
134,373,49883,1,0,0:0:0:0:
207,339,49996,21,2,1:2:0:0:
207,339,50224,2,0,P|218:284|213:204,1,112.499996566773,2|0,0:0|0:0,0:0:0:0:
136,215,50678,1,2,0:0:0:0:
326,219,50906,2,0,P|299:169|252:119,1,112.499996566773,2|0,0:0|0:0,0:0:0:0:
293,299,51360,1,2,0:0:0:0:
368,69,51587,70,0,P|315:48|241:37,1,112.499996566773,2|0,0:0|0:0,0:0:0:0:
394,151,52041,1,2,0:0:0:0:
63,205,52269,2,0,P|118:194|170:174,1,112.499996566773,2|0,0:0|0:0,0:0:0:0:
275,140,52724,2,0,P|257:183|241:253,1,112.499996566773,2|0,0:0|0:0,0:0:0:0:
256,343,53178,21,0,1:0:0:0:
312,277,53292,1,0,1:0:0:0:
225,268,53406,2,0,P|210:261|176:232,1,37.4999988555909,0|0,1:0|1:0,1:0:0:0:
379,336,53633,70,0,P|427:299|504:274,1,112.499996566773,4|0,3:2|0:0,0:0:0:0:
465,374,54087,1,2,0:0:0:0:
316,126,54315,2,0,P|353:174|378:251,1,112.499996566773,2|0,0:0|0:0,0:0:0:0:
309,278,54769,1,2,0:0:0:0:
512,186,54996,1,2,0:0:0:0:
512,186,55224,22,0,P|461:204|444:131,1,93.7500035762788,4|0,0:0|0:0,0:0:0:0:
334,34,55451,70,0,P|349:83|305:187,1,149.999995422363,2|0,0:0|0:0,0:0:0:0:
260,317,56133,1,0,0:0:0:0:
230,127,56360,2,0,P|212:132|197:143,2,37.4999988555909
230,127,56815,1,0,0:0:0:0:
247,225,57042,1,0,0:0:0:0:
74,44,57269,21,4,3:2:0:0:
9,146,57496,1,2,0:0:0:0:
2,47,57724,2,0,P|35:62|90:144,1,112.499996566773,2|0,0:0|0:0,0:0:0:0:
208,16,58178,1,2,0:0:0:0:
247,88,58406,2,0,P|266:140|261:195,1,112.499996566773,2|0,0:0|0:0,0:0:0:0:
181,153,58860,1,2,0:0:0:0:
395,267,59087,70,0,P|376:319|337:359,1,112.499996566773,2|0,0:0|0:0,0:0:0:0:
264,292,59542,1,2,0:0:0:0:
479,344,59769,1,2,0:0:0:0:
261,195,59996,2,0,P|316:189|364:161,1,112.499996566773,2|0,0:0|0:0,0:0:0:0:
401,99,60451,2,0,P|377:90|354:90,1,37.4999988555909,0|0,1:0|1:0,1:0:0:0:
202,246,60678,1,0,1:0:0:0:
261,195,60792,1,0,1:0:0:0:
187,171,60906,21,4,3:2:0:0:
276,273,61133,2,0,P|318:326|373:360,1,112.499996566773,2|0,0:0|0:0,0:0:0:0:
261,195,61587,1,2,0:0:0:0:
128,224,61815,2,0,P|60:233|3:264,1,112.499996566773,2|0,0:0|0:0,0:0:0:0:
202,246,62269,1,2,0:0:0:0:
245,120,62496,2,0,P|270:56|271:-7,1,112.499996566773,2|0,0:0|0:0,0:0:0:0:
187,171,62951,69,2,0:0:0:0:
351,40,63178,1,2,0:0:0:0:
351,40,63633,1,0,1:0:0:0:
391,115,63746,1,0,1:0:0:0:
439,43,63860,1,0,1:0:0:0:
100,211,64087,2,0,P|118:263|123:319,1,112.499996566773,0|0,1:0|0:0,0:0:0:0:
26,108,64542,22,0,P|65:131|100:136,1,43.749998664856,4|0,3:2|0:0,0:0:0:0:
139,135,64769,2,0,P|185:115|231:24,1,131.249995994568,2|0,0:0|0:0,0:0:0:0:
329,82,65224,6,0,P|289:104|267:132,1,43.749998664856,6|0,0:0|0:0,0:0:0:0:
280,284,65451,2,0,P|246:229|248:165,1,131.249995994568,2|0,0:0|0:0,0:0:0:0:
189,362,65906,86,0,P|189:316|176:283,1,43.749998664856,2|0,0:0|0:0,0:0:0:0:
155,249,66133,2,0,P|121:222|26:209,1,131.249995994568,2|0,0:0|0:0,0:0:0:0:
234,249,66587,2,0,P|265:241|291:224,1,43.749998664856,2|0,0:0|0:0,0:0:0:0:
393,168,66815,1,2,0:0:0:0:
393,168,67269,2,0,P|394:88|424:22,1,131.249995994568,2|0,0:0|0:0,0:0:0:0:
505,98,67724,1,0,1:0:0:0:
432,113,67837,1,0,1:0:0:0:
358,98,67951,1,0,1:0:0:0:
304,45,68065,1,0,1:0:0:0:
299,178,68178,6,0,P|269:180|221:155,1,43.749998664856,4|0,3:2|0:0,0:0:0:0:
115,76,68406,2,0,P|165:70|253:122,1,131.249995994568,2|0,0:0|0:0,0:0:0:0:
281,295,68860,86,0,P|279:265|304:216,1,43.749998664856,2|0,0:0|0:0,0:0:0:0:
383,110,69088,2,0,P|388:160|336:248,1,131.249995994568,2|0,0:0|0:0,0:0:0:0:
156,243,69542,6,0,P|186:241|234:266,1,43.749998664856,2|0,0:0|0:0,0:0:0:0:
281,295,69769,2,0,P|294:311|303:331,1,43.749998664856,2|0,0:0|0:0,0:0:0:0:
187,361,69996,1,4,0:0:0:0:
187,361,70224,1,0,1:0:0:0:
107,318,70337,1,0,1:0:0:0:
156,243,70451,1,0,1:0:0:0:
156,243,70906,86,0,P|166:206|163:177,1,43.749998664856,2|0,0:0|0:0,0:0:0:0:
145,101,71133,2,0,P|117:73|91:61,1,43.749998664856
5,189,71360,1,0,1:0:0:0:
74,214,71474,1,0,1:0:0:0:
63,141,71587,1,0,1:0:0:0:
63,141,71815,6,0,P|77:124|96:114,1,43.749998664856,4|0,3:2|0:0,0:0:0:0:
140,44,72042,2,0,P|178:95|172:159,1,131.249995994568,2|0,0:0|0:0,0:0:0:0:
127,320,72496,86,0,P|105:315|87:304,1,43.749998664856
84,161,72724,2,0,P|108:220|168:248,1,131.249995994568,2|0,0:0|0:0,0:0:0:0:
297,174,73178,6,0,P|275:169|257:158,1,43.749998664856,2|0,0:0|0:0,0:0:0:0:
172,159,73406,2,0,P|196:99|255:73,1,131.249995994568,2|0,0:0|0:0,0:0:0:0:
325,40,73860,86,0,P|331:61|331:82,1,43.749998664856,2|0,0:0|0:0,0:0:0:0:
247,251,74087,2,0,P|303:220|365:238,1,131.249995994568,6|0,0:0|0:0,0:0:0:0:
353,327,74542,2,0,P|331:322|313:311,1,43.749998664856
173,283,74769,2,0,P|166:261|166:240,1,43.749998664856,0|0,0:0|0:0,0:0:0:0:
276,128,74996,1,0,1:0:0:0:
227,184,75110,1,0,1:0:0:0:
157,209,75224,1,0,1:0:0:0:
87,183,75337,1,0,1:0:0:0:
159,87,75451,6,0,P|165:107|166:129,1,43.749998664856,4|0,3:2|0:0,0:0:0:0:
19,226,75678,2,0,P|13:149|58:111,1,131.249995994568,2|0,0:0|0:0,0:0:0:0:
267,199,76133,86,0,P|245:194|226:183,1,43.749998664856,2|0,0:0|0:0,0:0:0:0:
216,8,76360,2,0,P|285:41|296:99,1,131.249995994568,2|0,0:0|0:0,0:0:0:0:
121,238,76815,6,0,P|135:221|154:210,1,43.749998664856,2|0,0:0|0:0,0:0:0:0:
199,319,77042,2,0,P|262:330|311:289,1,131.249995994568,2|0,0:0|0:0,0:0:0:0:
285,195,77496,1,0,1:0:0:0:
243,256,77610,1,0,1:0:0:0:
316,268,77724,1,0,1:0:0:0:
316,268,78178,85,0,1:0:0:0:
396,210,78292,1,0,1:0:0:0:
374,116,78406,2,0,P|337:100|301:105,1,43.749998664856,0|0,1:0|0:0,0:0:0:0:
227,195,78633,2,0,P|254:254|257:319,1,131.249995994568,4|0,0:0|0:0,0:0:0:0:
128,0,79087,6,0,P|127:31|158:78,1,50,4|0,3:2|0:0,0:0:0:0:
225,62,79315,2,0,P|146:100|123:182,1,150,2|0,0:0|0:0,0:0:0:0:
338,199,79769,86,0,P|314:192|289:194,1,50,2|0,0:0|0:0,0:0:0:0:
47,181,79996,2,0,P|73:249|138:283,1,150,2|0,0:0|0:0,0:0:0:0:
345,126,80451,2,0,P|273:114|211:153,1,150,2|0,1:2|0:0,0:0:0:0:
302,290,80906,2,0,P|305:234|264:166,1,100,2|2,0:0|0:0,0:0:0:0:
466,26,81360,2,0,P|426:97|418:207,1,150,2|0,0:0|0:0,0:0:0:0:
334,35,81815,1,2,0:0:0:0:
334,35,82042,6,0,P|286:46|287:95,1,106.250002026558,4|0,0:0|0:0,0:0:0:0:
132,181,82269,1,0,1:0:0:0:
57,140,82383,1,0,1:0:0:0:
45,56,82496,1,0,1:0:0:0:
105,0,82610,1,0,1:0:0:0:
133,87,82724,86,0,P|169:80|205:45,1,50,4|0,3:2|0:0,0:0:0:0:
297,24,82951,2,0,P|264:82|247:162,1,150,2|0,0:0|0:0,0:0:0:0:
158,296,83406,6,0,P|133:268|85:254,1,50,2|0,0:0|0:0,0:0:0:0:
21,185,83633,2,0,P|87:184|165:159,1,150,2|0,0:0|0:0,0:0:0:0:
328,176,84087,86,0,P|316:210|328:259,1,50,2|0,0:0|0:0,0:0:0:0:
300,350,84315,2,0,P|266:292|205:237,1,150,2|0,0:0|0:0,0:0:0:0:
166,158,84769,2,0,P|201:163|234:158,1,50,2|0,0:0|0:0,0:0:0:0:
382,288,84996,1,2,0:0:0:0:
382,288,85451,5,0,1:0:0:0:
327,174,85565,1,0,1:0:0:0:
455,188,85678,1,0,1:0:0:0:
455,188,85906,86,0,L|468:146,7,25,2|0|0|0|0|0|0|0,0:0|0:0|0:0|0:0|0:0|0:0|0:0|0:0,0:0:0:0:
459,83,86360,6,0,P|419:94|397:108,1,56.2499982833863,4|0,3:2|0:0,0:0:0:0:
411,317,86587,2,0,P|461:288|441:177,1,168.749994850159,2|0,0:0|0:0,0:0:0:0:
122,251,87042,86,0,P|162:240|184:226,1,56.2499982833863,2|0,0:0|0:0,0:0:0:0:
170,17,87269,2,0,P|120:46|140:157,1,168.749994850159,2|0,0:0|0:0,0:0:0:0:
238,338,87724,6,0,B|288:297|288:297|278:181|214:138,1,224.999993133545,2|0,0:0|0:0,0:0:0:0:
230,151,88519,86,0,L|419:137,1,168.749994850159,2|2,0:0|0:0,0:0:0:0:
66,243,89087,2,0,L|256:255,1,168.749994850159,2|0,0:0|0:0,0:0:0:0:
123,83,89542,1,0,1:0:0:0:
211,48,89656,1,0,1:0:0:0:
302,73,89769,1,0,1:0:0:0:
370,140,89883,1,0,1:0:0:0:
189,167,89996,6,0,P|213:138|251:120,1,56.2499982833863,4|0,3:2|0:0,0:0:0:0:
302,73,90224,2,0,P|334:147|307:249,1,168.749994850159,2|0,0:0|0:0,0:0:0:0:
95,54,90678,86,0,P|124:78|141:116,1,56.2499982833863,2|0,0:0|0:0,0:0:0:0:
189,167,90906,2,0,P|115:199|13:172,1,168.749994850159,2|0,0:0|0:0,0:0:0:0:
392,280,91360,6,0,P|368:309|329:326,1,56.2499982833863,2|0,1:2|0:0,0:0:0:0:
259,300,91587,2,0,P|236:261|229:232,1,56.2499982833863,2|0,0:0|0:0,0:0:0:0:
318,231,91815,1,2,0:0:0:0:
256,192,91928,12,0,93406,0:0:0:0:
340,154,93633,38,0,P|390:241|374:324,1,187.5,6|0,3:2|0:0,0:0:0:0:
480,257,94074,1,2,0:0:0:0:
488,252,94184,1,0,0:0:0:0:
496,247,94294,1,2,0:0:0:0:
504,243,94405,1,0,0:0:0:0:
375,323,94515,54,0,P|395:329|414:336,1,31.25,2|0,0:0|0:0,0:0:0:0:
375,323,94956,38,0,B|275:338|275:338|239:294,1,140.625005364418,4|0,3:2|0:0,0:0:0:0:
304,249,95177,2,0,B|312:281|294:327|294:327|244:328|244:328|187:347|187:347|238:264|199:101,1,375.000014305115,4|0,3:2|0:0,0:0:0:0:
135,194,95838,1,2,0:0:0:0:
137,213,95949,1,0,0:0:0:0:
133,231,96059,1,2,0:0:0:0:
123,247,96169,1,0,0:0:0:0:
60,199,96280,53,2,0:0:0:0:
134,176,96390,1,0,0:0:0:0:
48,276,96500,38,0,B|26:217|-4:138|-4:138|25:85|56:12|56:12|99:50|151:61|151:61|116:114|136:185,1,515.625019669533,4|0,3:2|0:0,0:0:0:0:
133,176,97162,54,0,P|138:86|211:4,1,187.5,4|0,3:2|0:0,0:0:0:0:
266,222,97603,1,2,0:0:0:0:
254,225,97713,1,0,0:0:0:0:
242,227,97824,1,2,0:0:0:0:
230,226,97934,1,0,0:0:0:0:
213,115,98044,38,0,P|226:135|228:155,1,31.25,2|0,0:0|0:0,0:0:0:0:
213,115,98485,54,0,B|264:150|264:150|310:155|373:126,1,140.625005364418,4|0,3:2|0:0,0:0:0:0:
305,48,98706,2,0,B|249:120|249:120|231:203|272:283|272:283|351:278|359:205,1,375.000014305115,4|0,3:2|0:0,0:0:0:0:
439,208,99368,1,2,0:0:0:0:
433,226,99479,1,0,0:0:0:0:
433,245,99589,1,2,0:0:0:0:
439,263,99699,1,0,0:0:0:0:
512,231,99810,37,2,0:0:0:0:
444,191,99920,1,0,0:0:0:0:
401,380,100030,54,0,B|472:283|472:283|452:218|452:218|455:148|455:148|418:90|341:98|341:98|321:164|356:220,1,515.625019669533,4|0,3:2|0:0,0:0:0:0:
355,218,100691,38,0,L|225:207,1,93.7500035762788,4|0,3:2|0:0,0:0:0:0:
83,131,100912,1,2,0:0:0:0:
5,156,101022,1,0,0:0:0:0:
5,238,101133,1,2,0:0:0:0:
83,263,101243,1,0,0:0:0:0:
130,197,101353,1,2,0:0:0:0:
83,131,101463,1,0,0:0:0:0:
96,275,101574,54,0,L|86:342,1,62.5,2|0,0:0|0:0,0:0:0:0:
106,288,102015,38,0,B|179:298|179:298|234:246,1,140.625005364418,4|0,3:2|0:0,0:0:0:0:
176,141,102235,2,0,B|237:158|237:158|272:185|272:185|167:308|32:258,1,375.000014305115,4|0,3:2|0:0,0:0:0:0:
341,120,102897,54,0,B|357:181|357:181|339:241|339:241|364:310,1,187.5,0|0,1:0|0:0,0:0:0:0:
176,141,103338,2,0,L|257:129,1,62.5,2|0,0:0|0:0,0:0:0:0:
470,159,103559,38,0,B|408:152|337:181|337:181|303:144|303:144|230:116|230:116|262:62|343:1|491:28,1,515.625019669533,4|0,3:2|0:0,0:0:0:0:
448,22,104221,54,0,L|415:282,1,250,4|0,3:2|1:0,0:0:0:0:
138,129,104772,1,0,1:0:0:0:
138,129,104883,2,0,L|171:389,1,250,4|0,1:2|0:0,0:0:0:0:
456,279,105544,38,0,B|422:247|360:242|360:242|330:264,1,140.625005364418,4|0,3:2|0:0,0:0:0:0:
295,363,105765,2,0,B|259:330|259:330|213:315|213:315|218:224|294:141,1,281.250010728836,4|0,3:2|0:0,0:0:0:0:
196,69,106206,1,2,0:0:0:0:
196,69,106427,54,0,B|251:101|251:101|248:163|196:219,1,187.5,4|0,3:2|0:0,0:0:0:0:
45,144,106868,38,0,B|86:131|115:129|115:129|134:139,1,93.7500035762788,4|0,3:2|0:0,0:0:0:0:
332,264,107088,2,0,L|286:273,10,46.8750017881394,2|0|0|0|2|0|0|0|2|0|0,0:0|0:0|0:0|0:0|0:0|0:0|0:0|0:0|0:0|0:0|0:0,0:0:0:0:
416,316,107750,6,0,B|494:350|494:350|500:218|460:186,1,199.999993896485,4|0,3:2|0:0,0:0:0:0:
466,140,108191,2,0,P|376:117|330:126,1,133.333333333333,0|0,1:0|0:0,0:0:0:0:
154,231,108632,2,0,P|215:242|290:219,1,133.333333333333,2|0,0:0|0:0,0:0:0:0:
229,123,109074,69,0,1:0:0:0:
337,123,109221,1,0,1:0:0:0:
392,222,109368,1,0,1:0:0:0:
218,139,109515,22,0,P|126:142|66:117,1,133.333333333333,0|0,1:0|0:0,0:0:0:0:
201,13,109956,2,0,B|253:-1|253:-1|279:77|229:141,1,199.999993896485,0|0,1:0|0:0,0:0:0:0:
9,202,110397,2,0,P|159:252|289:223,1,266.666666666667,2|0,0:0|0:0,0:0:0:0:
340,64,110838,70,0,B|344:85|344:85|339:113,6,50,0|0|0|0|0|0|0,1:0|0:0|0:0|0:0|0:0|0:0|0:0,0:0:0:0:
512,195,111280,22,0,B|449:223|449:223|372:232|301:171,1,199.999993896485,0|0,1:0|0:0,0:0:0:0:
473,14,111721,2,0,P|463:76|415:143,1,133.333333333333,0|0,1:0|0:0,0:0:0:0:
248,52,112162,2,0,B|258:28|294:13|294:13|319:48|338:124,1,166.666666666667,2|0,0:0|0:0,0:0:0:0:
360,201,112603,69,0,1:0:0:0:
452,223,112750,1,0,1:0:0:0:
424,134,112897,1,0,1:0:0:0:
170,272,113044,22,0,B|201:226|209:186|209:186|192:124,1,133.333333333333,0|0,1:0|0:0,0:0:0:0:
62,302,113485,2,0,P|146:294|277:311,1,199.999993896485,0|0,1:0|0:0,0:0:0:0:
443,354,113927,69,0,1:0:0:0:
356,330,114074,1,0,1:0:0:0:
420,265,114221,1,0,1:0:0:0:
437,365,114368,21,0,1:0:0:0:
256,374,114515,1,0,1:0:0:0:
334,204,114662,1,0,1:0:0:0:
431,377,114809,70,0,B|371:336|319:311|319:311|271:321|210:348,1,199.999993896485,0|0,1:0|0:0,0:0:0:0:
375,217,115250,2,0,B|327:207|287:211|287:211|264:227|243:241,1,133.333333333333,0|0,1:0|0:0,0:0:0:0:
113,90,115691,2,0,B|104:87|72:93|72:93|94:145|181:205,1,166.666666666667,2|0,0:0|0:0,0:0:0:0:
242,128,116132,21,0,1:0:0:0:
251,236,116280,1,0,1:0:0:0:
341,173,116427,1,0,1:0:0:0:
93,364,116574,70,0,B|128:346|143:300|143:300|111:232,1,133.333333333333,0|0,1:0|0:0,0:0:0:0:
10,369,117015,2,0,P|71:383|235:360,1,199.999993896485,0|0,1:0|0:0,0:0:0:0:
320,191,117456,2,0,B|305:162|246:141|246:141|196:200|181:294,1,233.333326212565,2|0,0:0|0:0,0:0:0:0:
321,333,117897,22,0,P|303:314|282:301,6,50,0|0|0|0|0|0|0,1:0|0:0|0:0|0:0|0:0|0:0|0:0,0:0:0:0:
441,372,118338,70,0,B|387:381|387:381|325:354|325:354|272:354|240:378,1,199.999993896485,0|0,1:0|0:0,0:0:0:0:
406,164,118780,2,0,P|418:212|393:301,1,133.333333333333,0|0,1:0|0:0,0:0:0:0:
315,95,119221,1,2,0:0:0:0:
315,95,119662,21,0,1:0:0:0:
192,149,119809,1,0,1:0:0:0:
301,229,119956,1,0,1:0:0:0:
250,15,120103,70,0,B|229:36|207:65|207:65|206:98|225:131,1,133.333333333333,0|0,1:0|0:0,0:0:0:0:
346,176,120544,2,0,P|265:165|123:183,1,199.999993896485,0|0,1:0|0:0,0:0:0:0:
69,219,120985,21,0,1:0:0:0:
145,273,121132,1,0,1:0:0:0:
62,309,121280,1,0,1:0:0:0:
65,200,121427,69,0,1:0:0:0:
253,219,121574,1,0,1:0:0:0:
144,384,121721,1,0,1:0:0:0:
234,104,121868,38,0,B|279:180|244:277|244:277|189:274|143:244,1,233.333326212565,6|0,3:2|0:0,0:0:0:0:
294,40,122309,2,0,P|332:112|345:219,1,166.666666666667,0|0,1:0|0:0,0:0:0:0:
99,283,122750,2,0,B|91:196|148:136|148:136|162:159|147:223,1,199.999993896485,2|0,0:1|0:0,0:0:0:0:
216,259,123191,37,0,1:0:0:0:
313,232,123338,1,0,1:0:0:0:
242,163,123485,1,0,1:0:0:0:
271,342,123632,54,0,B|239:359|193:359|193:359|144:339|118:288,1,166.666666666667,2|0,1:0|0:0,0:0:0:0:
170,112,124074,2,0,B|187:92|225:88|225:88|242:185|208:282,1,233.333326212565,0|0,1:0|0:0,0:0:0:0:
46,154,124515,2,0,B|72:182|129:204|129:204|252:207|371:132,1,349.999989318848,2|2,0:1|0:0,0:0:0:0:
196,52,125103,2,0,P|172:92|172:131,1,66.6666666666667,2|2,0:0|0:0,0:0:0:0:
387,306,125397,38,0,B|379:329|379:329|411:357|451:346|451:346|486:267|428:186,1,233.333326212565,2|0,1:0|0:0,0:0:0:0:
365,22,125838,2,0,P|335:72|347:196,1,166.666666666667,0|0,1:0|0:0,0:0:0:0:
447,218,126280,2,0,B|418:204|418:204|306:214,1,100,2|0,0:0|0:0,0:0:0:0:
251,298,126721,53,0,1:0:0:0:
349,296,126868,1,0,1:0:0:0:
182,368,127015,1,0,1:0:0:0:
315,92,127162,38,0,B|280:69|280:69|225:123|237:205,1,166.666666666667,2|0,1:0|0:0,0:0:0:0:
366,260,127603,2,0,L|348:-10,1,233.333326212565,2|0,1:0|0:0,0:0:0:0:
351,28,128044,1,2,1:0:0:0:
351,28,128338,53,0,1:0:0:0:
231,193,128485,1,2,1:0:0:0:
211,95,128632,1,0,1:0:0:0:
193,0,128780,1,0,1:0:0:0:
163,317,128927,38,0,B|87:306|87:306|49:230|85:144,1,233.333326212565,6|0,3:1|0:0,0:0:0:0:
324,248,129368,2,0,P|270:230|151:233,1,166.666666666667,0|0,1:0|0:0,0:0:0:0:
149,366,129809,2,0,B|154:376|188:386|188:386|233:341|234:286,1,133.333333333333,2|0,0:0|0:0,0:0:0:0:
161,230,130250,53,2,1:0:0:0:
141,138,130397,1,0,1:0:0:0:
324,248,130544,1,0,1:0:0:0:
73,318,130691,38,0,B|97:296|154:290|154:290|247:314,1,166.666666666667,2|0,1:0|0:0,0:0:0:0:
46,384,131132,2,0,P|66:191|99:144,1,233.333326212565,0|0,1:0|0:0,0:0:0:0:
216,91,131574,2,0,B|245:139|245:139|134:157|2:113,1,266.666666666667,2|0,0:1|0:0,0:0:0:0:
172,22,132015,54,0,P|207:8|238:22,6,50,0|0|0|0|0|0|0,1:0|0:0|0:0|0:0|0:0|0:0|0:0,0:0:0:0:
320,123,132456,38,0,P|184:97|58:152,1,233.333326212565,6|0,3:1|0:0,0:0:0:0:
216,322,132897,2,0,B|265:301|265:301|285:224|249:179,1,166.666666666667,0|0,1:0|0:0,0:0:0:0:
47,224,133338,2,0,P|163:246|199:238,1,133.333333333333,2|0,0:0|0:0,0:0:0:0:
176,243,133780,53,2,1:0:0:0:
286,253,133927,1,0,1:0:0:0:
160,145,134074,1,0,1:0:0:0:
429,323,134221,38,0,B|251:338,1,166.666666666667,2|0,1:0|0:0,0:0:0:0:
301,181,134662,2,0,B|371:196|371:196|389:289|340:368,1,233.333326212565,0|0,1:0|0:0,0:0:0:0:
103,275,135103,54,0,L|258:262,1,116.666663106283,2|0,0:0|0:0,0:0:0:0:
277,82,135397,1,0,1:0:0:0:
373,177,135544,1,0,1:0:0:0:
380,290,135691,1,0,1:0:0:0:
334,357,135838,1,0,1:0:0:0:
117,69,135985,37,4,3:2:0:0:
117,69,137348,54,0,L|107:104,5,20.8333333333333,2|0|0|0|0|0,0:0|0:0|0:0|0:0|0:0|0:0,0:0:0:0:
175,245,137803,1,2,0:0:0:0:
369,64,139621,5,2,0:0:0:0:
368,187,141439,86,0,L|355:316,1,125,2|0,0:0|0:0,0:0:0:0:
356,312,142348,5,0,1:0:0:0:
286,248,142500,1,0,1:0:0:0:
264,334,142651,1,0,1:0:0:0:
407,379,142803,85,0,1:0:0:0:
191,272,142954,1,0,1:0:0:0:
477,279,143106,1,0,1:0:0:0:
323,35,143257,5,4,3:2:0:0:
64,130,144621,86,0,P|69:111|84:101,5,20.8333333333333,2|0|0|0|0|0,0:0|0:0|0:0|0:0|0:0|0:0,0:0:0:0:
134,284,145075,1,2,0:0:0:0:
361,83,145985,1,4,0:3:0:0:
143,356,146894,5,6,0:0:0:0:
431,268,148257,86,0,B|436:260|436:260|438:249,5,20.8333333333333,2|0|0|0|0|0,0:0|0:0|0:0|0:0|0:0|0:0,0:0:0:0:
315,368,148712,1,2,0:0:0:0:
256,192,165464,12,0,173002,0:0:0:0:
190,308,175357,22,0,B|221:158|221:158|109:38,1,250,6|0,3:2|0:0,0:0:0:0:
74,189,175669,1,2,0:0:0:0:
83,196,175773,1,0,0:0:0:0:
93,202,175877,1,0,0:0:0:0:
178,224,175982,1,2,0:0:0:0:
189,223,176086,1,0,0:0:0:0:
200,221,176190,1,0,0:0:0:0:
280,183,176294,1,2,0:0:0:0:
287,176,176398,1,0,0:0:0:0:
295,167,176502,1,0,0:0:0:0:
331,86,176607,2,0,P|331:29|327:7,1,50,2|0,0:0|0:0,0:0:0:0:
166,193,176815,5,12,3:2:0:0:
258,252,176919,2,0,B|266:187|266:187|266:160|238:118,1,125,8|0,0:0|0:0,0:0:0:0:
32,257,177127,1,4,3:2:0:0:
161,168,177232,2,0,B|116:120|116:120|95:102|45:97,1,125,8|0,0:0|0:0,0:0:0:0:
310,339,177440,86,0,P|366:303|400:257,1,87.499997329712,2|0,0:0|0:0,0:0:0:0:
478,177,177648,1,2,0:0:0:0:
488,171,177752,1,0,0:0:0:0:
497,163,177856,1,0,0:0:0:0:
476,59,177961,1,2,0:0:0:0:
466,53,178065,1,0,0:0:0:0:
454,50,178169,1,0,0:0:0:0:
369,111,178273,2,0,P|376:155|393:179,1,50,2|0,0:0|0:0,0:0:0:0:
512,128,178482,2,0,P|505:84|488:60,1,50
256,39,178690,6,0,B|215:108|215:108|242:223|326:282|326:282,1,250,4|0,3:2|0:0,0:0:0:0:
457,349,179002,1,2,0:0:0:0:
451,360,179107,1,0,0:0:0:0:
441,367,179211,1,0,0:0:0:0:
483,251,179315,1,2,0:0:0:0:
485,264,179420,1,0,0:0:0:0:
482,275,179524,1,0,0:0:0:0:
439,159,179627,1,2,0:0:0:0:
449,167,179732,1,0,0:0:0:0:
454,178,179836,1,0,0:0:0:0:
308,115,179940,2,0,P|373:123|382:129,1,50,2|0,0:0|0:0,0:0:0:0:
384,312,180148,85,4,3:2:0:0:
299,356,180252,2,0,B|280:317|285:282|285:282|309:240,1,125,8|0,0:0|0:0,0:0:0:0:
315,369,180461,1,4,3:2:0:0:
183,229,180565,2,0,B|201:190|231:171|231:171|288:161,1,125,8|0,0:0|0:0,0:0:0:0:
434,83,180773,6,0,P|399:110|356:115,1,87.499997329712,2|0,0:0|0:0,0:0:0:0:
137,141,180982,1,2,0:0:0:0:
147,147,181086,1,0,0:0:0:0:
159,150,181190,1,0,0:0:0:0:
140,17,181294,1,2,0:0:0:0:
129,22,181398,1,0,0:0:0:0:
121,31,181502,1,0,0:0:0:0:
249,84,181607,2,0,P|246:51|238:37,2,33.3333333333333,2|0|0,3:2|3:0|3:0,3:0:0:0:
198,157,181815,2,0,L|206:230,1,50,0|0,3:0|0:0,0:0:0:0:
360,228,182023,86,0,P|248:226|115:272,1,250,4|0,3:2|0:0,0:0:0:0:
30,190,182336,1,2,0:0:0:0:
43,193,182440,1,0,0:0:0:0:
56,192,182544,1,0,0:0:0:0:
76,63,182648,1,2,0:0:0:0:
67,73,182752,1,0,0:0:0:0:
60,85,182856,1,0,0:0:0:0:
163,166,182961,1,2,0:0:0:0:
158,154,183065,1,0,0:0:0:0:
152,142,183169,1,0,0:0:0:0:
30,190,183273,2,0,L|36:278,1,62.5,2|0,0:0|0:0,0:0:0:0:
241,347,183482,5,4,3:2:0:0:
288,246,183586,2,0,B|322:273|322:273|337:309|324:355,1,125,8|0,0:0|0:0,0:0:0:0:
230,351,183794,1,4,3:2:0:0:
257,163,183898,2,0,B|299:154|299:154|336:165|363:205,1,125,8|0,0:0|0:0,0:0:0:0:
475,342,184107,86,0,L|483:254,1,87.499997329712,2|0,0:0|0:0,0:0:0:0:
492,79,184315,1,2,0:0:0:0:
495,62,184419,1,0,0:0:0:0:
491,46,184523,1,0,0:0:0:0:
382,100,184627,1,2,2:0:0:0:
366,106,184731,1,0,2:0:0:0:
354,117,184835,1,0,2:0:0:0:
458,182,184940,2,0,P|487:204|523:207,1,62.5,2|0,0:0|0:0,0:0:0:0:
374,20,185148,2,0,P|343:26|320:47,1,62.5
143,247,185357,5,4,3:2:0:0:
135,257,185461,1,0,0:0:0:0:
133,269,185565,1,0,0:0:0:0:
138,280,185669,1,0,0:0:0:0:
147,287,185773,1,0,0:0:0:0:
159,290,185877,1,0,0:0:0:0:
171,288,185982,1,0,0:0:0:0:
182,283,186086,1,0,0:0:0:0:
189,272,186190,1,0,0:0:0:0:
192,259,186294,1,0,0:0:0:0:
188,246,186398,2,0,L|199:324,1,50,0|0,3:0|0:0,0:0:0:0:
345,136,186607,86,0,L|357:8,1,87.499997329712,8|0,0:0|0:0,0:0:0:0:
199,309,186815,2,0,L|208:383,1,50,0|0,3:0|3:0,3:0:0:0:
414,290,187023,5,12,3:2:0:0:
512,204,187127,2,0,P|512:177|500:124,1,74.9999977111817,8|0,0:0|0:0,0:0:0:0:
368,359,187336,1,8,3:2:0:0:
399,265,187440,2,0,P|378:247|330:222,1,74.9999977111817
348,366,187648,86,0,P|313:358|274:364,2,49.9999984741211,0|0|0,3:0|3:0|3:0,3:0:0:0:
455,372,187857,2,0,P|472:336|478:288,1,74.9999977111817,0|0,3:0|3:0,0:0:0:0:
415,124,188065,1,8,0:0:0:0:
291,184,188169,1,0,3:0:0:0:
399,265,188273,1,0,3:0:0:0:
434,257,188377,1,0,3:0:0:0:
458,229,188482,2,0,P|407:198|364:187,1,74.9999977111817,0|0,3:0|0:0,0:0:0:0:
87,130,188690,38,0,B|66:139|50:155|50:155|50:179|62:199,1,87.499997329712,6|0,3:2|0:0,0:0:0:0:
225,125,188898,2,0,B|216:104|200:88|200:88|176:88|156:100,1,87.499997329712,8|0,0:0|3:0,3:0:0:0:
230,263,189107,2,0,B|251:254|267:238|267:238|267:214|255:194,1,87.499997329712,0|0,3:0|3:0,3:0:0:0:
92,268,189315,2,0,B|101:289|117:305|117:305|141:305|161:293,1,87.499997329712,8|0,0:0|3:0,3:0:0:0:
146,65,189523,38,0,B|116:63|94:45|94:45|91:73|73:96,1,112.499996566773,2|0,3:2|3:0,3:0:0:0:
291,184,189732,2,0,B|293:153|311:131|311:131|283:128|260:110,1,112.499996566773,8|0,0:0|3:0,0:0:0:0:
173,329,189940,2,0,B|204:330|226:348|226:348|229:320|247:297,1,112.499996566773,0|0,3:0|3:0,3:0:0:0:
28,211,190148,2,0,B|27:241|9:263|9:263|37:266|60:284,1,112.499996566773,8|0,0:0|3:0,0:0:0:0:
116,58,190357,2,0,B|83:13|83:13|89:69,1,112.499996566773,0|0,3:0|3:0,3:0:0:0:
206,332,190565,2,0,B|237:378|237:378|228:322,1,112.499996566773,8|0,0:0|3:0,0:0:0:0:
233,165,190773,53,2,3:2:0:0:
188,122,190877,1,0,3:0:0:0:
126,123,190982,1,8,0:0:0:0:
83,168,191086,1,0,3:0:0:0:
192,271,191190,37,2,3:2:0:0:
223,244,191294,1,0,3:0:0:0:
237,206,191398,1,8,0:0:0:0:
233,165,191502,1,0,3:0:0:0:
85,224,191607,53,2,3:2:0:0:
99,250,191711,1,0,3:0:0:0:
124,267,191815,1,8,0:0:0:0:
153,275,191919,1,0,3:0:0:0:
298,121,192023,37,6,3:2:0:0:
298,121,192127,2,0,B|315:108|322:88|322:88|320:110|329:133,1,87.499997329712,0|8,3:0|0:0,3:0:0:0:
378,256,192336,1,0,3:0:0:0:
378,256,192440,2,0,B|380:277|394:294|394:294|376:281|352:277,1,87.499997329712,0|0,3:0|3:0,3:0:0:0:
221,257,192648,1,8,0:0:0:0:
221,257,192752,2,0,B|201:248|179:252|179:252|199:243|215:224,1,87.499997329712,0|0,3:0|3:0,3:0:0:0:
400,157,192961,53,0,3:0:0:0:
400,157,193065,2,0,B|425:152|441:164|441:164|436:184|409:191,1,87.499997329712,8|0,0:0|0:0,0:0:0:0:
197,153,193273,2,0,B|180:133|182:113|182:113|202:108|221:128,1,87.499997329712,0|0,3:0|3:0,3:0:0:0:
296,331,193481,2,0,B|287:355|269:363|269:363|254:348|262:321,1,87.499997329712,8|0,0:0|3:0,0:0:0:0:
308,167,193690,38,0,B|313:138|313:138|312:128|312:128|315:106,1,62.5,2|0,3:2|3:0,3:0:0:0:
342,251,193898,2,0,B|364:269|364:269|373:273|373:273|391:287,1,62.5,8|0,0:0|3:0,0:0:0:0:
252,238,194107,2,0,B|224:248|224:248|216:254|216:254|195:262,1,62.5,0|0,3:0|3:0,3:0:0:0:
342,251,194315,2,0,B|364:269|364:269|373:273|373:273|391:287,1,62.5,8|0,0:0|3:0,0:0:0:0:
297,94,194523,54,0,B|314:76|323:51|323:51|326:78|336:98,1,100,2|0,3:2|3:0,3:0:0:0:
195,284,194732,2,0,B|170:278|144:282|144:282|166:266|178:248,1,100,8|0,0:0|3:0,0:0:0:0:
386,185,194940,37,8,0:0:0:0:
227,161,195044,1,8,0:0:0:0:
411,278,195148,2,0,B|418:301|435:322|435:322|410:311|388:309,1,100,8|0,0:0|3:0,0:0:0:0:
195,284,195357,54,0,B|194:263|211:246|211:246|231:233|253:238,1,87.499997329712,6|0,3:2|3:0,0:0:0:0:
66,220,195565,2,0,B|87:219|105:235|105:235|117:256|112:278,1,87.499997329712,8|0,0:0|3:0,0:0:0:0:
130,91,195773,2,0,B|131:112|115:130|115:130|94:142|72:137,1,87.499997329712,0|0,3:0|3:0,3:0:0:0:
259,155,195982,2,0,B|238:156|220:140|220:140|208:119|213:97,1,87.499997329712,8|0,0:0|3:0,0:0:0:0:
250,258,196190,38,0,B|248:286|259:308|259:308|240:293|209:287,1,100,2|0,3:2|3:0,3:0:0:0:
72,111,196398,2,0,B|74:83|63:61|63:61|82:76|113:82,1,100,8|0,0:0|3:0,0:0:0:0:
142,292,196607,2,0,B|116:304|103:324|103:324|106:300|96:270,1,100,0|0,3:0|3:0,3:0:0:0:
180,65,196815,2,0,B|205:52|218:32|218:32|215:56|225:86,1,100,8|0,0:0|3:0,0:0:0:0:
55,222,197023,2,0,B|31:206|7:204|7:204|29:195|50:171,1,100,0|0,3:0|3:0,3:0:0:0:
270,141,197231,2,0,B|293:156|317:158|317:158|295:167|274:191,1,100,8|0,0:0|3:0,0:0:0:0:
130,209,197440,53,2,3:2:0:0:
157,140,197544,1,0,3:0:0:0:
204,198,197648,2,0,B|214:224|214:224|213:257|184:291,1,87.499997329712,8|0,0:0|0:0,0:0:0:0:
154,123,197857,37,2,3:2:0:0:
224,208,197961,1,0,3:0:0:0:
117,225,198065,2,0,B|83:219|83:219|50:198|32:148,1,100,8|0,0:0|3:0,0:0:0:0:
244,219,198273,53,2,3:2:0:0:
107,240,198377,1,0,3:0:0:0:
151,104,198482,2,0,B|174:75|174:75|212:54|270:65,1,112.499996566773,8|0,0:0|3:0,0:0:0:0:
396,284,198690,37,6,3:2:0:0:
396,284,198794,1,0,3:0:0:0:
483,224,198899,2,0,B|502:207|508:180|508:180|502:157|479:139,1,100,8|0,0:0|3:0,0:0:0:0:
397,74,199107,1,0,3:0:0:0:
397,74,199211,1,0,3:0:0:0:
303,139,199315,2,0,B|282:161|278:183|278:183|283:209|308:231,1,100,8|0,0:0|3:0,0:0:0:0:
399,258,199523,53,2,3:2:0:0:
399,258,199627,1,0,3:0:0:0:
467,214,199732,2,0,B|489:180|489:180|468:153,1,74.9999977111817,8|0,0:0|3:0,0:0:0:0:
397,103,199940,1,0,3:0:0:0:
397,103,200044,1,0,3:0:0:0:
321,152,200149,2,0,B|299:184|299:184|320:214,1,74.9999977111817,8|0,0:0|3:0,0:0:0:0:
460,255,200357,38,0,B|475:267|472:296|472:296|447:285|439:265,1,87.499997329712,2|0,3:2|3:0,3:0:0:0:
326,110,200565,2,0,B|311:97|314:68|314:68|339:79|347:99,1,87.499997329712,8|0,0:0|3:0,0:0:0:0:
321,249,200773,2,0,B|309:264|280:261|280:261|291:236|311:228,1,87.499997329712,0|0,3:0|3:0,3:0:0:0:
466,115,200981,2,0,B|478:100|507:103|507:103|496:128|476:136,1,87.499997329712,8|0,0:0|3:0,0:0:0:0:
396,189,201190,53,2,3:2:0:0:
383,171,201294,1,0,0:3:0:0:
398,173,201398,1,8,0:0:0:0:
380,186,201502,1,0,3:0:0:0:
436,244,201606,37,2,3:1:0:0:
350,122,201710,1,0,3:0:0:0:
454,140,201814,1,8,0:0:0:0:
332,226,201918,1,0,3:0:0:0:
376,160,202023,6,0,P|412:222|406:249,1,62.5,6|0,3:1|3:0,3:0:0:0:
369,304,202232,69,8,0:0:0:0:
351,311,202336,1,0,3:0:0:0:
332,312,202440,1,0,3:0:0:0:
314,310,202544,1,0,3:0:0:0:
246,218,202648,21,8,0:0:0:0:
248,198,202752,1,0,3:0:0:0:
257,181,202856,1,0,3:0:0:0:
268,167,202960,1,0,3:0:0:0:
371,153,203065,70,0,P|415:211|414:246,1,87.499997329712,10|0,0:1|3:0,0:0:0:0:
206,309,203273,1,0,3:0:0:0:
189,161,203377,1,0,3:0:0:0:
332,226,203482,2,0,B|309:258|309:258|253:272,1,74.9999977111817,10|0,0:1|3:0,0:0:0:0:
119,150,203690,21,2,3:1:0:0:
119,150,203794,1,0,3:0:0:0:
132,60,203898,2,0,B|162:39|162:39|170:84,1,74.9999977111817,8|0,0:0|3:0,0:0:0:0:
98,235,204107,2,0,B|68:256|68:256|61:218,1,74.9999977111817,0|0,3:0|3:0,0:0:0:0:
202,166,204315,2,0,B|223:196|223:196|178:204,1,74.9999977111817,8|0,0:0|3:0,0:0:0:0:
27,132,204524,70,0,B|6:102|6:102|44:95,1,74.9999977111817,2|0,3:1|3:0,0:0:0:0:
291,120,204732,2,0,B|331:159|331:159|327:221|248:314,1,174.999994659424,8|0,0:0|3:0,0:0:0:0:
145,324,205044,1,0,3:0:0:0:
95,201,205148,2,0,B|137:187|137:187|189:218,1,87.499997329712,10|0,0:1|3:0,0:0:0:0:
396,337,205357,22,0,B|437:363|437:363|490:348,1,100,6|0,3:1|3:0,3:0:0:0:
424,153,205565,2,0,B|462:120|462:120|387:79,1,100,8|0,0:0|3:0,0:0:0:0:
261,175,205773,1,0,3:0:0:0:
261,175,205877,1,0,3:0:0:0:
326,227,205982,70,0,B|359:265|359:265|400:190,1,100,10|0,0:1|0:0,0:0:0:0:
359,49,206190,2,0,B|326:11|326:11|285:86,1,100,0|0,3:0|3:0,3:0:0:0:
256,119,206398,2,0,B|218:152|218:152|293:193,1,100,8|0,0:0|3:0,0:0:0:0:
424,153,206607,1,2,3:1:0:0:
434,135,206711,1,0,3:0:0:0:
433,115,206815,1,8,0:0:0:0:
418,96,206919,1,0,3:0:0:0:
327,227,207023,22,0,B|304:256|304:256|297:286|339:344|339:344,1,100,2|0,3:1|3:0,3:0:0:0:
504,146,207232,1,8,0:0:0:0:
485,139,207336,1,0,3:0:0:0:
465,139,207440,1,0,3:0:0:0:
445,144,207544,1,0,3:0:0:0:
416,324,207648,70,0,B|480:346|480:346|507:285|473:214,1,200,10|0,0:1|3:0,0:0:0:0:
425,16,207961,1,0,3:0:0:0:
497,113,208065,2,0,B|451:109|451:109|387:141,1,100,10|0,0:1|0:0,0:0:0:0:
245,231,208273,1,0,3:0:0:0:
311,278,208377,1,0,3:0:0:0:
319,201,208482,2,0,P|249:187|194:182,1,100,10|0,0:1|0:0,0:0:0:0:
98,321,208690,22,0,B|113:335|121:358|121:358|126:338|155:310,1,87.499997329712,6|0,3:1|3:0,0:0:0:0:
108,109,208898,2,0,B|87:106|67:92|67:92|75:111|68:151,1,87.499997329712,8|0,0:0|3:0,3:0:0:0:
224,286,209107,2,0,B|241:276|266:275|266:275|248:264|231:228,1,87.499997329712,0|0,3:0|3:0,2:0:0:0:
26,210,209315,2,0,B|17:228|-2:243|-2:243|18:241|54:260,1,87.499997329712,8|0,0:0|3:0,2:0:0:0:
230,155,209523,2,0,B|226:134|233:111|233:111|217:124|177:130,1,87.499997329712,0|0,3:0|3:0,2:0:0:0:
98,321,209732,70,0,B|113:335|121:358|121:358|126:338|155:310,1,87.499997329712,10|0,3:1|3:0,0:0:0:0:
312,202,209940,1,0,3:0:0:0:
387,179,210044,1,0,3:0:0:0:
304,286,210148,2,0,B|285:298|265:303|265:303|241:296|224:286,1,87.499997329712,10|0,0:1|0:0,0:0:0:0:
322,96,210357,1,2,3:1:0:0:
322,96,210565,21,8,0:0:0:0:
331,101,210634,1,0,3:0:0:0:
342,104,210704,1,0,3:0:0:0:
353,104,210773,2,0,B|375:97|375:97|411:85|444:109,1,87.499997329712,0|0,3:0|3:0,0:0:0:0:
248,137,210982,1,8,0:1:0:0:
248,137,211190,70,0,B|222:80|276:28,1,87.499997329712,8|2,0:0|3:1,0:0:0:0:
359,14,211398,1,0,3:0:0:0:
328,207,211502,2,0,P|245:168|152:173,1,174.999994659424,8|0,0:1|3:0,0:0:0:0:
64,88,211815,1,12,3:0:0:0:
64,88,212023,86,0,P|77:159|80:256,1,125,4|8,3:2|0:0,0:0:0:0:
80,211,212440,1,0,3:0:0:0:
165,238,212544,1,0,3:0:0:0:
57,301,212648,1,8,0:0:0:0:
57,301,212857,2,0,P|135:313|198:336,1,125,0|8,3:0|0:0,0:0:0:0:
191,116,213169,2,0,P|172:175|164:237,1,125,0|0,0:0|3:0,0:0:0:0:
256,224,213482,2,0,P|286:220|317:212,1,62.5,8|0,0:0|0:0,0:0:0:0:
432,189,213690,5,0,3:0:0:0:
356,123,213898,1,8,0:0:0:0:
432,189,214107,1,0,3:0:0:0:
356,123,214211,1,0,3:0:0:0:
459,95,214315,1,8,0:0:0:0:
459,95,214523,86,0,B|331:57|331:57|235:80,1,187.500007152558,4|8,3:2|0:0,0:0:0:0:
432,189,214836,2,0,L|460:-32,1,187.500007152558,0|0,0:0|3:0,0:0:0:0:
259,207,215148,2,0,B|311:219|311:219|349:209,1,93.7500035762788,8|0,0:0|0:0,0:0:0:0:
512,178,215357,5,0,3:0:0:0:
483,279,215565,1,8,0:0:0:0:
512,178,215773,1,0,3:0:0:0:
483,279,215877,1,0,3:0:0:0:
443,112,215982,1,8,0:0:0:0:
443,112,216190,85,0,3:0:0:0:
346,72,216398,1,8,0:0:0:0:
443,112,216607,1,0,3:0:0:0:
350,75,216711,1,0,3:0:0:0:
364,187,216815,1,8,0:0:0:0:
364,187,217023,6,0,B|339:200|313:208|313:208|274:202,1,93.7500035762788,2|0,3:2|0:0,0:0:0:0:
117,57,217232,1,8,0:0:0:0:
159,76,217336,1,0,0:0:0:0:
181,117,217440,1,0,3:0:0:0:
180,163,217544,1,0,3:0:0:0:
13,150,217648,2,0,B|41:132|64:129|64:129|102:134,1,93.7500035762788,10|0,0:2|0:0,0:0:0:0:
243,228,217857,85,0,3:0:0:0:
205,254,217961,1,0,0:0:0:0:
159,253,218065,1,8,0:0:0:0:
119,229,218169,1,0,3:0:0:0:
280,135,218273,2,0,B|257:180|257:180|259:241|278:318,1,187.500007152558,2|8,3:2|0:0,0:0:0:0:
180,163,218586,1,0,0:0:0:0:
375,134,218690,6,0,B|336:8|336:8|296:55,1,187.500007152558,4|8,3:2|0:0,0:0:0:0:
299,50,219107,1,0,3:0:0:0:
224,19,219211,1,0,3:0:0:0:
280,135,219315,1,8,0:0:0:0:
280,135,219523,2,0,B|191:118|191:118|165:68,1,125,0|8,3:0|0:0,0:0:0:0:
305,56,219836,2,0,B|394:73|394:73|420:123,1,125,0|0,0:0|3:0,0:0:0:0:
389,243,220148,2,0,L|374:182,1,62.5,8|0,0:0|0:0,0:0:0:0:
488,90,220357,85,0,3:0:0:0:
465,178,220565,1,8,0:0:0:0:
488,90,220773,1,0,3:0:0:0:
465,178,220877,1,0,3:0:0:0:
435,26,220982,1,8,0:0:0:0:
435,26,221190,6,0,B|378:59|378:59|310:56|217:19,1,187.500007152558,6|0,3:2|0:0,0:0:0:0:
247,187,221502,2,0,B|189:154|189:154|158:93|144:-5,1,187.500007152558,2|0,3:2|3:0,0:0:0:0:
38,259,221815,2,0,P|50:214|92:173,1,93.7500035762788,10|0,0:0|0:0,0:0:0:0:
337,137,222023,85,0,3:0:0:0:
339,229,222232,1,8,0:0:0:0:
337,137,222440,1,0,3:0:0:0:
339,229,222544,1,0,3:0:0:0:
258,98,222648,1,8,0:0:0:0:
258,98,222857,5,0,3:0:0:0:
299,17,223065,1,8,0:0:0:0:
258,98,223273,1,0,3:0:0:0:
299,17,223377,1,0,3:0:0:0:
337,137,223482,1,8,0:0:0:0:
337,137,223690,86,0,B|233:96|233:96|114:119|114:119|171:161,1,281.250010728836,0|0,3:0|0:0,0:0:0:0:
243,303,224107,1,0,3:0:0:0:
332,257,224211,1,0,3:0:0:0:
243,206,224315,2,0,B|203:213|203:213|151:253,1,93.7500035762788,8|0,0:0|0:0,0:0:0:0:
156,349,224523,5,0,3:0:0:0:
400,338,224627,2,0,B|440:276|440:276|393:140,1,187.500007152558,8|0,0:0|3:0,0:0:0:0:
319,91,224940,1,12,0:0:0:0:
317,100,225044,1,0,3:0:0:0:
315,109,225148,1,0,3:0:0:0:
313,118,225252,1,0,3:0:0:0:
384,32,225357,53,0,3:0:0:0:
341,13,225461,1,0,3:0:0:0:
294,13,225565,1,0,3:0:0:0:
252,33,225669,1,0,3:0:0:0:
222,69,225773,1,0,3:0:0:0:
210,113,225877,1,0,3:0:0:0:
217,159,225981,1,0,3:0:0:0:
313,118,226086,21,8,0:0:0:0:
237,201,226190,69,0,3:0:0:0:
247,216,226294,1,0,3:0:0:0:
250,234,226398,1,0,3:0:0:0:
248,252,226502,1,0,3:0:0:0:
239,268,226606,1,0,3:0:0:0:
227,282,226710,1,0,3:0:0:0:
333,318,226815,21,8,0:0:0:0:
333,318,227023,69,0,3:0:0:0:
335,271,227127,1,0,3:0:0:0:
318,227,227231,1,0,3:0:0:0:
284,195,227335,1,0,3:0:0:0:
240,180,227439,1,0,3:0:0:0:
195,184,227543,1,0,3:0:0:0:
154,207,227647,1,0,3:0:0:0:
227,282,227752,21,8,0:0:0:0:
140,220,227857,69,0,3:0:0:0:
122,225,227961,1,0,3:0:0:0:
103,226,228065,1,0,3:0:0:0:
84,222,228169,1,0,3:0:0:0:
199,94,228273,22,0,B|279:83|368:143|368:143|366:104|318:32,1,281.250010728836,14|0,0:0|0:0,0:0:0:0:
106,41,228690,69,0,3:0:0:0:
112,87,228794,1,0,3:0:0:0:
118,133,228898,1,0,3:0:0:0:
124,180,229002,1,0,3:0:0:0:
130,226,229106,1,0,3:0:0:0:
136,272,229211,1,0,3:0:0:0:
142,318,229315,1,0,3:0:0:0:
247,377,229419,21,8,0:0:0:0:
157,307,229523,69,0,3:0:0:0:
172,296,229627,1,0,3:0:0:0:
187,285,229731,1,0,3:0:0:0:
202,274,229836,1,0,3:0:0:0:
217,263,229940,1,0,3:0:0:0:
231,250,230044,1,0,3:0:0:0:
208,158,230148,21,8,0:0:0:0:
208,158,230357,69,0,3:0:0:0:
190,150,230461,1,0,3:0:0:0:
173,143,230565,1,0,3:0:0:0:
156,135,230670,1,0,3:0:0:0:
139,128,230773,22,0,P|144:173|147:221,1,93.7500035762788,0|0,3:0|0:0,0:0:0:0:
23,349,230982,1,0,3:0:0:0:
23,349,231086,1,0,3:0:0:0:
23,349,231190,2,0,P|62:323|99:295,1,93.7500035762788,8|0,0:0|0:0,0:0:0:0:
256,217,231398,1,8,0:0:0:0:
243,323,231502,2,0,B|177:283|177:283|168:242|167:173,1,187.500007152558,12|8,0:0|0:0,0:0:0:0:
283,28,231815,1,10,0:0:0:0:
149,176,231919,1,8,0:0:0:0:
93,48,232023,6,0,P|122:65|241:67,1,93.7500035762788,4|0,3:2|0:0,0:0:0:0:
256,217,232232,2,0,P|285:200|346:98,1,93.7500035762788,10|0,0:0|0:0,0:0:0:0:
512,111,232440,1,0,3:0:0:0:
501,19,232544,1,0,3:0:0:0:
409,6,232648,2,0,P|387:47|378:93,1,93.7500035762788,8|0,0:0|3:0,3:0:0:0:
427,325,232857,1,0,3:0:0:0:
427,325,233065,2,0,P|463:242|333:177,1,187.500007152558,10|0,0:0|3:0,0:0:0:0:
300,72,233377,1,0,3:0:0:0:
255,216,233482,2,0,P|300:230|347:235,1,93.7500035762788,10|0,0:0|0:0,0:0:0:0:
163,104,233690,86,0,P|116:108|71:122,1,93.7500035762788,0|0,3:0|0:0,0:0:0:0:
66,326,233898,1,10,0:0:0:0:
66,326,234107,1,0,3:0:0:0:
158,303,234211,1,0,3:0:0:0:
91,230,234315,1,10,0:0:0:0:
91,230,234523,2,0,L|193:216,1,93.7500035762788,2|0,3:2|0:0,0:0:0:0:
375,200,234732,1,8,0:0:0:0:
264,112,234836,2,0,B|213:170|218:226|218:226|249:279,1,187.500007152558,2|0,3:2|3:0,0:0:0:0:
483,249,235148,2,0,P|494:204|485:158,1,93.7500035762788,10|0,0:0|0:0,0:0:0:0:
305,18,235357,6,0,B|103:47|103:47,1,187.500007152558,4|8,3:2|0:0,0:0:0:0:
336,97,235773,1,0,3:0:0:0:
363,102,235877,1,0,3:0:0:0:
390,107,235982,1,8,0:0:0:0:
417,112,236086,1,0,0:0:0:0:
346,181,236190,2,0,B|292:172|292:172|242:122,1,93.7500035762788,0|0,3:0|0:0,0:0:0:0:
416,32,236398,2,0,B|469:40|469:40|519:90,1,93.7500035762788,8|0,0:0|0:0,0:0:0:0:
481,303,236607,1,0,3:0:0:0:
388,273,236711,1,0,3:0:0:0:
459,205,236815,1,8,0:0:0:0:
459,205,237023,86,0,P|418:322|399:403,1,187.500007152558,2|8,3:2|0:0,0:0:0:0:
407,135,237336,1,0,0:0:0:0:
346,188,237440,2,0,P|300:198|253:200,1,93.7500035762788,0|0,3:0|3:0,0:0:0:0:
107,110,237648,2,0,B|140:114|166:121|166:121|231:95|231:95|260:107|284:114,1,187.500007152558,10|0,0:0|3:0,0:0:0:0:
284,114,238065,1,8,0:0:0:0:
346,188,238169,2,0,P|338:235|322:324,1,93.7500035762788,0|2,3:0|0:0,0:0:0:0:
77,206,238377,1,0,3:0:0:0:
15,132,238482,2,0,P|21:83|31:39,1,93.7500035762788,8|0,0:0|0:0,0:0:0:0:
175,185,238690,6,0,P|166:278|148:374,1,187.500007152558,6|8,3:2|0:0,0:0:0:0:
148,370,239107,1,0,3:0:0:0:
79,307,239211,1,0,3:0:0:0:
259,258,239315,1,10,0:0:0:0:
230,347,239419,1,0,3:0:0:0:
175,185,239523,2,0,L|291:167,1,93.7500035762788,8|0,0:0|0:0,0:0:0:0:
483,151,239732,1,2,3:2:0:0:
355,250,239836,2,0,B|321:201|303:166|303:166|315:132|347:88,1,187.500007152558,8|0,0:0|0:0,0:0:0:0:
401,160,240148,1,2,3:2:0:0:
244,97,240252,1,0,3:0:0:0:
425,45,240357,86,0,B|444:241|444:241|430:292,1,250,4|8,3:2|0:0,0:0:0:0:
430,292,240982,6,0,L|308:279,1,93.7500035762788,2|0,0:0|0:0,0:0:0:0:
0,201,241190,2,0,B|87:195|148:182|148:182|175:208,1,187.500007152558,14|0,0:0|3:0,0:0:0:0:
121,368,241502,2,0,B|104:328|104:328|122:261,1,93.7500035762788,0|2,3:0|0:0,0:0:0:0:
199,101,241711,1,0,3:0:0:0:
259,268,241815,2,0,P|260:221|268:175,1,93.7500035762788,8|0,0:0|0:0,0:0:0:0:
94,17,242023,22,0,P|104:62|104:110,1,93.75,6|2,3:1|0:1,0:0:0:0:
438,238,242440,70,0,B|362:184|362:184|264:175,1,187.500007152558,8|2,0:0|0:1,0:0:0:0:
240,20,242752,2,0,B|208:54|208:54|197:101,1,93.7500035762788,0|0,3:0|0:0,0:0:0:0:
450,96,242961,1,2,3:1:0:0:
396,22,243065,2,0,B|351:36|351:36|316:67,1,93.7500035762788,0|0,3:0|3:0,3:0:0:0:
452,356,243273,2,0,B|495:313|495:313|496:274|478:187,1,187.500007152558,10|0,0:1|0:0,0:0:0:0:
479,188,243690,22,0,P|437:186|368:169,1,93.75,2|0,3:1|0:0,0:0:0:0:
97,323,244107,70,0,B|229:290|229:290|261:250,1,187.500007152558,10|0,0:1|0:0,0:0:0:0:
118,141,244419,2,0,B|140:183|140:183|176:212,1,93.7500035762788,2|0,3:1|3:0,3:0:0:0:
343,28,244627,1,0,3:0:0:0:
239,14,244732,2,0,B|213:54|213:54|206:100,1,93.7500035762788,8|0,3:0|3:0,3:0:0:0:
419,261,244940,2,0,B|411:215|411:215|386:175,1,93.7500035762788,10|0,0:1|0:0,0:0:0:0:
139,293,245148,2,0,B|182:310|182:310|229:308,1,93.7500035762788
309,103,245357,22,0,P|295:140|290:197,1,93.75,6|2,3:1|0:1,0:0:0:0:
148,12,245773,70,0,B|195:91|195:91|183:196,1,187.500007152558,8|2,0:0|0:1,3:0:0:0:
10,95,246086,2,0,B|56:99|56:99|99:118,1,93.7500035762788,0|0,3:0|3:0,3:0:0:0:
118,325,246294,1,2,3:1:0:0:
17,291,246398,2,8,B|44:253|44:253|81:225,1,93.7500035762788,0|8,3:0|3:0,3:0:0:0:
318,172,246607,2,0,B|251:189|185:185|185:185|217:200|229:215,1,187.500007152558,10|0,0:1|3:0,0:0:0:0:
229,215,247023,22,0,P|249:247|258:296,1,62.5,2|0,3:1|0:0,0:0:0:0:
165,285,247336,1,2,3:1:0:0:
329,343,247440,70,0,P|336:295|355:253,1,93.7500035762788,8|0,0:0|0:0,0:0:0:0:
277,19,247648,2,0,P|269:66|251:109,1,93.7500035762788,2|0,3:1|0:0,0:0:0:0:
50,202,247857,22,0,B|177:186|177:186|254:229,1,187.500007152558,6|8,3:1|0:0,0:0:0:0:
354,253,248169,1,10,0:1:0:0:
165,285,248273,1,8,0:0:0:0:
251,108,248377,1,8,0:0:0:0:
361,261,248482,1,10,0:1:0:0:
158,292,248586,1,8,0:0:0:0:
316,186,248690,6,0,P|329:98|338:-26,1,187.500007152558,4|8,3:1|0:0,0:0:0:0:
483,95,249002,2,0,B|462:121|462:121|378:135,1,93.7500035762788,2|0,0:1|3:0,0:0:0:0:
143,152,249211,1,0,3:0:0:0:
170,72,249315,2,0,B|229:81|229:81|250:107,1,93.7500035762788,10|0,0:1|3:0,0:0:0:0:
319,350,249523,2,0,B|279:311|279:311|285:242|322:173,1,187.500007152558,2|8,3:1|0:0,0:0:0:0:
315,185,249940,1,0,3:0:0:0:
373,282,250044,1,0,3:0:0:0:
214,244,250148,1,8,0:0:0:0:
214,244,250357,54,0,B|73:223|73:223|24:246,1,187.500007152558,2|8,0:1|0:0,0:0:0:0:
24,61,250669,2,0,B|-1:100|-1:100|14:168,1,93.7500035762788,2|0,0:1|3:0,0:0:0:0:
224,49,250877,1,0,3:0:0:0:
132,124,250982,2,0,P|128:81|119:16,1,93.7500035762788,10|0,0:1|0:0,0:0:0:0:
385,82,251190,2,0,P|365:180|345:342,1,187.500007152558,2|8,3:1|0:0,0:0:0:0:
190,201,251502,2,0,B|236:190|236:190|275:215,1,93.7500035762788,2|0,3:1|0:0,0:0:0:0:
439,287,251711,1,0,3:0:0:0:
273,308,251815,2,0,P|227:314|153:329,1,93.7500035762788,10|0,0:1|0:0,0:0:0:0:
312,133,252023,38,0,P|358:127|432:112,1,93.7500035762788,2|0,3:1|0:0,0:0:0:0:
481,191,252232,1,8,0:0:0:0:
314,46,252336,2,0,B|278:90|260:123|260:123|265:167|277:229,1,187.500007152558,2|0,0:1|3:0,0:0:0:0:
401,365,252648,1,10,0:1:0:0:
481,191,252752,1,0,3:0:0:0:
273,308,252857,54,0,B|205:297|129:279|129:279|98:198,1,187.500007152558,2|8,3:1|0:0,0:0:0:0:
178,86,253169,2,0,B|183:136|183:136|167:175,1,93.7500035762788,2|0,3:1|3:0,0:0:0:0:
48,304,253377,1,0,3:0:0:0:
9,113,253482,2,0,L|119:100,1,93.7500035762788,10|0,0:1|0:0,0:0:0:0:
256,73,253690,37,2,3:1:0:0:
219,251,253794,1,0,0:0:0:0:
389,195,253898,1,8,0:0:0:0:
166,176,254002,2,0,L|72:187,2,78.125,2|0|0,0:1|3:0|3:0,0:0:0:0:
265,108,254315,53,10,0:1:0:0:
243,223,254419,1,0,0:0:0:0:
351,187,254523,1,0,3:0:0:0:
156,199,254627,2,0,L|62:210,2,62.5,2|8|0,0:1|0:0|3:0,0:0:0:0:
374,100,254940,37,10,0:1:0:0:
318,278,255044,1,8,0:0:0:0:
380,85,255148,1,8,0:0:0:0:
183,99,255252,1,8,0:0:0:0:
427,202,255357,37,4,3:2:0:0:
366,336,255565,1,8,0:0:0:0:
427,202,255773,1,0,3:0:0:0:
492,271,255877,1,0,3:0:0:0:
470,117,255982,1,8,0:0:0:0:
470,117,256190,6,0,P|415:124|305:114,1,125,0|8,3:0|0:0,0:0:0:0:
225,22,256502,2,0,P|268:44|285:75,1,62.5,0|0,0:0|3:0,0:0:0:0:
256,146,256711,1,0,3:0:0:0:
366,32,256815,86,0,P|390:124|356:200,1,93.7500035762788,10|0,0:1|0:0,0:0:0:0:
252,326,257023,2,0,B|231:274|230:220|230:220|237:180|262:133,1,187.500007152558,6|8,3:1|0:0,0:0:0:0:
411,195,257336,1,0,0:0:0:0:
370,276,257440,2,0,P|333:246|323:218,1,62.5,0|0,3:0|3:0,3:0:0:0:
366,32,257648,1,8,0:0:0:0:
153,155,257857,1,0,3:0:0:0:
366,32,258065,5,8,0:0:0:0:
388,114,258169,1,0,0:0:0:0:
411,195,258273,1,0,3:0:0:0:
465,91,258377,1,0,3:0:0:0:
308,136,258482,1,8,0:0:0:0:
411,195,258690,85,6,3:1:0:0:
247,152,258898,1,8,0:0:0:0:
411,195,259107,1,0,3:0:0:0:
328,173,259211,1,0,3:0:0:0:
247,152,259315,1,8,0:0:0:0:
247,152,259523,5,0,3:0:0:0:
366,32,259732,1,8,0:0:0:0:
247,152,259940,1,0,3:0:0:0:
307,91,260044,1,0,3:0:0:0:
366,31,260148,1,8,0:0:0:0:
366,32,260357,86,0,B|341:13|313:6|313:6|285:9|272:16,1,93.7500035762788,6|0,3:2|0:0,0:0:0:0:
189,245,260565,1,8,0:0:0:0:
70,88,260669,2,0,B|98:72|122:65|122:65|157:73|180:86,1,87.499997329712,2|0,0:0|3:0,0:0:0:0:
270,320,260877,1,0,3:0:0:0:
343,217,260982,2,0,B|326:198|295:183|295:183|266:185|246:191,1,81.2499962806703,10|0,0:0|0:0,0:0:0:0:
97,209,261190,6,0,B|44:226|20:287|20:287|42:332,1,162.499992561341,0|8,3:0|0:0,0:0:0:0:
178,272,261502,2,0,P|259:269|338:252,1,162.499992561341,0|0,3:0|3:0,0:0:0:0:
235,68,261815,1,8,0:0:0:0:
181,182,261919,1,0,3:0:0:0:
112,20,262023,85,6,3:1:0:0:
48,94,262232,1,8,0:0:0:0:
112,20,262440,1,0,3:0:0:0:
48,94,262544,1,0,3:0:0:0:
211,37,262648,1,8,0:0:0:0:
211,37,262857,5,0,3:0:0:0:
186,206,263065,2,0,P|168:154|166:88,1,93.7500035762788,8|0,0:0|0:0,0:0:0:0:
340,282,263273,2,0,P|126:285|117:282,1,187.500007152558,2|8,3:1|0:0,0:0:0:0:
92,226,263586,1,0,0:0:0:0:
160,384,263690,86,0,P|66:352|-4:267,1,187.500007152558,6|8,3:1|0:0,0:0:0:0:
25,67,264107,1,0,3:0:0:0:
66,137,264211,1,0,3:0:0:0:
81,6,264315,1,8,0:0:0:0:
81,6,264523,5,0,3:0:0:0:
202,248,264732,2,0,B|161:229|161:229|126:245|126:245|14:242|-23:173,1,187.500007152558,10|0,0:1|3:0,0:0:0:0:
81,136,265044,1,0,3:0:0:0:
160,320,265148,2,0,P|114:335|31:328,1,93.7500035762788,8|0,0:0|0:0,0:0:0:0:
244,179,265357,86,0,B|324:162|324:162|445:199,1,187.500007152558,6|8,3:1|0:0,0:0:0:0:
317,254,265669,1,0,0:0:0:0:
281,90,265773,2,0,B|336:81|336:81|395:103,1,93.7500035762788,0|0,3:0|3:0,3:0:0:0:
470,267,265982,1,8,0:0:0:0:
217,151,266190,6,0,P|187:207|105:309,1,187.500007152558,0|8,3:0|0:0,0:0:0:0:
27,287,266502,1,0,0:0:0:0:
291,216,266607,2,0,P|274:314|266:336,1,93.7500035762788,0|0,3:0|3:0,3:0:0:0:
0,205,266815,2,0,P|85:194|122:184,1,93.7500035762788,8|0,0:0|0:0,0:0:0:0:
323,50,267023,86,0,L|340:266,1,200,0|8,3:0|0:0,0:0:0:0:
426,277,267336,1,0,0:0:0:0:
252,220,267440,2,0,B|211:236|211:236|152:226,1,100,2|0,3:2|3:0,3:0:0:0:
413,11,267648,2,0,P|421:41|422:128,1,100,10|0,0:0|0:0,0:0:0:0:
163,339,267857,6,0,B|152:300|149:273|149:273|159:248|185:182,2,106.250002026558,2|0|8,3:2|3:0|0:0,0:0:0:0:
472,356,268169,1,0,3:0:0:0:
263,232,268273,2,0,P|172:256|31:242,1,212.500004053116,10|0,0:0|3:0,0:0:0:0:
184,138,268586,1,0,3:0:0:0:
134,345,268690,85,4,3:2:0:0:
220,307,268898,1,8,0:0:0:0:
134,345,269107,1,0,3:0:0:0:
220,307,269211,1,0,3:0:0:0:
65,282,269315,1,8,0:0:0:0:
65,282,269523,69,0,3:0:0:0:
220,307,269732,1,8,0:0:0:0:
65,282,269940,1,0,3:0:0:0:
220,307,270044,1,0,3:0:0:0:
165,161,270148,1,8,0:0:0:0:
165,161,270357,22,0,P|218:183|373:186,1,187.500007152558,0|8,3:0|0:0,0:0:0:0:
398,107,270669,1,0,0:0:0:0:
508,266,270773,2,0,P|475:221|432:189,1,93.7500035762788,0|0,3:0|3:0,3:0:0:0:
357,354,270982,1,8,0:0:0:0:
346,191,271190,69,0,3:0:0:0:
357,354,271398,1,8,0:0:0:0:
419,231,271502,1,0,3:0:0:0:
278,240,271607,1,0,0:0:0:0:
424,308,271711,1,0,3:0:0:0:
281,317,271815,1,8,0:0:0:0:
141,193,272023,21,0,3:0:0:0:
119,284,272232,1,8,0:0:0:0:
141,193,272440,1,0,3:0:0:0:
119,284,272544,1,0,3:0:0:0:
57,144,272648,1,8,0:0:0:0:
57,144,272857,69,0,3:0:0:0:
119,284,273065,1,8,0:0:0:0:
57,144,273273,1,0,3:0:0:0:
119,284,273377,1,0,3:0:0:0:
208,160,273482,1,8,0:0:0:0:
208,160,273690,22,0,B|233:145|273:137|273:137|308:147|349:176,1,93.7500035762788,2|0,3:2|0:0,0:0:0:0:
289,340,273898,1,8,0:0:0:0:
267,307,274002,1,0,0:0:0:0:
263,271,274107,1,0,3:0:0:0:
272,232,274211,1,0,3:0:0:0:
447,263,274315,70,0,B|425:283|400:291|400:291|377:288|358:278,1,93.7500035762788,10|0,0:0|0:0,0:0:0:0:
383,37,274523,1,0,3:0:0:0:
408,88,274627,1,0,0:0:0:0:
408,143,274732,1,8,0:0:0:0:
382,191,274836,1,0,3:0:0:0:
208,160,274940,22,0,B|190:143|189:112|189:112|218:67|265:49|265:49|313:125|291:227,1,337.499989700318,2|0,3:2|0:0,0:0:0:0:
221,296,275357,69,4,3:2:0:0:
315,327,275565,1,8,0:0:0:0:
221,296,275773,1,0,3:0:0:0:
315,327,275877,1,0,3:0:0:0:
157,362,275982,1,8,0:0:0:0:
157,362,276190,21,0,3:0:0:0:
315,327,276398,1,8,0:0:0:0:
157,362,276607,1,0,3:0:0:0:
315,327,276711,1,0,3:0:0:0:
201,197,276815,1,8,0:0:0:0:
201,197,277023,69,0,3:0:0:0:
55,292,277232,1,8,0:0:0:0:
201,197,277440,1,0,3:0:0:0:
82,171,277544,1,0,3:0:0:0:
178,314,277648,1,8,0:0:0:0:
355,287,277857,22,0,B|384:257|384:257|372:127|372:127|321:80,1,224.999993133545,0|8,3:0|0:0,0:0:0:0:
288,186,278169,1,0,0:0:0:0:
463,237,278273,2,0,L|446:73,1,112.499996566773,0|0,3:0|3:0,3:0:0:0:
204,177,278482,1,0,3:0:0:0:
243,255,278586,1,0,3:0:0:0:
260,87,278690,70,0,B|231:118|153:143|153:143|79:99|48:36,1,250,4|0,3:2|0:0,0:0:0:0:
332,12,279315,2,0,P|338:128|302:275,1,250,0|0,0:0|3:0,0:0:0:0:
124,194,279836,1,0,3:0:0:0:
260,87,279940,22,0,B|374:64|374:64|478:115,1,187.500007152558,8|0,0:0|3:0,0:0:0:0:
228,229,280357,6,0,B|227:290|227:290|208:382,1,93.7500035762788,6|0,3:1|0:0,0:0:0:0:
90,103,280565,1,0,0:0:0:0:
184,123,280669,2,0,B|158:166|158:166|104:212,1,93.7500035762788,2|0,3:1|0:0,0:0:0:0:
301,342,280877,1,0,3:0:0:0:
291,172,280982,86,0,P|362:160|502:167,1,187.500007152558,6|0,3:1|0:0,0:0:0:0:
253,254,281294,2,0,P|148:253|34:216,1,187.500007152558,2|0,3:1|0:0,0:0:0:0:
148,61,281607,1,2,3:1:0:0:
165,214,281711,1,0,3:0:0:0:
14,171,281815,1,0,3:0:0:0:
148,61,281919,1,0,3:0:0:0:
172,229,282023,6,0,P|181:345|181:345,1,93.7500035762788,6|0,3:2|0:0,0:0:0:0:
323,83,282232,1,8,0:0:0:0:
284,164,282336,1,0,0:0:0:0:
233,92,282440,2,0,L|244:14,2,46.8750017881394,0|0|0,3:0|0:0|3:0,0:0:0:0:
3,188,282648,2,0,B|80:174|80:174|260:193,1,187.500007152558,10|0,0:0|3:0,0:0:0:0:
253,248,282961,1,0,0:0:0:0:
118,98,283065,2,0,L|238:112,1,93.7500035762788,10|0,0:0|0:0,0:0:0:0:
215,341,283273,1,0,3:0:0:0:
114,355,283377,1,0,3:0:0:0:
253,248,283482,2,0,L|345:231,1,93.7500035762788,10|0,0:0|0:0,0:0:0:0:
397,37,283690,22,0,B|442:66|442:66|471:154|410:221,1,187.500007152558,0|8,3:0|0:0,0:0:0:0:
249,40,284002,1,0,0:0:0:0:
339,175,284107,2,0,B|296:198|296:198|240:201,1,93.7500035762788,2|0,3:2|3:0,3:0:0:0:
176,154,284315,1,8,0:0:0:0:
362,62,284419,1,0,0:0:0:0:
387,243,284523,2,0,B|323:288|323:288|178:273,1,187.500007152558,0|8,3:0|0:0,0:0:0:0:
205,45,284836,1,0,0:0:0:0:
240,132,284940,1,2,3:2:0:0:
55,96,285044,1,0,3:0:0:0:
116,25,285148,1,8,0:0:0:0:
177,197,285252,1,0,0:0:0:0:
38,87,285357,70,0,B|21:148|21:148|32:241|72:306,1,187.500007152558,6|8,3:2|0:0,0:0:0:0:
286,313,285669,1,0,0:0:0:0:
227,189,285773,2,0,B|195:178|163:186|163:186|71:241,1,93.7500035762788,0|0,3:0|3:0,3:0:0:0:
310,384,285982,2,0,P|326:325|314:165,1,187.500007152558,10|0,0:0|3:0,0:0:0:0:
281,96,286294,1,0,0:0:0:0:
413,252,286398,2,0,B|421:306|421:306|406:356,1,93.7500035762788,10|0,0:0|0:0,0:0:0:0:
118,327,286607,1,0,3:0:0:0:
242,287,286711,1,0,3:0:0:0:
7,242,286815,2,0,B|61:252|61:252|111:245,1,93.7500035762788,10|0,0:0|0:0,0:0:0:0:
358,165,287023,22,0,B|285:147|220:154|220:154|129:175,1,187.500007152558,0|8,3:0|0:0,0:0:0:0:
182,350,287336,1,0,0:0:0:0:
271,237,287440,2,0,P|326:242|391:258,1,93.7500035762788,0|0,3:0|3:0,3:0:0:0:
259,81,287648,2,0,B|213:78|213:78|156:91,1,93.7500035762788,8|0,0:0|0:0,0:0:0:0:
0,257,287857,2,0,B|17:286|17:286|140:309|140:309|182:288,1,187.500007152558,0|8,3:0|0:0,0:0:0:0:
277,129,288169,1,0,0:0:0:0:
130,220,288273,1,2,3:2:0:0:
269,302,288377,1,0,3:0:0:0:
277,129,288482,1,8,0:0:0:0:
130,220,288586,1,0,3:0:0:0:
269,302,288690,70,0,P|356:168|368:85,1,187.500007152558,6|8,3:2|0:0,0:0:0:0:
308,0,289002,1,0,0:0:0:0:
205,99,289107,2,0,P|234:143|252:195,1,93.7500035762788,0|0,3:0|3:0,3:0:0:0:
481,263,289315,2,0,P|394:273|247:245,1,187.500007152558,10|0,0:0|3:0,0:0:0:0:
248,181,289627,1,0,0:0:0:0:
137,327,289732,2,0,B|174:278|174:278|243:243,1,93.7500035762788,10|0,0:0|0:0,0:0:0:0:
379,56,289940,1,0,3:0:0:0:
310,196,290044,1,0,3:0:0:0:
214,68,290148,2,0,B|191:108|191:108|199:160,1,93.7500035762788,10|0,0:0|0:0,0:0:0:0:
277,332,290357,22,0,B|299:188|299:188|232:231,1,187.500007152558,0|8,3:0|0:0,0:0:0:0:
184,261,290669,1,0,0:0:0:0:
389,136,290773,2,0,B|392:161|392:161|375:270,1,93.7500035762788,2|0,3:2|3:0,3:0:0:0:
172,356,290982,1,8,0:0:0:0:
259,321,291086,1,0,0:0:0:0:
94,300,291190,2,0,B|46:245|46:245|80:134,1,187.500007152558,0|8,3:0|0:0,0:0:0:0:
308,98,291502,1,0,0:0:0:0:
225,227,291607,2,0,P|175:231|109:224,1,93.7500035762788,2|0,3:2|3:0,3:0:0:0:
342,22,291815,1,8,0:0:0:0:
415,99,291919,1,0,0:0:0:0:
230,52,292023,70,0,B|220:88|220:88|235:154,1,93.7500035762788,6|0,3:2|0:0,0:0:0:0:
417,226,292232,2,0,B|458:188|458:188|383:174|313:133,1,187.500007152558,8|0,0:0|3:0,0:0:0:0:
109,184,292544,1,0,3:0:0:0:
205,286,292648,2,0,P|257:264|291:221,1,93.7500035762788,8|0,0:0|0:0,0:0:0:0:
474,109,292857,2,0,P|425:96|378:74,1,93.7500035762788,0|0,3:3|0:0,0:0:0:0:
176,7,293065,2,0,B|166:51|166:51|189:115,1,93.7500035762788,10|0,0:0|0:0,0:0:0:0:
281,237,293273,1,0,3:0:0:0:
404,256,293377,1,0,3:0:0:0:
353,142,293482,2,0,B|313:107|313:107|244:95,1,93.7500035762788,10|0,0:0|0:0,0:0:0:0:
77,0,293690,22,0,B|66:55|66:55|105:185,1,187.500007152558,4|8,3:2|0:0,0:0:0:0:
135,290,294002,1,0,0:0:0:0:
303,216,294107,2,0,B|255:200|255:200|193:206,1,93.7500035762788,0|0,3:0|3:0,3:0:0:0:
0,360,294315,1,8,0:0:0:0:
0,360,294523,70,0,P|51:377|116:382,1,93.7500035762788,8|0,0:0|0:0,0:0:0:0:
257,377,294732,1,0,3:0:0:0:
151,198,294836,2,0,P|119:241|85:322,1,93.7500035762788,8|0,0:0|3:0,0:0:0:0:
256,384,295044,21,10,0:0:0:0:
411,308,295148,1,8,0:0:0:0:
268,212,295252,1,8,0:0:0:0:
411,308,295357,6,0,B|325:293|325:293|261:308|199:390,1,218.750002086163,6|8,3:2|0:0,0:0:0:0:
328,376,295669,1,0,0:0:0:0:
317,211,295772,1,0,3:0:0:0:
244,249,295877,1,0,3:0:0:0:
397,231,295982,2,0,B|451:191|451:191|463:128|432:19,1,218.750002086163,10|0,0:0|3:0,0:0:0:0:
239,17,296294,1,0,0:0:0:0:
361,104,296398,2,0,B|311:126|311:126|257:131,1,109.375001043081,10|0,0:0|0:0,0:0:0:0:
164,89,296607,1,0,3:0:0:0:
239,17,296711,1,0,3:0:0:0:
149,187,296815,2,0,B|104:155|104:155|73:110,1,109.375001043081,10|0,0:0|0:0,0:0:0:0:
375,254,297023,86,0,L|401:381,1,109.375001043081,0|0,3:0|0:0,0:0:0:0:
59,123,297232,2,0,L|33:-4,1,109.375001043081,8|0,0:0|0:0,0:0:0:0:
330,12,297440,1,2,3:2:0:0:
247,156,297544,1,0,3:0:0:0:
239,63,297648,2,0,P|294:82|356:138,1,109.375001043081,8|0,0:0|0:0,0:0:0:0:
155,120,297857,2,0,P|144:66|149:12,1,109.375001043081,0|0,3:0|0:0,0:0:0:0:
247,156,298065,1,8,0:0:0:0:
175,221,298169,2,0,B|123:199|123:199|84:162,1,109.375001043081,0|2,3:0|0:2,0:0:0:0:
330,12,298377,1,0,3:0:0:0:
400,246,298482,2,0,L|385:385,1,109.375001043081,8|0,0:0|0:0,0:0:0:0:
84,262,298690,6,0,B|56:221|38:173|38:173|46:122|77:61,1,218.750002086163,6|8,3:2|0:0,0:0:0:0:
178,319,299002,1,0,0:0:0:0:
247,156,299107,1,0,3:0:0:0:
175,221,299211,1,0,3:0:0:0:
155,120,299315,2,0,B|191:70|191:70|237:54|359:51,1,218.750002086163,10|0,0:0|3:0,0:0:0:0:
496,189,299627,1,0,0:0:0:0:
459,11,299732,2,0,B|437:45|437:45|424:114,1,109.375001043081,10|0,0:0|0:0,0:0:0:0:
453,324,299940,1,0,3:0:0:0:
293,225,300044,1,0,3:0:0:0:
363,332,300148,86,0,B|386:251|376:180|376:180|332:130,2,218.750002086163,10|0|10,0:0|3:0|0:0,0:0:0:0:
253,142,300669,1,0,0:0:0:0:
207,219,300773,2,0,P|155:199|107:175,1,109.375001043081,2|0,3:2|3:0,0:0:0:0:
345,52,300982,2,0,P|396:71|444:95,1,109.375001043081,8|0,0:0|0:0,0:0:0:0:
156,297,301190,2,0,P|175:189|209:86,1,218.750002086163,0|8,3:0|0:0,0:0:0:0:
251,5,301502,1,0,3:0:0:0:
122,95,301607,5,2,3:2:0:0:
289,174,301711,1,0,3:0:0:0:
107,99,301815,1,8,0:0:0:0:
263,3,301919,1,0,3:0:0:0:
92,103,302023,86,0,B|160:93|192:103|192:103|259:80|259:80|342:96,1,218.750002086163,6|8,3:2|0:0,0:0:0:0:
503,261,302336,1,0,0:0:0:0:
426,83,302440,1,0,3:0:0:0:
397,196,302544,1,0,3:0:0:0:
510,139,302648,2,0,B|523:107|523:107|510:24,1,109.375001043081,10|0,0:0|0:0,0:0:0:0:
346,272,302857,2,0,L|367:412,1,109.375001043081,0|0,3:0|0:0,0:0:0:0:
105,238,303065,2,0,B|190:187|253:173|253:173|306:192,1,218.750002086163,10|0,0:0|3:0,0:0:0:0:
249,269,303377,1,0,3:0:0:0:
154,116,303482,2,0,P|101:101|54:74,1,109.375001043081,10|0,0:0|0:0,0:0:0:0:
361,86,303690,6,0,P|387:133|402:185,1,109.375001043081,4|0,3:2|0:0,0:0:0:0:
221,358,303898,1,8,0:0:0:0:
221,358,304107,1,0,3:0:0:0:
249,269,304211,1,0,3:0:0:0:
140,331,304315,2,0,B|113:336|113:336|23:313,1,109.375001043081,8|0,0:0|0:0,0:0:0:0:
263,167,304523,2,0,B|314:194|314:194|335:230|346:304|346:304|302:366,2,218.750002086163,0|8|2,3:0|0:0|3:2,0:0:0:0:
63,193,305044,1,0,3:0:0:0:
122,2,305148,2,0,P|140:53|146:107,1,109.375001043081,8|0,0:0|0:0,0:0:0:0:
245,269,305357,86,0,B|222:197|222:197|248:126|296:45,1,218.750002086163,6|8,3:2|0:0,0:0:0:0:
282,67,305773,1,0,3:0:0:0:
206,13,305877,1,0,3:0:0:0:
389,80,305982,1,8,0:0:0:0:
389,80,306190,2,0,B|424:57|424:57|490:48,1,109.375001043081,0|0,3:0|0:0,0:0:0:0:
245,269,306398,2,0,B|178:260|178:260|143:237,1,109.375001043081,8|0,0:0|0:0,0:0:0:0:
298,18,306607,1,0,3:0:0:0:
389,80,306711,1,0,3:0:0:0:
237,114,306815,2,0,B|214:79|214:79|205:12,1,109.375001043081,8|0,0:0|0:0,0:0:0:0:
471,152,307023,6,0,B|470:213|470:213|439:248|439:248|449:290|449:290|434:322|432:357,1,218.750002086163,6|8,3:2|0:0,0:0:0:0:
433,355,307336,1,0,0:0:0:0:
374,157,307440,1,0,3:0:0:0:
333,311,307544,1,0,3:0:0:0:
217,187,307648,2,0,B|165:174|165:174|58:193|-22:253,1,218.750002086163,14|0,0:0|3:0,0:0:0:0:
40,126,307961,1,0,0:0:0:0:
142,355,308065,2,0,B|173:287|173:287|147:233,1,109.375001043081,8|0,0:0|3:0,0:0:0:0:
56,27,308273,2,0,B|25:95|25:95|51:149,1,109.375001043081,8|0,0:0|3:0,0:0:0:0:
89,295,308482,1,8,0:0:0:0:
119,95,308586,1,8,0:0:0:0:
270,267,308690,86,0,L|419:230,1,109.375001043081,6|0,3:2|0:0,0:0:0:0:
225,68,308898,2,0,L|76:105,1,109.375001043081,8|0,0:0|0:0,0:0:0:0:
223,203,309107,1,0,3:0:0:0:
317,149,309211,1,0,3:0:0:0:
243,77,309315,2,0,L|216:183,1,109.375001043081,8|0,0:0|0:0,0:0:0:0:
402,346,309523,6,0,L|375:239,1,109.375001043081,0|0,3:0|0:0,0:0:0:0:
40,126,309732,2,0,L|66:232,1,109.375001043081,8|0,0:0|0:0,0:0:0:0:
226,222,309940,1,0,3:0:0:0:
159,37,310044,1,0,3:0:0:0:
55,121,310148,2,0,L|161:147,1,109.375001043081,8|0,0:0|0:0,0:0:0:0:
475,32,310357,86,0,L|211:101,1,218.750002086163,6|8,3:2|0:0,0:0:0:0:
497,248,310669,1,0,0:0:0:0:
497,248,310773,1,0,3:0:0:0:
341,152,310877,1,0,3:0:0:0:
472,48,310982,2,0,L|445:154,1,109.375001043081,8|0,0:0|0:0,0:0:0:0:
396,345,311190,5,6,3:2:0:0:
42,72,311398,1,0,3:0:0:0:
470,72,311607,1,0,3:0:0:0:
116,345,311815,1,0,3:0:0:0:
186,277,311919,1,0,3:0:0:0:
28,305,312023,38,0,P|69:350|171:384,1,149.999995422363,6|0,3:2|0:2,0:2:0:0:
119,183,312336,2,0,P|113:263|125:296,1,74.9999977111817
265,163,312544,1,0,0:0:0:0:
265,163,312648,2,0,P|228:193|204:261,1,74.9999977111817
383,347,312857,21,2,3:2:0:0:
389,333,312961,1,0,0:0:0:0:
392,318,313065,1,0,0:0:0:0:
392,303,313169,1,0,0:0:0:0:
391,285,313273,1,2,0:0:0:0:
337,217,313377,1,0,0:0:0:0:
425,211,313482,2,0,P|422:182|430:147,2,49.9999984741211,0|0|0,3:0|0:0|0:0,0:0:0:0:
501,346,313690,69,2,3:2:0:0:
486,350,313794,1,0,0:0:0:0:
471,351,313898,1,0,0:0:0:0:
456,349,314002,1,0,0:0:0:0:
391,285,314107,1,2,0:0:0:0:
376,282,314211,1,0,0:0:0:0:
361,281,314315,1,0,0:0:0:0:
346,281,314419,1,0,0:0:0:0:
298,366,314523,22,0,B|319:307|308:238|308:238|259:168,1,187.500007152558,2|0,3:2|0:0,0:0:0:0:
182,185,314836,1,0,0:0:0:0:
219,267,314940,2,0,B|212:300|212:300|214:350,2,49.9999984741211,2|0|0,0:0|0:0|0:0,0:0:0:0:
286,118,315148,1,0,3:0:0:0:
286,118,315252,1,0,0:0:0:0:
139,116,315357,69,2,3:2:0:0:
125,122,315461,1,0,0:0:0:0:
114,132,315565,1,0,0:0:0:0:
107,145,315669,1,0,0:0:0:0:
48,201,315773,1,0,0:0:0:0:
62,208,315877,1,0,0:0:0:0:
73,218,315981,1,0,0:0:0:0:
80,231,316085,1,0,0:0:0:0:
107,318,316190,21,2,3:2:0:0:
46,380,316294,1,0,0:0:0:0:
25,295,316398,2,0,P|64:251|100:237,1,74.9999977111817
259,234,316607,69,2,3:2:0:0:
301,328,316711,1,0,0:0:0:0:
199,317,316815,1,0,0:0:0:0:
259,234,316919,1,0,0:0:0:0:
362,244,317023,21,2,3:2:0:0:
368,230,317127,1,0,0:0:0:0:
369,214,317232,1,0,0:0:0:0:
365,196,317336,1,0,0:0:0:0:
304,124,317440,1,2,0:0:0:0:
394,105,317544,1,0,0:0:0:0:
457,177,317648,2,0,P|468:150|486:129,2,49.9999984741211,0|0|0,3:0|0:0|0:0,0:0:0:0:
501,266,317857,70,0,P|436:276|310:270,1,149.999995422363,2|0,0:0|3:0,0:0:0:0:
248,190,318273,1,10,0:0:0:0:
166,363,318482,1,0,3:0:0:0:
37,25,318690,22,0,P|45:139|60:258,1,200,6|8,3:1|0:0,0:0:0:0:
55,224,319523,1,2,3:1:0:0:
75,324,319732,1,0,3:0:0:0:
270,102,319940,1,8,0:1:0:0:
270,102,320357,70,0,B|240:303,1,200,6|8,3:1|0:1,0:0:0:0:
240,299,321190,1,2,3:1:0:0:
435,219,321607,1,8,0:1:0:0:
339,263,321815,1,0,3:0:0:0:
461,26,322023,22,0,B|413:40|413:40|369:73|369:73|316:46|228:30,1,224.999993133545,6|0,3:1|0:0,0:0:0:0:
256,35,322440,2,0,B|201:56|156:86|156:86|210:125|305:146,1,224.999993133545,8|0,0:0|0:0,0:0:0:0:
257,133,322857,1,2,3:1:0:0:
161,286,323065,1,0,3:0:0:0:
365,10,323273,2,0,B|413:55|413:55|405:146,1,149.999995422363,8|0,0:1|3:0,0:0:0:0:
279,346,323690,70,0,B|293:289|333:238|333:238|393:237|449:290|449:290|399:355,1,281.250010728836,6|0,3:1|0:0,0:0:0:0:
279,346,324107,2,0,P|259:235|264:96,1,187.500007152558,10|0,0:1|3:0,0:0:0:0:
213,26,324523,1,10,0:1:0:0:
34,137,324732,1,8,0:0:0:0:
220,32,324940,21,10,0:1:0:0:
34,137,325044,1,8,0:0:0:0:
220,32,325148,1,8,0:0:0:0:
34,137,325252,1,8,0:0:0:0:
257,160,325357,70,0,B|340:200|340:200|443:150,1,187.500007152558,6|8,3:1|0:0,0:0:0:0:
264,77,325669,1,0,0:0:0:0:
174,208,325773,2,0,P|155:250|156:297,1,93.7500035762788,0|0,3:0|3:0,3:0:0:0:
349,96,325982,2,0,P|349:49|331:6,1,93.7500035762788,8|0,0:0|0:0,0:0:0:0:
85,74,326190,6,0,B|54:133|54:133|52:202|101:289,1,187.500007152558,0|10,3:0|0:1,0:0:0:0:
297,300,326502,1,0,0:0:0:0:
198,166,326607,1,2,3:1:0:0:
127,323,326711,1,0,3:0:0:0:
297,300,326815,2,0,B|339:298|339:298|390:283,1,93.7500035762788,10|0,0:1|0:0,0:0:0:0:
482,103,327023,86,0,B|465:79|465:79|393:61|326:84,1,93.7500035762788,2|0,3:1|0:0,0:0:0:0:
229,161,327232,1,8,0:0:0:0:
294,239,327336,2,0,B|323:236|323:236|374:182|388:113,1,93.7500035762788,2|0,0:1|3:0,0:0:0:0:
452,26,327544,1,0,3:0:0:0:
271,11,327648,2,0,B|258:37|258:37|279:109|332:155,1,93.7500035762788,10|0,0:1|0:0,0:0:0:0:
293,356,327857,6,0,B|243:336|243:336|141:333|141:333,1,93.7500035762788,2|0,3:1|0:0,0:0:0:0:
11,211,328065,1,8,0:0:0:0:
0,384,328169,2,0,P|92:340|105:317,1,93.7500035762788,2|0,0:1|3:0,0:0:0:0:
227,187,328377,1,0,3:0:0:0:
116,149,328482,2,0,P|126:229|141:270,1,93.7500035762788,10|0,0:1|0:0,0:0:0:0:
336,289,328690,86,0,B|371:263|393:231|393:231|393:190|381:147|381:147|362:166,1,187.500007152558,6|8,3:1|0:0,0:0:0:0:
298,208,329002,1,0,0:0:0:0:
473,186,329107,2,0,P|469:144|452:67,1,93.7500035762788,0|0,3:0|3:0,3:0:0:0:
213,57,329315,1,10,0:1:0:0:
160,137,329419,1,0,0:0:0:0:
310,68,329523,6,0,B|346:46|346:46|347:124|333:238,1,187.500007152558,2|8,3:1|0:0,0:0:0:0:
183,293,329836,1,0,0:0:0:0:
160,137,329940,2,0,P|242:160|283:195,1,93.7500035762788,0|0,3:0|3:0,3:0:0:0:
412,261,330148,2,0,P|369:280|323:288,1,93.7500035762788,8|0,0:0|0:0,0:0:0:0:
177,54,330357,86,0,B|116:109|101:171|101:171|116:213|116:213|90:255|101:341,1,281.250010728836,0|0,3:0|0:0,0:0:0:0:
254,171,330773,1,0,3:0:0:0:
246,155,330877,1,0,3:0:0:0:
232,145,330982,1,10,0:1:0:0:
198,260,331086,1,0,0:0:0:0:
311,238,331190,6,0,B|337:186|337:186|334:134|302:51,1,187.500007152558,2|8,3:1|0:0,0:0:0:0:
222,280,331502,2,0,B|262:305|309:321|309:321|354:312|400:293,1,187.500007152558,2|0,0:1|3:0,0:0:0:0:
418,77,331815,1,10,0:1:0:0:
253,172,331919,1,8,0:0:0:0:
433,197,332023,86,0,B|397:190|365:202|365:202|321:180|321:180|283:173|236:170,1,187.500007152558,6|8,3:1|0:0,0:0:0:0:
372,116,332336,1,0,0:0:0:0:
297,259,332440,2,0,P|312:352|307:389,1,93.7500035762788,0|0,3:0|3:0,3:0:0:0:
81,113,332648,1,10,0:1:0:0:
144,40,332752,1,0,0:0:0:0:
114,202,332857,6,0,P|133:245|127:319,1,93.7500035762788,2|0,3:1|0:0,0:0:0:0:
81,361,333065,1,8,0:0:0:0:
193,168,333169,2,0,B|223:225|229:287|229:287|197:347,1,187.500007152558,2|0,0:1|3:0,0:0:0:0:
33,209,333482,2,0,P|34:162|53:119,1,93.7500035762788,10|0,0:1|0:0,0:0:0:0:
193,73,333690,86,0,B|231:80|231:80|247:90|247:90|282:95,1,93.7500035762788,2|0,3:1|0:0,0:0:0:0:
123,139,333898,1,8,0:0:0:0:
305,189,334002,2,0,B|279:218|279:218|263:227|263:227|241:255,1,93.7500035762788,2|0,0:1|3:0,0:0:0:0:
282,95,334211,1,0,3:0:0:0:
149,228,334315,2,0,B|136:191|136:191|136:172|136:172|123:139,1,93.7500035762788,10|0,0:1|0:0,0:0:0:0:
382,134,334523,6,0,B|405:193|405:193|379:277|379:277,1,112.499996566773,2|0,3:1|0:0,0:0:0:0:
301,288,334732,1,8,0:0:0:0:
448,83,334836,2,0,B|502:131|513:195|513:195|484:267|484:267|471:240,1,224.999993133545,2|0,0:1|3:0,0:0:0:0:
367,52,335148,2,0,P|304:46|218:63,1,112.499996566773,10|0,0:1|0:0,0:0:0:0:
77,232,335357,86,0,B|144:247|250:244|250:244|253:199|220:163,1,250,6|8,3:1|0:0,0:0:0:0:
137,134,335669,1,0,0:0:0:0:
175,330,335773,2,0,P|239:332|330:315,1,125,0|0,3:0|3:0,3:0:0:0:
137,134,335982,2,0,P|75:125|12:127,1,125,8|0,0:0|0:0,0:0:0:0:
82,335,336190,6,0,B|138:384|138:384|178:179,1,250,0|8,3:0|0:0,0:0:0:0:
131,21,336502,1,0,0:0:0:0:
131,21,336607,1,0,3:0:0:0:
85,209,336711,1,0,3:0:0:0:
276,145,336815,2,0,L|289:297,1,125,10|0,0:1|0:0,0:0:0:0:
424,339,337023,86,0,B|447:275|448:219|448:219|413:164,1,187.500007152558,6|8,3:1|0:0,0:0:0:0:
294,34,337336,1,0,0:0:0:0:
212,180,337440,2,0,P|307:183|326:174,1,93.7500035762788,0|0,3:0|3:0,3:0:0:0:
482,48,337648,2,0,P|435:41|390:52,1,93.7500035762788,8|0,0:0|0:0,0:0:0:0:
116,184,337857,6,0,P|89:227|114:373,1,187.500007152558,2|8,3:1|0:0,0:0:0:0:
297,214,338169,1,2,3:1:0:0:
205,363,338273,1,8,0:0:0:0:
197,153,338377,1,0,3:0:0:0:
390,245,338482,2,0,B|401:180|401:180|395:100,1,93.7500035762788,10|0,0:1|0:0,0:0:0:0:
33,44,338690,86,0,B|101:82|101:82|153:86|204:42,1,187.500007152558,6|8,3:1|0:0,0:0:0:0:
293,57,339002,1,0,0:0:0:0:
110,207,339107,1,0,3:0:0:0:
100,105,339211,1,0,3:0:0:0:
197,153,339315,2,0,B|337:140,1,93.7500035762788,8|0,0:0|0:0,0:0:0:0:
488,275,339523,54,0,B|454:237|454:237|381:225,1,93.7500035762788,2|0,3:1|0:0,0:0:0:0:
258,233,339732,1,8,0:0:0:0:
251,317,339836,2,0,B|300:306|300:306|347:249,1,93.7500035762788,2|0,0:1|3:0,0:0:0:0:
488,94,340044,1,0,3:0:0:0:
330,89,340148,2,0,B|314:137|314:137|340:206,1,93.7500035762788,10|0,0:1|3:0,3:0:0:0:
398,325,340357,38,0,B|427:327|427:327|470:315|487:273,1,112.499996566773,2|0,3:1|0:0,0:0:0:0:
227,78,340565,1,8,0:0:0:0:
170,169,340669,2,0,B|153:193|153:193|142:236|168:271,1,112.499996566773,2|0,0:1|3:0,0:0:0:0:
410,230,340877,1,0,3:0:0:0:
403,55,340982,2,0,B|390:29|390:29|359:-1|314:3,1,112.499996566773,10|0,0:1|0:0,0:0:0:0:
59,294,341190,54,0,P|122:277|185:270,1,112.499996566773,2|0,3:1|0:0,0:0:0:0:
259,243,341398,1,8,0:0:0:0:
0,131,341502,2,0,B|62:118|62:118|114:155|114:155|160:148|210:165,1,224.999993133545,2|0,0:1|3:0,0:0:0:0:
320,128,341815,1,10,0:1:0:0:
169,271,341919,1,0,0:0:0:0:
425,360,342023,38,0,B|456:252|456:252|427:131|427:131|365:237,1,337.499989700318,6|0,3:1|0:0,0:0:0:0:
169,271,342440,1,0,3:0:0:0:
277,373,342544,1,0,3:0:0:0:
289,249,342648,2,0,B|258:235|258:235|149:257,1,112.499996566773,10|0,0:1|0:0,0:0:0:0:
31,374,342857,2,0,B|80:372|100:358|100:358|180:371|180:371|214:351|254:347,2,224.999993133545,2|8|0,3:1|0:0|3:0,0:0:0:0:
37,288,343377,1,0,3:0:0:0:
159,151,343482,2,0,B|188:176|188:176|178:274,1,112.499996566773,8|0,0:0|0:0,0:0:0:0:
60,34,343690,54,0,L|203:50,1,112.499996566773,0|0,3:0|0:0,0:0:0:0:
320,186,343898,2,0,L|13:225,1,224.999993133545,8|0,0:0|3:0,0:0:0:0:
393,105,344211,1,0,3:0:0:0:
280,265,344315,2,0,B|232:202|232:202|232:116|264:60,1,224.999993133545,10|0,0:1|3:0,0:0:0:0:
423,304,344627,1,0,0:0:0:0:
331,352,344732,1,8,0:0:0:0:
320,186,344836,2,0,B|371:184|371:184|401:192|441:224,1,112.499996566773,2|0,3:1|0:0,0:0:0:0:
331,352,345044,1,0,3:0:0:0:
180,269,345148,2,0,B|159:244|152:214|152:214|153:163,1,112.499996566773,10|0,0:1|0:0,0:0:0:0:
506,107,345357,38,0,B|511:142|497:182|497:182|507:223|507:223|475:273|462:331,2,224.999993133545,4|8|0,3:2|0:0|3:0,0:0:0:0:
404,6,345877,1,0,3:0:0:0:
491,91,345982,2,0,P|434:110|341:123,1,112.499996566773,8|0,0:0|0:0,0:0:0:0:
47,74,346190,2,0,P|191:149|277:254,1,224.999993133545,0|8,3:0|0:0,0:0:0:0:
333,217,346502,1,0,0:0:0:0:
177,357,346607,1,0,3:0:0:0:
101,314,346711,1,0,3:0:0:0:
173,267,346815,2,0,P|228:277|281:295,1,112.499996566773,8|0,0:0|0:0,0:0:0:0:
138,1,347023,54,0,B|104:32|104:32|87:87|89:132|89:132|149:230,1,224.999993133545,2|8,3:1|0:0,0:0:0:0:
298,87,347336,2,0,B|258:74|258:74|224:83|172:114,1,112.499996566773,2|0,0:1|3:0,0:0:0:0:
29,239,347544,1,0,3:0:0:0:
281,295,347648,2,0,B|294:254|294:254|285:220|266:190,1,112.499996566773,10|0,0:1|0:0,0:0:0:0:
177,357,347857,38,0,B|256:391|341:387|341:387|378:345,1,224.999993133545,2|8,3:1|0:0,0:0:0:0:
466,78,348169,1,2,3:1:0:0:
489,186,348273,2,0,B|469:209|469:209|442:223|389:228,1,112.499996566773,0|0,0:0|3:0,0:0:0:0:
94,59,348482,2,0,B|146:64|173:78|173:78|193:101,1,112.499996566773,10|0,0:1|0:0,0:0:0:0:
143,213,348690,54,0,B|169:138|169:138|162:122|162:122|179:73|179:73|173:57|173:57|185:-2,2,224.999993133545,6|8|0,3:1|0:0|3:0,0:0:0:0:
14,161,349211,1,0,3:0:0:0:
149,228,349315,2,0,P|216:200|310:154,1,112.499996566773,8|0,0:0|0:0,0:0:0:0:
137,82,349523,2,0,P|70:54|-24:8,1,112.499996566773,0|0,3:0|3:0,0:0:0:0:
302,96,349732,2,0,P|246:252|227:368,1,224.999993133545,8|0,0:0|3:0,0:0:0:0:
140,323,350044,1,0,3:0:0:0:
350,258,350148,1,10,0:1:0:0:
156,89,350252,1,0,0:0:0:0:
67,214,350357,38,0,B|161:246|238:248|238:248|208:228|190:192,1,250,4|8,3:2|0:0,0:0:0:0:
405,144,350669,2,0,B|310:111|233:109|233:109|264:130|281:165,1,250,2|0,0:1|3:0,0:0:0:0:
318,364,350982,2,0,B|349:312|349:312|346:265|330:239,1,125,10|0,0:1|0:0,0:0:0:0:
157,0,351190,54,0,B|126:52|126:52|129:99|145:125,1,125,2|0,3:1|0:0,0:0:0:0:
70,333,351398,1,8,0:0:0:0:
63,349,351607,1,8,0:0:0:0:
223,267,351711,1,0,3:0:0:0:
107,221,351815,1,2,3:1:0:0:
199,384,351919,1,0,3:0:0:0:
8,245,352023,6,0,P|151:203|247:139,1,212.500004053116,6|8,3:1|0:0,0:0:0:0:
365,91,352336,2,0,P|311:141|290:209,1,106.250002026558,2|0,0:1|3:0,0:0:0:0:
330,270,352544,1,0,3:0:0:0:
374,71,352648,2,0,L|200:50,1,106.250002026558,10|0,0:1|0:0,0:0:0:0:
350,360,352857,2,0,B|430:321|430:321|440:267|399:168,1,212.500004053116,2|8,0:1|0:0,0:0:0:0:
411,200,353273,37,0,3:0:0:0:
330,270,353377,1,0,3:0:0:0:
465,113,353482,1,8,0:0:0:0:
465,113,353690,54,0,P|477:62|503:-2,1,106.250002026558,2|0,0:1|0:0,0:0:0:0:
512,199,353898,1,8,0:0:0:0:
318,150,354002,2,0,P|343:270|350:391,1,212.500004053116,2|0,0:1|3:0,0:0:0:0:
490,283,354315,2,0,P|477:334|458:384,1,106.250002026558,10|0,0:1|0:0,0:0:0:0:
218,259,354523,2,0,B|270:229|270:229|489:243,1,212.500004053116,2|8,3:1|0:0,0:0:0:0:
110,122,354836,1,0,0:0:0:0:
203,248,354940,2,0,B|130:260|50:257|50:257|-1:227,1,212.500004053116,2|8,3:1|0:0,0:0:0:0:
314,343,355252,1,0,0:0:0:0:
188,231,355357,38,0,B|170:198|170:198|180:163|208:122,1,106.250002026558,2|0,3:1|0:0,0:0:0:0:
442,113,355565,1,8,0:0:0:0:
422,238,355669,2,0,L|402:367,1,106.250002026558,2|0,3:1|3:0,0:0:0:0:
214,340,355877,1,0,3:0:0:0:
406,225,355982,2,0,L|535:205,1,106.250002026558,10|0,0:1|0:0,0:0:0:0:
324,38,356190,54,0,B|264:15|264:15|268:86|285:161,1,212.500004053116,2|8,3:1|0:0,0:0:0:0:
472,332,356502,2,0,B|532:355|532:355|525:280|510:208,1,212.500004053116,2|0,0:1|3:0,0:0:0:0:
284,178,356815,2,0,B|240:184|240:184|131:138,1,106.250002026558,10|0,0:1|0:0,0:0:0:0:
429,49,357023,38,0,L|376:321,1,212.500004053116,2|8,3:1|0:0,0:0:0:0:
388,257,357440,1,2,3:1:0:0:
327,101,357544,1,0,3:0:0:0:
506,138,357648,1,8,0:0:0:0:
131,300,357857,1,2,3:1:0:0:
131,300,358065,53,8,0:0:0:0:
227,173,358169,1,0,3:0:0:0:
210,345,358272,1,8,0:0:0:0:
71,243,358377,1,0,3:0:0:0:
311,127,358482,1,8,0:0:0:0:
289,383,358586,1,0,3:0:0:0:
210,263,358690,38,0,B|166:224|140:180|140:180|166:120|206:57,1,212.500004053116,4|8,3:1|0:0,0:0:0:0:
293,232,359002,1,2,0:1:0:0:
216,281,359107,2,0,P|132:266|39:272,1,106.250002026558,0|0,3:0|3:0,0:0:0:0:
404,66,359315,2,0,P|456:61|508:50,1,106.250002026558,8|0,0:0|0:0,0:0:0:0:
362,326,359523,2,0,P|317:229|305:124,1,212.500004053116,2|8,3:1|0:0,0:0:0:0:
305,124,359940,53,0,3:0:0:0:
405,201,360044,1,0,3:0:0:0:
207,166,360148,1,8,0:0:0:0:
207,166,360357,38,0,P|163:122|134:48,1,106.250002026558,2|0,3:1|0:0,0:0:0:0:
233,16,360565,1,8,0:0:0:0:
222,182,360669,2,0,P|114:222|-55:221,1,212.500004053116,2|0,3:1|3:0,0:0:0:0:
360,23,360982,2,0,P|343:83|294:145,1,106.250002026558,8|0,0:0|0:0,0:0:0:0:
239,198,361190,54,0,B|303:222|303:222|379:214|379:214|432:255,1,212.500004053116,2|8,3:1|0:0,0:0:0:0:
323,313,361502,1,0,0:0:0:0:
211,288,361607,2,0,B|147:264|147:264|71:272|71:272|17:230,1,212.500004053116,2|8,3:1|0:0,0:0:0:0:
0,120,361919,1,0,0:0:0:0:
102,172,362023,38,0,B|98:134|98:134|144:68,1,112.499996566773,6|0,3:1|0:0,0:0:0:0:
246,58,362232,1,8,0:0:0:0:
92,245,362336,2,0,B|73:78|73:78|79:1,1,224.999993133545,2|0,0:1|3:0,0:0:0:0:
334,102,362648,2,0,B|355:173|355:173|340:208,1,112.499996566773,10|0,0:1|0:0,0:0:0:0:
26,309,362857,54,0,B|77:291|77:291|175:302,1,112.499996566773,2|0,3:1|0:0,0:0:0:0:
286,357,363065,1,8,0:0:0:0:
61,379,363169,2,0,B|79:352|143:317|143:317|288:330,1,224.999993133545,2|0,0:1|3:0,0:0:0:0:
422,370,363482,1,10,0:1:0:0:
233,247,363586,1,0,0:0:0:0:
346,269,363690,86,0,B|341:224|341:224|330:208|330:208|323:155,2,112.499996566773,6|0|8,3:1|0:0|0:0,0:0:0:0:
438,286,364002,1,2,0:1:0:0:
224,231,364107,1,0,3:0:0:0:
434,120,364211,1,0,3:0:0:0:
317,149,364315,6,0,B|272:144|272:144|256:133|256:133|203:126,2,112.499996566773,10|0|0,0:1|0:0|3:0,0:0:0:0:
215,217,364627,1,2,0:1:0:0:
301,23,364732,1,8,0:0:0:0:
429,188,364836,1,0,0:0:0:0:
201,116,364940,86,0,B|205:71|205:71|217:55|217:55|224:2,1,112.499996566773,2|0,3:1|3:0,0:0:0:0:
334,275,365148,2,0,B|330:320|330:320|318:336|318:336|311:389,1,112.499996566773,8|0,0:0|0:0,0:0:0:0:
142,22,365357,5,6,3:1:0:0:
201,116,365461,1,0,0:0:0:0:
63,85,365565,1,8,0:0:0:0:
223,8,365669,85,2,0:1:0:0:
227,212,365773,1,0,3:0:0:0:
64,100,365877,1,0,3:0:0:0:
277,71,365982,5,10,0:1:0:0:
155,293,366086,1,0,0:0:0:0:
65,113,366190,1,8,0:0:0:0:
251,240,366294,85,2,3:1:0:0:
11,201,366398,1,0,3:0:0:0:
163,0,366502,1,0,3:0:0:0:
174,144,366607,6,0,B|142:134|142:134|116:141|116:141|56:128,1,112.499996566773,10|0,0:1|0:0,0:0:0:0:
387,8,366815,2,0,B|419:18|419:18|445:11|445:11|505:24,1,112.499996566773,0|0,3:0|0:0,0:0:0:0:
357,266,367023,69,4,3:2:0:0:
332,252,367127,1,0,0:0:0:0:
317,227,367232,1,8,0:0:0:0:
314,199,367336,1,0,0:0:0:0:
438,291,367440,5,0,3:0:0:0:
373,344,367544,1,0,3:0:0:0:
289,335,367648,1,8,0:0:0:0:
244,263,367752,1,0,0:0:0:0:
434,120,367857,85,0,3:0:0:0:
434,148,367961,1,0,0:0:0:0:
420,174,368066,1,8,0:0:0:0:
397,190,368170,1,0,0:0:0:0:
240,92,368273,5,0,3:0:0:0:
305,39,368377,1,0,3:0:0:0:
389,48,368481,1,8,0:0:0:0:
434,120,368585,1,0,0:0:0:0:
177,208,368690,85,4,3:2:0:0:
177,208,368794,1,0,0:0:0:0:
177,208,368898,1,8,0:0:0:0:
235,264,369002,1,0,0:0:0:0:
153,286,369106,1,0,3:0:0:0:
94,225,369210,1,0,3:0:0:0:
122,144,369315,5,10,0:1:0:0:
235,264,369419,1,0,0:0:0:0:
75,307,369523,1,2,0:1:0:0:
222,64,369627,86,0,B|268:113|268:113|282:179|234:265,1,224.999993133545,0|0,3:1|0:0,0:0:0:0:
385,109,369940,2,0,P|393:62|418:-24,1,112.499996566773,2|0,3:1|3:0,0:0:0:0:
451,216,370148,2,0,P|443:263|418:349,1,112.499996566773,10|0,0:1|0:0,0:0:0:0:
154,275,370357,5,4,3:2:0:0:
179,261,370461,1,0,0:0:0:0:
194,236,370566,1,8,0:0:0:0:
197,208,370670,1,0,0:0:0:0:
73,300,370774,85,0,3:0:0:0:
138,353,370878,1,0,3:0:0:0:
222,344,370982,1,8,0:0:0:0:
267,272,371086,1,0,0:0:0:0:
77,129,371191,5,0,3:0:0:0:
77,157,371295,1,0,0:0:0:0:
91,183,371398,1,8,0:0:0:0:
114,199,371502,1,0,0:0:0:0:
271,101,371607,85,0,3:0:0:0:
206,48,371711,1,0,3:0:0:0:
122,57,371815,1,8,0:0:0:0:
77,129,371919,1,0,0:0:0:0:
338,205,372024,5,4,3:2:0:0:
338,205,372128,1,0,0:0:0:0:
338,205,372232,1,8,0:0:0:0:
277,264,372336,1,0,0:0:0:0:
359,286,372440,1,0,3:0:0:0:
418,225,372544,1,0,3:0:0:0:
390,144,372649,85,10,0:1:0:0:
301,351,372753,1,0,0:0:0:0:
498,242,372857,1,2,0:1:0:0:
296,72,372961,6,0,B|248:118|231:161|231:161|238:216|281:269,1,224.999993133545,0|0,0:0|3:0,0:0:0:0:
504,350,373273,2,0,B|514:306|513:278|513:278|497:241,1,112.499996566773,2|0,3:1|3:0,0:0:0:0:
481,84,373482,2,0,B|438:96|414:112|414:112|389:143,1,112.499996566773,10|0,0:1|0:0,0:0:0:0:
69,343,373690,85,6,3:1:0:0:
277,264,373794,1,0,0:0:0:0:
70,208,373898,1,8,0:0:0:0:
153,369,374002,2,0,B|189:329|189:329|198:256|158:160,1,224.999993133545,2|0,0:1|3:0,0:0:0:0:
307,10,374315,2,0,P|294:64|287:120,1,112.499996566773,8|0,0:0|0:0,0:0:0:0:
70,208,374523,5,2,3:1:0:0:
85,84,374627,2,0,P|152:75|237:50,1,112.499996566773,0|8,0:0|0:0,0:0:0:0:
195,64,374836,1,0,0:0:0:0:
153,279,374940,1,0,3:0:0:0:
212,190,375044,2,0,B|295:180|376:229|376:229|400:277,1,224.999993133545,2|0,3:1|0:0,0:0:0:0:
428,369,375357,85,4,3:2:0:0:
462,202,375461,1,0,0:0:0:0:
508,286,375565,2,0,P|396:298|299:353,1,224.999993133545,10|0,0:1|3:0,0:0:0:0:
51,295,375877,1,0,3:0:0:0:
51,295,375982,1,8,0:0:0:0:
205,205,376086,1,0,0:0:0:0:
135,380,376190,6,0,B|160:351|160:351|168:318|144:255,1,112.499996566773,2|0,3:1|0:0,0:0:0:0:
57,85,376398,1,8,0:0:0:0:
292,165,376502,2,0,B|267:176|244:198|244:198|163:174|163:174|82:188,1,224.999993133545,2|0,0:1|3:0,0:0:0:0:
243,0,376815,2,0,B|218:29|218:29|210:62|225:101,1,112.499996566773,10|0,0:1|0:0,0:0:0:0:
478,339,377023,85,6,3:1:0:0:
307,277,377127,1,0,0:0:0:0:
454,172,377232,1,8,0:0:0:0:
403,375,377336,2,0,B|402:332|388:295|388:295|392:259|392:259|373:225|373:225|365:158,1,224.999993133545,2|0,0:1|3:0,0:0:0:0:
446,68,377648,2,0,B|470:105|470:105|447:199,1,112.499996566773,8|0,0:0|0:0,0:0:0:0:
251,379,377857,5,2,3:1:0:0:
188,241,377961,2,0,P|228:176|261:152,1,112.499996566773,0|8,0:0|0:0,0:0:0:0:
256,154,378169,1,0,0:0:0:0:
179,328,378273,1,0,3:0:0:0:
112,278,378377,2,0,P|49:147|75:13,1,224.999993133545,2|0,3:1|0:0,0:0:0:0:
298,257,378690,85,4,3:2:0:0:
150,151,378794,1,0,0:0:0:0:
308,69,378898,2,0,B|391:69|486:114|486:114|401:138,1,224.999993133545,10|0,0:1|3:0,0:0:0:0:
256,154,379211,1,0,3:0:0:0:
323,37,379315,1,8,0:0:0:0:
376,216,379419,1,0,0:0:0:0:
150,151,379523,6,0,B|138:79|138:79|159:45,1,112.499996566773,4|0,3:2|0:0,0:0:0:0:
209,252,379732,2,0,L|195:370,1,112.499996566773,8|0,0:0|0:0,0:0:0:0:
343,131,379940,85,8,0:0:0:0:
124,231,380044,1,4,3:0:0:0:
343,296,380148,1,4,3:0:0:0:
111,236,380252,1,4,3:0:0:0:
354,127,380357,70,0,B|391:103|391:103|434:100|480:77|480:77|483:101|475:174|389:190,1,250,6|8,3:1|0:0,0:0:0:0:
299,320,380669,1,2,0:0:0:0:
189,181,380773,2,0,P|157:179|128:191,1,62.5,0|0,3:0|3:0,0:0:0:0:
273,102,380982,1,10,0:0:0:0:
286,210,381086,1,0,0:0:0:0:
354,127,381190,38,0,B|387:98|387:98|434:101|452:57|490:66|490:66|492:137|471:171|369:200,1,312.5,6|8,3:1|0:0,0:0:0:0:
306,337,381502,1,2,0:0:0:0:
189,181,381607,2,0,P|159:183|103:205,1,78.125,0|0,3:0|3:0,0:0:0:0:
277,77,381815,1,10,0:0:0:0:
288,231,381919,1,0,0:0:0:0:
354,127,382023,54,0,B|380:102|382:83|382:83|447:81|450:43|498:50|498:50|496:65|503:146|416:181|416:181|375:199|377:241|377:241,1,375.000014305115,6|8,3:1|0:0,0:0:0:0:
316,361,382336,1,2,0:0:0:0:
189,181,382441,2,0,P|159:183|89:216,1,93.7500035762788,0|0,3:0|3:0,0:0:0:0:
281,52,382649,1,10,0:0:0:0:
291,255,382753,1,0,0:0:0:0:
354,127,382857,38,0,B|380:102|383:75|383:75|447:81|448:34|514:37|514:37|503:59|509:150|416:181|416:181|375:199|377:241|377:241,1,437.500004172325,6|8,3:1|0:0,0:0:0:0:
323,384,383169,1,2,0:0:0:0:
81,337,383273,2,0,B|53:292|53:292|50:263|56:235,1,109.375001043081,0|0,3:0|3:0,0:0:0:0:
128,4,383482,2,0,B|156:49|156:49|159:71|151:105,1,109.375001043081,10|0,0:0|0:0,0:0:0:0:
354,127,383690,54,0,B|380:102|382:83|382:83|447:81|450:43|498:50|498:50|496:65|503:146|416:181|416:181|375:199|377:241|377:241,1,375.000014305115,6|8,3:1|0:0,0:0:0:0:
316,361,384002,1,2,0:0:0:0:
189,181,384107,2,0,P|159:183|89:216,1,93.7500035762788,0|0,3:0|3:0,0:0:0:0:
281,52,384315,1,10,0:0:0:0:
291,255,384419,1,0,0:0:0:0:
354,127,384523,38,0,B|387:98|387:98|434:101|452:57|490:66|490:66|492:137|471:171|369:200,1,312.5,6|8,3:1|0:0,0:0:0:0:
306,337,384836,1,2,0:0:0:0:
189,181,384941,2,0,P|159:183|103:205,1,78.125,0|0,3:0|3:0,0:0:0:0:
277,77,385149,1,10,0:0:0:0:
288,231,385253,1,0,0:0:0:0:
354,127,385357,54,0,B|391:103|391:103|434:100|480:77|480:77|483:101|475:174|389:190,1,250,6|8,3:1|0:0,0:0:0:0:
299,320,385669,1,2,0:0:0:0:
189,181,385773,2,0,P|157:179|128:191,1,62.5,0|0,3:0|3:0,0:0:0:0:
273,102,385982,1,10,0:0:0:0:
286,210,386086,1,0,0:0:0:0:
103,181,386190,37,2,3:1:0:0:
360,256,386294,2,0,B|391:262|391:262|403:269|421:278,2,62.5,12|0|0,0:0|3:0|3:0,0:0:0:0:
143,372,386607,2,0,B|123:342|113:320|113:320|115:288|125:256,1,125,14|0,0:1|0:0,0:0:0:0:
334,12,386815,2,0,B|352:32|365:63|365:63|361:91|353:127,1,125,8|0,0:0|0:0,0:0:0:0:
158,127,387023,54,0,B|121:103|121:103|78:100|32:77|32:77|29:101|37:174|123:190,1,250,6|8,3:1|0:0,0:0:0:0:
243,200,387336,1,2,0:0:0:0:
243,200,387440,1,0,3:0:0:0:
262,102,387544,1,0,0:0:0:0:
221,299,387648,1,10,0:0:0:0:
354,221,387752,1,0,0:0:0:0:
158,127,387857,38,0,B|125:98|125:98|78:101|60:57|22:66|22:66|20:137|41:171|143:200,1,312.5,6|8,3:1|0:0,0:0:0:0:
243,200,388169,1,2,0:0:0:0:
243,200,388273,1,0,3:0:0:0:
262,102,388377,1,0,3:0:0:0:
221,299,388481,1,10,0:0:0:0:
371,226,388585,1,0,0:0:0:0:
158,127,388690,54,0,B|132:102|130:83|130:83|65:81|62:43|14:50|14:50|16:65|9:146|96:181|96:181|137:199|135:241|135:241,1,375.000014305115,6|8,3:1|0:0,0:0:0:0:
243,200,389002,1,2,0:0:0:0:
243,200,389106,1,0,3:0:0:0:
262,102,389210,1,0,3:0:0:0:
221,299,389315,1,10,0:0:0:0:
389,230,389419,1,0,0:0:0:0:
158,127,389523,38,0,B|132:102|129:75|129:75|65:81|64:34|-2:37|-2:37|9:59|3:150|96:181|96:181|137:199|135:241|135:241,1,437.500004172325,6|8,3:1|0:0,0:0:0:0:
243,200,389836,1,2,0:0:0:0:
243,200,389940,1,0,3:0:0:0:
262,102,390044,1,0,3:0:0:0:
221,299,390148,1,10,0:0:0:0:
407,234,390253,1,0,0:0:0:0:
392,86,390357,54,0,B|344:61|303:-12|303:-12|260:13|191:10,1,250,6|8,3:1|0:0,0:0:0:0:
330,353,390669,2,0,B|377:320|463:321|463:321|462:270|499:219,1,250,2|0,0:1|3:0,0:0:0:0:
57,201,390982,2,0,B|44:227|41:257|41:257|86:306,1,125,10|0,0:1|0:0,0:0:0:0:
353,132,391190,38,0,B|378:109|381:82|381:82|445:88|446:41|512:44|512:44|501:66|507:157|414:188|414:188|373:206|380:225,1,437.500004172325,6|8,3:1|0:0,0:0:0:0:
132,225,391502,2,0,B|139:206|98:188|98:188|5:157|11:66|0:44|0:44|66:41|67:88|131:82|131:82|134:109|160:134,1,437.500004172325,2|0,0:1|3:0,0:0:0:0:
256,355,391815,2,0,B|264:310|264:310|249:281|249:281|255:234,1,125,10|0,0:1|0:0,0:0:0:0:
256,4,392023,53,6,3:1:0:0:
256,192,392075,12,0,393482,0:0:0:0:
256,4,393690,86,0,B|260:66|231:124|231:124|157:142,1,187.500007152558,6|8,3:1|0:0,0:0:0:0:
169,138,394107,1,0,3:0:0:0:
174,56,394211,1,0,3:0:0:0:
227,208,394315,2,0,B|275:200|275:200|310:163,1,93.7500035762788,8|0,0:0|0:0,0:0:0:0:
86,107,394523,6,0,P|52:272|58:330,1,187.500007152558,2|8,3:1|0:0,0:0:0:0:
236,319,394836,2,0,B|222:300|191:284|191:284|119:279,1,93.7500035762788,2|0,0:1|3:0,0:0:0:0:
109,376,395044,1,0,3:0:0:0:
321,374,395148,2,0,P|328:316|299:215,1,93.7500035762788,10|0,0:1|0:0,0:0:0:0:
194,152,395357,86,0,B|255:150|255:150|303:171|303:171|340:162|379:168,1,187.500007152558,2|8,3:1|0:0,0:0:0:0:
237,327,395669,2,0,B|223:268|223:268|242:213,1,93.7500035762788,2|0,0:1|3:0,0:0:0:0:
121,99,395877,1,0,3:0:0:0:
311,1,395982,2,0,B|325:32|325:64|325:64|306:115,1,93.7500035762788,10|0,0:1|0:0,0:0:0:0:
130,12,396190,1,2,3:1:0:0:
130,12,396398,1,8,0:0:0:0:
79,178,396502,2,0,B|120:231|170:256|170:256|211:251|239:232,1,187.500007152558,2|0,0:1|3:0,0:0:0:0:
314,90,396815,2,0,B|287:115|287:115|278:143|287:189,1,93.7500035762788,10|0,0:1|0:0,0:0:0:0:
331,361,397023,6,0,B|366:374|386:354|386:354|368:284|302:241,1,187.500007152558,6|8,3:1|0:0,0:0:0:0:
314,249,397440,1,0,3:0:0:0:
259,345,397544,1,0,3:0:0:0:
433,269,397648,2,0,P|360:191|256:145,1,187.500007152558,8|0,0:0|3:0,0:0:0:0:
259,345,398065,1,8,0:0:0:0:
289,154,398273,1,0,3:0:0:0:
184,209,398377,1,0,3:0:0:0:
188,86,398482,2,0,P|298:67|326:75,1,93.7500035762788,10|0,0:1|0:0,0:0:0:0:
505,153,398690,86,0,B|449:180|379:173|379:173|299:118,1,187.500007152558,2|8,3:1|0:0,0:0:0:0:
413,4,399002,2,0,P|417:70|386:127,1,93.7500035762788,2|0,0:1|3:0,0:0:0:0:
369,363,399211,1,0,3:0:0:0:
266,284,399315,2,0,P|254:238|261:192,1,93.7500035762788,10|0,0:1|0:0,0:0:0:0:
238,28,399523,6,0,B|201:78|141:98|141:98|86:84|32:51,1,187.500007152558,2|8,3:1|0:0,0:0:0:0:
136,10,399836,1,2,0:1:0:0:
19,148,399940,1,0,3:0:0:0:
136,10,400044,1,0,3:0:0:0:
195,167,400148,2,0,B|170:184|143:188|143:188|112:182|91:172,1,93.7500035762788,10|0,0:1|0:0,0:0:0:0:
9,7,400357,86,0,P|34:88|1:263,1,187.500007152558,6|8,3:1|0:0,0:0:0:0:
29,189,400773,1,0,3:0:0:0:
8,271,400877,1,0,3:0:0:0:
107,178,400982,2,0,P|127:278|81:333,1,93.7500035762788,8|0,0:0|0:0,0:0:0:0:
9,372,401190,6,0,B|30:345|62:331|62:331|125:330|180:361,1,187.500007152558,2|8,3:1|0:0,0:0:0:0:
297,252,401502,2,0,P|243:334|222:345,1,93.7500035762788,2|0,0:1|3:0,0:0:0:0:
189,235,401711,1,0,3:0:0:0:
367,192,401815,2,0,P|375:305|353:364,1,93.7500035762788,10|0,0:1|0:0,0:0:0:0:
183,94,402023,86,0,B|207:57|275:27|275:27|369:58,1,200,2|8,3:1|0:0,0:0:0:0:
297,252,402336,2,0,B|282:230|277:203|277:203|277:177|300:115,1,100,2|0,0:1|3:0,0:0:0:0:
414,0,402544,1,0,3:0:0:0:
512,116,402648,2,0,B|520:135|521:175|521:175|500:210,1,100,10|0,0:1|0:0,0:0:0:0:
285,157,402857,6,0,B|244:131|202:118|202:118|145:133|61:179,1,212.500004053116,2|8,3:1|0:0,0:0:0:0:
375,266,403169,2,0,P|412:161|408:37,1,212.500004053116,2|0,0:1|3:0,0:0:0:0:
232,286,403482,2,0,B|226:327|235:364|235:364|254:385,1,106.250002026558,10|0,0:1|0:0,0:0:0:0:
412,60,403690,86,0,B|332:54|332:54|273:82|273:82|237:68|184:75,1,224.999993133545,6|8,3:1|0:0,0:0:0:0:
62,352,404002,1,0,0:0:0:0:
232,286,404107,2,0,B|253:258|259:216|259:216|229:149,1,112.499996566773,0|0,3:0|3:0,3:0:0:0:
16,65,404315,2,0,L|23:242,1,112.499996566773,8|0,0:0|0:0,0:0:0:0:
303,328,404523,6,0,B|345:270|349:195|349:195|299:125,1,224.999993133545,0|8,3:0|0:0,0:0:0:0:
118,188,404836,1,0,0:0:0:0:
204,58,404940,1,0,3:0:0:0:
118,188,405044,1,0,3:0:0:0:
258,210,405148,2,0,P|322:225|394:207,1,112.499996566773,10|0,0:1|0:0,0:0:0:0:
482,54,405357,86,0,B|435:29|435:29|410:121|460:232,1,187.500007152558,2|8,3:1|0:0,0:0:0:0:
487,326,405669,2,0,P|467:262|436:239,1,93.7500035762788,2|0,0:1|3:0,0:0:0:0:
355,57,405877,1,0,3:0:0:0:
222,129,405982,2,0,P|206:172|215:217,1,93.7500035762788,10|0,0:1|0:0,0:0:0:0:
356,343,406190,6,0,B|330:329|264:326|264:326|158:371,1,149.999995422363,2|8,3:1|0:0,0:0:0:0:
36,328,406502,2,0,P|78:344|152:351,1,74.9999977111817,2|8,0:1|0:0,0:0:0:0:
167,136,406711,1,0,3:0:0:0:
47,115,406815,1,2,3:1:0:0:
0,228,406919,1,0,3:0:0:0:
167,136,407023,54,0,B|253:120|311:83|311:83|358:99|358:99|392:72|392:72|454:53|507:86|507:86|509:152|441:183|441:183|416:165|412:140|412:140,1,524.999983978272,4|0,3:2|0:0,0:0:0:0:
341,13,408690,2,0,B|279:73|265:163|309:249|309:249|348:219|352:176,1,300,4|0,3:2|0:0,0:0:0:0:
436,32,409523,2,0,P|306:16|141:104,1,300,2|0,0:0|3:0,0:0:0:0:
225,189,410252,1,0,3:0:0:0:
19,4,410357,54,0,B|11:111|104:181|104:181|200:253|191:384|191:384|302:333|334:206|270:99|270:99|255:167|208:205,1,875,4|0,3:2|3:0,0:0:0:0:
225,189,412023,37,12,0:0:0:0:
155,286,412232,1,0,3:0:0:0:
347,216,412440,2,0,P|243:271|201:267,1,125,8|0,0:0|3:0,0:0:0:0:
144,204,412752,1,0,3:0:0:0:
283,94,412857,2,0,B|296:134|297:187|297:187,1,62.5,8|0,0:0|3:0,0:0:0:0:
64,318,413065,2,0,P|66:278|79:232,1,62.5,0|0,3:0|0:0,0:0:0:0:
91,46,413273,53,4,3:0:0:0:
92,188,413377,1,4,3:0:0:0:
219,117,413482,1,4,3:0:0:0:
136,117,413586,1,4,3:0:0:0:
217,262,413690,38,0,P|266:318|276:337,2,62.5,4|0|0,3:2|0:0|0:0,0:0:0:0:
299,174,414002,2,0,P|308:203|311:234,2,62.5
403,213,414315,2,0,P|400:241|385:286,2,62.5,0|0|0,3:0|3:0|0:0,0:0:0:0:
303,378,414627,1,0,0:0:0:0:
236,321,414732,2,0,P|213:237|212:223,1,62.5,0|0,3:0|0:0,0:0:0:0:
310,21,414940,1,8,0:0:0:0:
188,89,415044,1,0,0:0:0:0:
313,143,415148,2,0,P|292:173|253:201,1,62.5,0|0,3:0|0:0,0:0:0:0:
72,153,415357,54,0,B|68:130|68:130|68:105|88:58,2,62.5,4|0|0,0:0|0:0|0:0,0:0:0:0:
127,235,415669,2,0,B|135:213|135:213|147:191|188:160,2,62.5
111,332,415982,2,0,B|132:324|132:324|157:319|207:331,1,62.5,0|0,3:0|0:0,0:0:0:0:
395,335,416190,1,8,0:0:0:0:
294,379,416294,1,0,0:0:0:0:
309,268,416398,1,0,3:0:0:0:
395,335,416502,1,0,0:0:0:0:
294,379,416607,2,0,P|236:341|234:337,4,41.6666666666667,0|0|0|0|0,3:0|3:0|3:0|3:0|3:0,3:0:0:0:
313,273,417023,38,0,L|297:170,2,62.5,4|0|0,3:2|0:0|0:0,0:0:0:0:
392,132,417336,2,0,L|388:197,2,62.5
446,283,417648,2,0,L|470:211,3,62.5,0|0|0|0,3:0|0:0|0:0|0:0,0:0:0:0:
505,113,418065,1,0,3:0:0:0:
388,194,418169,1,0,3:0:0:0:
374,54,418273,2,0,P|431:66|453:88,1,62.5,8|0,0:0|0:0,0:0:0:0:
203,100,418482,2,0,P|174:112|143:113,1,62.5,0|0,3:0|0:0,0:0:0:0:
299,331,418690,53,4,3:2:0:0:
299,331,418898,1,0,3:0:0:0:
246,349,419002,1,0,3:0:0:0:
190,339,419107,1,0,3:0:0:0:
149,299,419211,1,0,3:0:0:0:
237,256,419315,1,0,3:0:0:0:
299,331,419419,1,0,3:0:0:0:
51,293,419523,37,12,0:0:0:0:
51,293,419732,1,0,3:0:0:0:
167,203,419836,1,0,3:0:0:0:
32,147,419940,53,0,3:0:0:0:
135,283,420044,1,0,3:0:0:0:
116,138,420148,1,0,3:0:0:0:
0,228,420252,1,0,3:0:0:0:
167,203,420357,38,0,P|228:214|259:225,1,68.7500020980836,6|0,3:2|0:0,0:0:0:0:
158,348,420565,2,0,P|137:289|131:257,1,68.7500020980836,8|0,0:0|0:0,0:0:0:0:
262,129,420773,1,0,3:0:0:0:
318,198,420877,1,0,3:0:0:0:
291,284,420982,2,0,P|250:331|225:352,1,68.7500020980836,8|0,0:0|0:0,0:0:0:0:
116,138,421190,2,0,L|76:-60,1,137.500004196167,0|8,0:0|0:0,0:0:0:0:
77,230,421502,1,0,0:0:0:0:
77,230,421607,1,2,3:2:0:0:
31,147,421711,1,0,3:0:0:0:
128,148,421815,2,0,L|226:163,1,68.7500020980836,8|0,0:0|0:0,0:0:0:0:
505,246,422023,38,0,P|484:218|446:183,1,78.125,6|0,3:2|0:0,0:0:0:0:
379,358,422231,2,0,P|439:347|472:329,1,78.125,8|0,0:0|0:0,0:0:0:0:
488,76,422439,1,0,3:0:0:0:
400,110,422543,1,0,3:0:0:0:
346,191,422648,2,0,P|325:249|321:289,1,78.125,8|0,0:0|0:0,0:0:0:0:
113,291,422856,2,0,L|177:93,1,156.25,0|8,0:0|0:0,0:0:0:0:
215,255,423168,1,0,0:0:0:0:
5,327,423273,1,2,3:2:0:0:
23,215,423377,1,0,3:0:0:0:
118,305,423481,2,0,L|199:366,1,78.125,8|0,0:0|0:0,0:0:0:0:
392,189,423690,54,0,L|186:263,1,174.999994659424,4|8,3:2|0:0,0:0:0:0:
397,284,424002,1,0,0:0:0:0:
324,126,424107,2,0,B|329:83|329:83|373:23,1,87.499997329712
484,273,424315,2,0,B|479:316|479:316|435:376,1,87.499997329712,8|0,0:0|0:0,0:0:0:0:
226,161,424523,2,0,B|260:148|260:148|317:149|391:188,1,174.999994659424,0|8,3:0|0:0,0:0:0:0:
439,98,424836,1,0,0:0:0:0:
220,177,424940,2,0,B|214:153|225:122|225:122|216:80|216:80|241:-34,1,174.999994659424,0|8,3:0|0:0,0:0:0:0:
355,47,425252,1,0,0:0:0:0:
213,195,425357,38,0,B|183:198|183:198|126:178,1,87.499997329712,4|0,3:2|0:0,0:0:0:0:
38,86,425565,2,0,B|92:67|92:67|122:70,1,87.499997329712,8|0,0:0|0:0,0:0:0:0:
372,121,425773,1,0,3:0:0:0:
459,168,425877,1,0,3:0:0:0:
365,220,425982,1,8,0:0:0:0:
365,105,426086,1,0,0:0:0:0:
474,168,426190,2,0,P|486:206|499:260,1,87.499997329712,0|0,3:0|0:0,0:0:0:0:
361,232,426398,1,8,0:0:0:0:
360,89,426502,2,0,B|359:56|359:56|385:-3,1,87.499997329712,0|2,3:0|0:0,0:0:0:0:
471,70,426711,1,0,0:0:0:0:
356,245,426815,2,0,L|230:227,1,87.499997329712,8|0,0:0|3:0,0:0:0:0:
45,169,427023,54,0,B|167:138|167:138|238:176,1,174.999994659424,4|8,3:2|0:0,0:0:0:0:
175,249,427336,1,0,0:0:0:0:
242,79,427440,2,0,P|277:63|342:28,1,87.499997329712,0|0,3:0|3:0,3:0:0:0:
86,244,427648,2,0,P|46:262|7:282,1,87.499997329712,8|0,0:0|0:0,0:0:0:0:
259,360,427857,2,0,P|273:268|307:140,1,174.999994659424,0|8,3:0|0:0,0:0:0:0:
292,188,428273,1,0,3:0:0:0:
192,237,428377,1,0,3:0:0:0:
360,281,428482,1,8,0:0:0:0:
360,281,428690,38,0,B|484:248|484:248|495:177,1,174.999994659424,2|8,3:2|0:0,0:0:0:0:
292,188,429002,1,0,0:0:0:0:
426,89,429107,2,0,L|408:208,1,87.499997329712,0|0,3:0|3:0,3:0:0:0:
237,327,429315,2,0,P|223:246|200:126,1,174.999994659424,10|0,0:0|3:0,0:0:0:0:
276,104,429627,1,0,0:0:0:0:
139,221,429732,1,10,0:0:0:0:
122,130,429836,2,0,P|132:85|144:45,1,87.499997329712,0|0,3:0|0:0,0:0:0:0:
222,255,430044,1,0,3:0:0:0:
88,290,430148,2,0,P|43:279|3:267,1,87.499997329712,8|0,0:0|0:0,0:0:0:0:
276,104,430357,54,0,B|325:108|325:108|385:127|426:181,1,174.999994659424,6|8,3:2|0:0,0:0:0:0:
354,230,430669,1,0,0:0:0:0:
354,230,430773,1,0,3:0:0:0:
430,275,430877,1,2,3:2:0:0:
277,263,430982,2,0,B|266:234|266:234|293:156,1,87.499997329712,8|0,0:0|0:0,0:0:0:0:
463,9,431190,2,0,L|422:197,1,174.999994659424,2|8,3:2|0:0,0:0:0:0:
353,322,431502,1,0,0:0:0:0:
353,322,431607,1,0,3:0:0:0:
430,275,431711,1,0,3:0:0:0:
266,348,431815,2,0,P|222:342|180:331,1,87.499997329712,8|0,0:0|0:0,0:0:0:0:
9,212,432023,38,0,B|133:167|133:167|183:179,1,174.999994659424,0|8,3:0|0:0,0:0:0:0:
174,177,432440,1,0,3:0:0:0:
137,256,432544,1,0,3:0:0:0:
183,96,432648,1,8,0:0:0:0:
183,96,432857,1,0,3:0:0:0:
214,268,432961,2,0,P|133:279|41:296,1,174.999994659424,8|0,0:0|0:0,0:0:0:0:
277,112,433273,2,0,P|273:157|267:198,1,87.499997329712,8|0,0:0|0:0,0:0:0:0:
248,345,433482,1,8,0:0:0:0:
180,182,433586,1,8,0:0:0:0:
351,208,433690,86,0,B|399:184|399:184|406:136|387:63,1,174.999994659424,4|8,3:2|0:0,0:0:0:0:
313,283,434002,1,0,0:0:0:0:
401,279,434107,2,0,P|442:265|480:243,1,87.499997329712,2|0,3:2|3:0,3:0:0:0:
321,132,434315,2,0,P|283:110|241:96,1,87.499997329712,8|0,0:0|0:0,0:0:0:0:
94,228,434523,2,0,L|302:193,1,174.999994659424,2|8,3:2|0:0,0:0:0:0:
387,63,434836,1,0,0:0:0:0:
480,243,434940,1,0,3:0:0:0:
399,182,435044,1,0,3:0:0:0:
487,132,435148,2,0,P|496:96|503:39,1,87.499997329712,10|0,0:0|0:0,0:0:0:0:
266,198,435357,6,0,P|271:285|299:367,1,174.999994659424,0|8,3:0|0:0,0:0:0:0:
299,367,435773,1,0,3:0:0:0:
365,294,435877,1,0,3:0:0:0:
206,337,435982,1,8,0:0:0:0:
206,337,436190,2,0,P|125:316|-14:310,1,174.999994659424,0|8,3:0|0:0,0:0:0:0:
150,235,436502,1,0,0:0:0:0:
210,351,436607,2,0,B|246:300|246:300|249:251|209:154,1,174.999994659424,2|8,3:2|0:0,0:0:0:0:
168,73,436919,1,0,0:0:0:0:
221,175,437023,86,0,P|274:161|331:121,1,87.499997329712,6|0,3:2|0:0,0:0:0:0:
433,15,437232,2,0,B|407:75|410:124|410:124|446:175,1,174.999994659424,8|0,0:0|3:0,0:0:0:0:
512,89,437544,1,0,3:0:0:0:
489,299,437648,2,0,P|439:264|284:249,1,174.999994659424,10|0,0:0|3:0,0:0:0:0:
343,332,437961,1,0,0:0:0:0:
302,144,438065,2,0,P|266:170|236:202,1,87.499997329712,10|0,0:0|0:0,0:0:0:0:
352,349,438273,1,0,3:2:0:0:
163,269,438377,1,0,3:0:0:0:
224,384,438482,2,0,B|244:368|244:368|256:289,1,87.499997329712,10|0,0:0|0:0,0:0:0:0:
46,72,438690,6,0,L|73:281,1,174.999994659424,6|8,3:2|0:0,0:0:0:0:
68,245,439107,1,0,3:0:0:0:
99,334,439211,1,0,3:0:0:0:
140,179,439315,1,8,0:0:0:0:
435,307,439523,85,0,3:0:0:0:
435,307,439732,1,8,0:0:0:0:
256,239,439836,1,8,0:0:0:0:
347,338,439940,1,0,3:0:0:0:
344,295,440044,1,0,3:0:0:0:
340,252,440148,1,0,3:0:0:0:
335,209,440252,1,0,3:0:0:0:
433,96,440357,6,0,B|450:127|450:127|430:203,1,87.499997329712,4|0,3:2|0:0,0:0:0:0:
353,58,440565,2,0,B|371:27|371:27|447:7,1,87.499997329712,8|0,0:0|0:0,0:0:0:0:
252,207,440773,1,2,3:2:0:0:
201,136,440877,1,0,3:0:0:0:
285,125,440982,2,0,L|417:156,1,87.499997329712,8|0,0:0|0:0,0:0:0:0:
74,85,441190,86,0,B|92:54|92:54|168:34,1,87.499997329712,2|0,3:2|0:0,0:0:0:0:
94,223,441398,2,0,B|58:222|58:222|2:166,1,87.499997329712,8|0,0:0|0:0,0:0:0:0:
335,229,441606,1,2,3:2:0:0:
277,316,441710,1,0,3:0:0:0:
226,219,441815,2,0,L|186:89,1,87.499997329712,10|0,0:0|0:0,0:0:0:0:
381,61,442023,6,0,B|387:94|387:94|381:128|369:144,1,87.499997329712,0|0,3:0|0:0,0:0:0:0:
193,337,442232,2,0,P|280:341|363:366,1,174.999994659424,8|0,0:0|3:0,0:0:0:0:
493,234,442544,1,0,3:0:0:0:
456,378,442648,2,0,P|430:313|433:271,1,87.499997329712,10|0,0:0|0:0,0:0:0:0:
225,218,442857,86,0,P|231:175|252:137,1,87.499997329712,0|0,3:0|0:0,0:0:0:0:
467,68,443065,1,10,0:0:0:0:
396,214,443169,2,0,B|369:217|369:217|294:197,1,87.499997329712,0|0,3:0|0:0,0:0:0:0:
162,155,443377,1,0,3:0:0:0:
352,32,443482,2,0,L|332:118,1,87.499997329712,10|0,0:0|0:0,0:0:0:0:
100,245,443690,6,0,B|83:175|81:126|81:126|115:83,1,174.999994659424,6|8,3:2|0:0,0:0:0:0:
115,83,444107,1,0,3:0:0:0:
162,155,444212,1,0,3:0:0:0:
178,22,444315,2,0,P|265:31|276:36,1,87.499997329712,8|0,0:0|0:0,0:0:0:0:
397,144,444523,86,0,B|413:213|415:262|415:262|381:305,1,174.999994659424,0|8,3:0|0:0,0:0:0:0:
381,305,444940,1,0,3:0:0:0:
335,234,445045,1,0,3:0:0:0:
319,367,445149,1,8,0:0:0:0:
319,367,445357,6,0,P|210:343|121:341,1,174.999994659424,0|8,3:0|0:0,0:0:0:0:
24,216,445669,1,0,0:0:0:0:
24,216,445773,1,0,3:0:0:0:
158,246,445877,1,0,3:0:0:0:
43,371,445982,2,0,P|65:314|87:244,1,87.499997329712,8|0,0:0|0:0,0:0:0:0:
141,26,446190,85,0,3:0:0:0:
141,26,446398,1,8,0:0:0:0:
101,175,446502,1,0,3:0:0:0:
25,82,446607,1,8,0:0:0:0:
143,105,446711,1,0,3:0:0:0:
185,115,446815,1,0,3:0:0:0:
227,125,446919,1,0,3:0:0:0:
295,47,447023,6,0,B|270:80|270:80|266:124|303:248,1,187.500007152558,4|8,3:2|0:0,0:0:0:0:
415,130,447336,1,0,0:0:0:0:
415,130,447440,1,2,3:2:0:0:
495,78,447544,1,0,3:0:0:0:
472,254,447648,2,0,P|427:238|382:227,1,93.7500035762788,8|0,0:0|0:0,0:0:0:0:
192,61,447857,2,0,P|284:46|374:20,1,187.500007152558,2|8,3:2|0:0,0:0:0:0:
56,218,448169,1,0,0:0:0:0:
107,119,448273,2,0,P|95:73|80:29,1,93.7500035762788,2|0,3:2|3:0,3:0:0:0:
322,133,448482,2,0,P|306:177|295:222,1,93.7500035762788,10|0,0:0|0:0,0:0:0:0:
174,352,448690,86,0,B|211:316|211:316|228:254|180:144,1,187.500007152558,0|8,3:0|0:0,0:0:0:0:
195,182,449107,1,0,3:0:0:0:
295,222,449211,1,0,3:0:0:0:
125,269,449315,2,0,B|95:271|95:271|19:243,1,93.7500035762788,10|0,0:0|0:0,0:0:0:0:
140,25,449523,2,0,B|168:35|168:35|226:91,1,93.7500035762788,2|0,3:2|0:0,0:0:0:0:
481,245,449732,2,0,L|232:214,1,187.500007152558,10|0,0:0|0:0,0:0:0:0:
195,182,450044,1,0,3:0:0:0:
413,123,450148,2,0,B|398:112|398:112|366:109|309:123,1,93.7500035762788,10|0,0:0|0:0,0:0:0:0:
91,359,450357,6,0,B|91:319|91:319|79:291|79:291|81:244|44:145,2,187.500007152558,6|8|0,3:2|0:0|3:0,0:0:0:0:
267,262,450877,1,0,3:0:0:0:
195,182,450982,2,0,P|173:227|158:293,1,93.7500035762788,10|0,0:0|0:0,0:0:0:0:
104,64,451190,2,0,P|232:102|331:82,1,187.500007152558,0|8,3:0|0:0,0:0:0:0:
456,40,451502,1,0,0:0:0:0:
469,180,451607,1,0,3:0:0:0:
297,112,451711,1,0,3:0:0:0:
378,155,451815,2,0,B|389:120|389:120|375:64,1,93.7500035762788,8|0,0:0|0:0,0:0:0:0:
135,192,452023,86,0,L|17:210,1,93.7500035762788,0|0,3:0|0:0,0:0:0:0:
33,293,452232,1,8,0:0:0:0:
140,179,452336,2,0,L|158:61,2,93.7500035762788,0|0|0,0:0|3:0|3:0,0:0:0:0:
196,246,452648,1,8,0:0:0:0:
66,118,452752,1,0,0:0:0:0:
237,103,452857,2,0,B|215:296|215:296|190:309|130:309,1,281.250010728836,4|0,3:2|3:0,0:0:0:0:
154,86,453273,1,0,3:0:0:0:
206,26,453377,1,0,3:0:0:0:
286,35,453482,1,0,3:0:0:0:
317,108,453586,1,0,3:0:0:0:
154,86,453690,70,0,B|117:100|86:137|86:137|92:208|147:249,1,200,4|0,3:2|0:0,0:0:0:0:
233,315,454315,1,0,3:0:0:0:
158,74,454523,2,0,B|129:87|99:86|99:86|76:71|47:68|47:68|20:167|83:247,1,299.999990844727,8|0,0:0|0:0,0:0:0:0:
233,315,455148,2,0,P|250:293|258:248,1,50,0|0,3:0|0:0,0:0:0:0:
87,338,455357,2,0,P|240:353|308:326,1,187.5,0|0,3:0|0:0,0:0:0:0:
230,144,455773,2,0,B|205:109|205:109|180:159|200:240,1,149.999995422363,8|0,0:0|3:0,0:0:0:0:
443,341,456190,22,0,P|407:310|392:287,1,50,10|0,0:2|0:0,0:0:0:0:
307,239,456398,1,0,3:0:0:0:
334,154,456607,1,2,3:2:0:0:
359,72,456815,1,0,3:0:0:0:
504,353,457023,70,0,P|427:374|298:353,1,200,4|0,3:2|0:0,0:0:0:0:
359,72,457648,1,0,3:0:0:0:
510,336,457857,2,0,B|438:372|346:386|346:386|276:364|241:285,1,299.999990844727,8|0,0:0|0:0,0:0:0:0:
359,72,458482,2,0,P|394:135|392:154,1,50,0|0,3:0|3:0,0:0:0:0:
193,92,458690,2,0,B|217:53|248:36|248:36|303:28|358:40,1,187.5,4|0,3:2|0:0,0:0:0:0:
286,263,459107,2,0,B|265:181|292:101,1,149.999995422363,8|0,0:0|3:0,0:0:0:0:
489,126,459523,22,0,P|500:174|505:224,2,99.9999969482423,8|8|8,0:0|0:0|0:0,0:0:0:0:
379,5,459940,1,0,3:0:0:0:
463,29,460079,1,0,3:0:0:0:
399,89,460218,1,0,3:0:0:0:
469,4,460357,70,0,P|361:44|251:49,1,200,4|0,3:2|0:0,0:0:0:0:
158,0,460982,1,0,3:0:0:0:
158,0,461086,1,0,3:0:0:0:
382,0,461190,2,0,B|395:70|373:196|373:196|236:167,1,299.999990844727,8|0,0:0|0:0,0:0:0:0:
161,5,461815,2,0,P|187:61|180:79,1,50,0|0,3:0|0:0,0:0:0:0:
24,74,462023,2,0,P|148:65|213:92,1,187.5,0|0,3:0|0:0,0:0:0:0:
92,206,462440,2,0,P|61:140|71:106,1,62.5,8|0,0:0|0:0,0:0:0:0:
311,74,462648,1,0,3:0:0:0:
127,311,462857,22,0,P|190:290|214:297,1,50,10|0,0:0|0:0,0:0:0:0:
321,325,463065,1,0,3:0:0:0:
417,348,463273,1,2,3:2:0:0:
508,368,463482,1,0,3:0:0:0:
121,298,463690,2,0,B|92:289|66:249|66:249|99:189|176:154,1,200,4|0,3:2|0:0,0:0:0:0:
207,373,464315,1,0,3:0:0:0:
93,74,464523,69,8,0:0:0:0:
261,169,464732,1,0,3:0:0:0:
41,133,464940,2,0,P|127:124|183:138,1,100,0|0,0:0|3:0,0:0:0:0:
280,319,465357,2,0,P|202:240|179:167,1,150,0|0,3:0|0:0,0:0:0:0:
313,11,465773,22,0,P|227:124|210:129,1,149.999995422363,8|8,0:0|0:0,0:0:0:0:
69,30,466086,1,8,0:0:0:0:
69,30,466294,69,8,0:0:0:0:
126,189,466398,1,8,0:0:0:0:
242,60,466502,1,8,0:0:0:0:
69,30,466607,21,8,0:0:0:0:
227,170,466711,1,8,0:0:0:0:
28,232,466815,1,8,0:0:0:0:
148,66,466919,1,8,0:0:0:0:
200,268,467023,6,0,B|225:260|255:264|255:264|334:235|334:235|380:253|455:236,2,224.999993133545,6|8|0,3:2|0:0|3:0,0:0:0:0:
0,144,467544,1,0,3:0:0:0:
182,271,467648,2,0,B|208:236|208:236|206:216|190:169,1,112.499996566773,8|0,0:0|0:0,0:0:0:0:
66,0,467857,2,0,P|91:92|84:288,1,224.999993133545,0|8,3:0|0:0,0:0:0:0:
99,320,468169,1,0,0:0:0:0:
257,88,468273,1,0,3:0:0:0:
190,169,468377,1,0,3:0:0:0:
296,190,468482,2,0,P|328:183|468:169,1,112.499996566773,8|0,0:0|0:0,0:0:0:0:
217,359,468690,22,0,B|178:370|178:370|76:362|-62:302,1,224.999993133545,0|8,3:0|0:0,0:0:0:0:
315,303,469002,1,0,0:0:0:0:
218,249,469107,2,0,B|190:214|190:214|172:116,1,112.499996566773,2|0,3:2|3:0,3:0:0:0:
433,280,469315,2,0,B|420:346|420:346|392:381,1,112.499996566773,8|0,0:0|0:0,0:0:0:0:
179,128,469523,2,0,L|337:154,1,112.499996566773,2|0,3:2|0:0,0:0:0:0:
422,165,469732,1,8,0:0:0:0:
227,259,469836,2,0,B|198:265|140:252|140:252|97:286|97:286|55:296|-15:285,1,224.999993133545,0|0,3:0|3:0,0:0:0:0:
186,341,470148,1,10,0:0:0:0:
50,203,470252,1,0,0:0:0:0:
248,150,470357,70,0,P|264:261|294:369,2,224.999993133545,4|8|2,3:2|0:0|3:2,0:0:0:0:
272,48,470877,1,0,3:0:0:0:
231,170,470982,2,0,B|188:176|188:176|124:147,1,112.499996566773,8|0,0:0|0:0,0:0:0:0:
406,42,471190,2,0,L|383:188,1,112.499996566773,0|0,3:0|0:0,0:0:0:0:
126,307,471398,2,0,B|153:268|153:268|246:245|405:246,1,224.999993133545,8|0,0:0|3:0,0:0:0:0:
461,251,471711,1,0,3:0:0:0:
332,370,471815,2,0,B|304:318|304:318|320:231,1,112.499996566773,8|0,0:0|0:0,0:0:0:0:
511,125,472023,22,0,P|410:147|232:155,1,224.999993133545,0|8,3:0|0:0,0:0:0:0:
103,97,472336,1,0,0:0:0:0:
177,27,472440,2,0,B|203:102|203:102|195:134,1,112.499996566773,0|0,3:0|3:0,3:0:0:0:
152,308,472648,1,8,0:0:0:0:
35,175,472752,1,0,0:0:0:0:
223,233,472857,2,0,B|196:220|147:220|147:220|113:230,1,112.499996566773,0|0,3:0|0:0,0:0:0:0:
9,340,473065,1,8,0:0:0:0:
255,333,473169,2,0,B|311:280|311:280|311:202|255:87,1,224.999993133545,0|0,3:0|3:0,0:0:0:0:
177,27,473482,1,8,0:0:0:0:
223,233,473586,1,0,3:0:0:0:
412,106,473690,70,0,B|368:102|328:118|328:118|295:107|295:107|232:108|194:134,2,224.999993133545,6|8|0,3:2|0:0|3:0,0:0:0:0:
490,207,474211,1,0,3:0:0:0:
423,116,474315,2,0,P|389:160|372:214,1,112.499996566773,8|0,0:0|0:0,0:0:0:0:
505,347,474523,2,0,B|483:320|483:320|348:288,1,112.499996566773,0|0,3:0|0:0,0:0:0:0:
220,328,474732,2,0,B|295:310|295:310|317:283,1,112.499996566773,8|0,0:0|0:0,0:0:0:0:
314,148,474940,1,0,3:0:0:0:
162,74,475044,1,0,3:0:0:0:
247,230,475148,2,0,B|226:164|226:164|245:75|245:75|222:-6,1,224.999993133545,8|0,0:0|3:0,0:0:0:0:
118,250,475461,1,0,0:0:0:0:
43,165,475565,2,0,B|73:145|73:145|128:143|198:173,1,112.499996566773,10|0,0:0|0:0,0:0:0:0:
317,283,475773,22,0,P|268:300|186:342,1,112.499996566773,2|0,3:2|3:0,0:0:0:0:
45,186,475982,2,0,P|20:135|2:82,1,112.499996566773,8|0,0:0|0:0,0:0:0:0:
243,52,476190,2,0,P|296:33|346:9,1,112.499996566773,0|0,3:2|3:0,3:0:0:0:
391,208,476398,1,10,0:0:0:0:
479,119,476502,2,0,B|445:102|445:102|369:103|249:175,1,224.999993133545,0|0,3:0|3:0,0:0:0:0:
126,146,476815,1,8,0:0:0:0:
312,265,476919,1,0,0:0:0:0:
243,52,477023,70,0,B|229:100|229:100|236:149|236:149|220:188|220:188|210:234|206:308,2,224.999993133545,6|8|0,3:2|0:0|3:0,0:0:0:0:
118,140,477544,1,0,0:0:0:0:
222,41,477648,2,0,B|182:27|182:27|82:35,1,112.499996566773,8|0,0:0|0:0,0:0:0:0:
306,278,477857,2,0,B|375:283|375:283|415:269,1,112.499996566773,0|0,3:0|0:0,0:0:0:0:
476,95,478065,2,0,L|192:144,1,224.999993133545,8|0,0:0|3:0,0:0:0:0:
121,253,478377,1,0,3:0:0:0:
191,318,478482,2,0,B|217:292|217:292|219:238|186:174,1,112.499996566773,8|0,0:0|0:0,0:0:0:0:
42,27,478690,22,0,B|7:48|7:48|-3:85|34:237,1,224.999993133545,0|8,3:0|0:0,0:0:0:0:
144,149,479002,1,0,0:0:0:0:
64,339,479107,1,0,3:0:0:0:
292,327,479211,1,0,3:0:0:0:
121,253,479315,2,0,P|176:244|278:203,1,112.499996566773,8|0,0:0|0:0,0:0:0:0:
470,199,479523,1,8,0:0:0:0:
402,129,479627,1,0,3:0:0:0:
395,147,479732,1,0,3:0:0:0:
389,165,479836,1,0,3:0:0:0:
376,336,479940,69,2,3:2:0:0:
486,213,480044,1,8,0:0:0:0:
303,173,480148,1,8,0:0:0:0:
503,231,480252,1,8,0:0:0:0:
382,363,480357,22,0,B|346:354|322:328|322:328|261:353|261:353|165:336,2,224.999993133545,6|8|0,3:2|0:0|3:0,0:0:0:0:
309,183,480877,1,0,3:0:0:0:
183,221,480982,2,0,B|150:273|150:273|171:349,1,112.499996566773,8|0,0:0|0:0,0:0:0:0:
118,64,481190,2,0,P|40:1|-12:1,1,112.499996566773,0|0,3:0|0:0,0:0:0:0:
197,230,481398,2,0,B|231:249|266:248|266:248|319:222,1,112.499996566773,8|0,0:0|0:0,0:0:0:0:
367,51,481607,1,0,3:0:0:0:
247,162,481711,1,0,3:0:0:0:
200,1,481815,2,0,P|138:52|109:107,1,112.499996566773,8|0,0:0|0:0,0:0:0:0:
169,365,482023,6,0,B|219:280|206:201|206:201|178:180|149:169,1,224.999993133545,0|8,3:0|0:0,0:0:0:0:
128,253,482336,1,0,0:0:0:0:
273,357,482440,1,2,3:2:0:0:
294,192,482544,1,0,3:0:0:0:
159,365,482648,2,0,P|270:374|327:360,1,112.499996566773,8|0,0:0|0:0,0:0:0:0:
295,91,482857,86,0,B|248:119|207:155|207:155|202:205|218:303,1,224.999993133545,2|8,3:2|0:0,0:0:0:0:
432,364,483169,1,0,0:0:0:0:
379,265,483273,2,0,P|338:230|274:198,1,112.499996566773,2|0,3:2|3:0,0:0:0:0:
36,304,483482,2,0,B|94:277|94:277|157:187,1,112.499996566773,10|0,0:0|0:0,0:0:0:0:
350,81,483690,6,0,B|312:92|312:92|281:118|281:118|221:89|138:101,2,224.999993133545,4|8|2,3:2|0:0|3:2,0:0:0:0:
192,268,484211,1,0,3:0:0:0:
145,92,484315,2,0,P|118:179|135:256,1,112.499996566773,8|0,0:0|0:0,0:0:0:0:
339,282,484523,2,0,B|361:246|361:246|366:197|350:127,1,112.499996566773,0|0,3:0|0:0,0:0:0:0:
261,24,484732,1,8,0:0:0:0:
273,138,484836,1,0,0:0:0:0:
366,67,484940,2,0,B|403:73|403:73|436:108|439:169,1,112.499996566773,0|0,3:0|3:0,3:0:0:0:
202,295,485148,2,0,P|181:234|220:163,1,112.499996566773,8|0,0:0|3:0,0:0:0:0:
459,351,485357,86,0,B|418:372|353:386|353:386|277:380|135:349,1,224.999993133545,0|8,3:0|0:0,0:0:0:0:
155,340,485669,1,0,0:0:0:0:
359,205,485773,1,0,3:0:0:0:
273,138,485877,1,0,3:0:0:0:
256,242,485982,2,0,B|261:262|294:305|294:305|325:310|370:293,1,112.499996566773,8|0,0:0|0:0,0:0:0:0:
351,71,486190,2,0,B|301:48|228:36|228:36|172:45|133:62,1,224.999993133545,0|8,3:0|0:0,0:0:0:0:
65,130,486502,1,0,3:0:0:0:
50,260,486607,1,0,0:0:0:0:
162,200,486711,1,0,3:0:0:0:
2,188,486815,1,8,0:0:0:0:
133,281,486919,1,0,0:0:0:0:
146,118,487023,6,0,P|190:256|173:359,2,224.999993133545,4|8|0,3:2|0:0|3:0,0:0:0:0:
4,66,487544,1,0,3:0:0:0:
47,259,487648,2,0,B|74:283|116:290|116:290|137:280|147:262,1,112.499996566773,8|0,0:0|0:0,0:0:0:0:
279,57,487857,2,0,B|235:30|235:30|189:108|238:259,1,224.999993133545,0|8,3:0|0:0,0:0:0:0:
357,384,488169,1,0,0:0:0:0:
372,229,488273,1,0,3:0:0:0:
240,297,488377,1,0,3:0:0:0:
365,374,488482,2,0,P|310:363|250:375,1,112.499996566773,8|0,0:0|0:0,0:0:0:0:
30,336,488690,86,0,B|69:350|109:359|109:359|178:330|258:230,1,224.999993133545,6|8,3:2|0:0,0:0:0:0:
193,85,489002,1,0,0:0:0:0:
90,161,489107,2,0,P|82:201|99:283,1,112.499996566773,0|0,3:0|3:0,3:0:0:0:
281,113,489315,1,8,0:0:0:0:
230,279,489419,1,0,0:0:0:0:
96,151,489523,6,0,B|175:152|245:174|245:174|285:204|305:272,1,224.999993133545,2|8,3:2|0:0,0:0:0:0:
157,322,489836,1,0,0:0:0:0:
190,251,489940,1,0,3:0:0:0:
201,384,490044,1,0,3:0:0:0:
78,328,490148,2,0,P|154:278|210:281,1,112.499996566773,8|0,0:0|0:0,0:0:0:0:
350,351,490357,86,0,B|367:365|402:368|402:368|454:279|425:140,2,224.999993133545,6|8|0,3:2|0:0|3:0,0:0:0:0:
355,100,490877,1,0,3:0:0:0:
222,128,490982,2,0,B|210:161|212:190|212:190|225:226|250:256,1,112.499996566773,8|0,0:0|0:0,0:0:0:0:
485,363,491190,2,0,P|502:316|508:248,1,112.499996566773,0|0,3:0|0:0,0:0:0:0:
345,112,491398,2,0,P|207:93|78:107,1,224.999993133545,8|0,0:0|3:0,0:0:0:0:
290,294,491711,1,0,3:0:0:0:
447,214,491815,2,0,B|460:176|459:156|459:156|444:122|402:93,1,112.499996566773,8|0,0:0|0:0,0:0:0:0:
128,109,492023,6,0,B|90:187|90:187|82:235|113:287|113:287|137:267|131:243,1,224.999993133545,0|8,3:0|0:0,0:0:0:0:
196,25,492336,1,0,0:0:0:0:
27,100,492440,1,0,3:0:0:0:
175,197,492544,1,0,3:0:0:0:
195,16,492648,2,0,P|88:46|67:66,1,112.499996566773,8|0,0:0|0:0,0:0:0:0:
209,270,492857,86,0,B|234:288|275:296|275:296|320:288,1,112.499996566773,8|0,0:0|0:0,0:0:0:0:
376,59,493065,1,0,3:0:0:0:
277,206,493169,1,0,3:0:0:0:
446,224,493273,1,8,3:0:0:0:
287,103,493377,1,8,3:0:0:0:
368,159,493482,1,8,3:0:0:0:
455,119,493586,1,8,3:0:0:0:
453,99,493690,22,0,P|455:59|464:12,2,87.499997329712,6|0|0,3:2|0:0|0:0,0:0:0:0:
457,263,494315,1,0,0:0:0:0:
453,99,494523,2,0,P|360:112|242:140,1,174.999994659424,2|0,0:0|0:0,0:0:0:0:
334,215,495148,1,0,0:0:0:0:
453,99,495357,54,0,P|434:184|422:271,1,174.999994659424,2|0,0:0|0:0,0:0:0:0:
512,173,495982,1,0,0:0:0:0:
422,271,496190,2,0,P|484:257|531:241,1,87.499997329712,2|0,0:0|0:0,0:0:0:0:
344,221,496607,2,0,P|337:264|334:307,1,87.499997329712,2|0,0:0|0:0,0:0:0:0:
124,147,497023,37,2,0:0:0:0:
56,214,497232,1,0,0:0:0:0:
146,241,497440,1,2,0:0:0:0:
156,250,497648,1,2,0:0:0:0:
40,119,497857,53,2,0:0:0:0:
82,314,498065,1,0,0:0:0:0:
212,184,498273,2,0,P|231:144|242:94,1,87.499997329712,2|0,0:0|0:0,0:0:0:0:
254,289,498690,38,0,P|183:305|56:313,1,174.999994659424,2|0,0:0|0:0,0:0:0:0:
71,212,499315,1,0,0:0:0:0:
330,206,499523,2,0,P|379:259|449:365,1,174.999994659424,2|0,0:0|0:0,0:0:0:0:
317,23,500148,1,0,0:0:0:0:
502,53,500357,54,0,P|480:134|402:165,1,174.999994659424,2|0,0:0|0:0,0:0:0:0:
351,275,500982,1,0,0:0:0:0:
435,344,501190,2,0,P|450:238|489:175,1,174.999994659424,2|0,0:0|0:0,0:0:0:0:
435,344,502023,38,0,P|349:375|330:386,1,87.499997329712,2|0,0:0|0:0,0:0:0:0:
351,275,502440,1,0,0:0:0:0:
78,334,502648,2,0,P|176:309|159:262,1,174.999994659424,2|0,0:0|0:0,0:0:0:0:
86,146,503273,2,0,P|73:215|72:244,1,87.499997329712,2|0,0:0|0:0,0:0:0:0:
328,255,503690,53,2,0:0:0:0:
344,251,503898,1,0,0:0:0:0:
285,374,504107,1,2,0:0:0:0:
425,238,504315,1,2,0:0:0:0:
233,185,504523,2,0,P|237:228|246:271,1,87.499997329712,2|0,0:0|0:0,0:0:0:0:
357,337,504940,2,0,P|352:293|343:250,1,87.499997329712,2|0,0:0|0:0,0:0:0:0:
152,116,505357,37,2,0:0:0:0:
134,119,505565,1,0,0:0:0:0:
246,23,505773,1,2,0:0:0:0:
37,201,505982,1,2,0:0:0:0:
219,220,506190,2,0,P|233:167|237:112,1,87.499997329712,2|0,0:0|0:0,0:0:0:0:
63,3,506607,2,0,P|49:56|45:111,1,87.499997329712,2|0,0:0|0:0,0:0:0:0:
37,201,507023,54,0,B|129:184|171:109|171:109|183:133|185:159|185:159|178:184|159:202|159:202|223:216|264:254|260:292|227:334|180:339|138:277,1,524.999983978272,2|0,3:2|0:0,0:0:0:0:
142,283,508482,1,0,0:0:0:0:
284,157,508690,38,0,P|392:119|481:133,1,174.999994659424,2|0,3:2|0:0,0:0:0:0:
450,123,509315,1,0,0:0:0:0:
330,242,509523,2,0,P|390:252|448:279,1,87.499997329712,2|0,0:0|0:0,0:0:0:0:
365,384,509940,2,0,P|328:359|300:326,1,87.499997329712,2|0,0:0|0:0,0:0:0:0:
334,38,510357,54,0,B|400:46|442:20|442:20|539:89|463:196|463:196|406:157|341:160|341:160|365:118|424:110,1,524.999983978272,2|0,3:2|0:0,0:0:0:0:
404,113,511815,1,0,3:0:0:0:
115,199,512023,37,2,3:2:0:0:
130,232,512232,1,0,0:0:0:0:
153,206,512440,1,2,0:0:0:0:
55,330,512648,1,2,3:2:0:0:
192,88,512857,1,2,0:0:0:0:
192,88,513273,1,0,0:0:0:0:
192,88,513690,54,0,B|164:93|110:64|110:64|59:68|59:68|26:77|-21:41|-21:41|28:92|26:140|26:140|65:155|85:194|85:194|125:190|154:206|154:206|167:193|211:183,1,524.999983978272,2|0,3:2|0:0,0:0:0:0:
320,88,515357,2,0,B|348:93|402:64|402:64|453:68|453:68|486:77|533:41|533:41|484:92|486:140|486:140|447:155|427:194|427:194|387:190|358:206|358:206|345:193|301:183,1,524.999983978272,2|2,3:2|3:2,0:0:0:0:
328,190,516815,1,0,0:0:0:0:
101,278,517023,37,2,3:2:0:0:
129,266,517232,1,0,0:0:0:0:
103,249,517440,1,0,0:0:0:0:
191,343,517648,53,2,0:0:0:0:
159,157,517857,1,0,0:0:0:0:
7,277,518065,1,0,0:0:0:0:
221,245,518273,2,0,P|268:226|315:196,1,87.499997329712,2|0,0:0|0:0,0:0:0:0:
437,107,518690,37,2,3:2:0:0:
380,173,518898,1,0,0:0:0:0:
466,190,519107,1,0,0:0:0:0:
360,96,519315,1,2,3:2:0:0:
387,340,519523,2,0,P|394:304|417:238,1,87.499997329712,10|0,0:0|3:0,0:0:0:0:
512,125,519940,1,2,3:2:0:0:
387,340,520148,1,0,3:0:0:0:
246,97,520357,6,0,B|208:96|173:114|173:114|121:101|121:101|88:114|52:118,1,200,6|0,3:2|0:0,0:0:0:0:
10,25,520982,1,0,3:0:0:0:
249,77,521190,2,0,P|257:163|241:281,1,200,10|0,0:0|0:0,0:0:0:0:
159,321,521815,1,2,0:0:0:0:
106,145,522023,2,0,P|154:221|156:233,1,100,0|0,3:0|0:0,0:0:0:0:
286,347,522440,2,0,P|333:292|345:265,1,100,0|0,0:0|3:0,0:0:0:0:
268,67,522857,38,0,P|312:159|343:197,1,150,8|0,0:0|0:0,0:0:0:0:
512,183,523273,2,0,P|424:194|330:309,1,200,0|0,3:0|3:0,0:0:0:0:
468,341,523898,1,0,0:0:0:0:
474,197,524107,1,0,0:0:0:0:
425,271,524315,1,0,3:0:0:0:
152,273,524523,54,0,P|282:290|344:267,1,200,8|0,0:0|0:0,0:0:0:0:
215,62,525148,1,0,0:0:0:0:
114,106,525357,2,0,P|118:144|157:196,1,100,0|0,3:0|0:0,0:0:0:0:
295,171,525773,1,0,0:0:0:0:
126,0,525982,1,0,3:0:0:0:
47,228,526190,2,0,B|94:217|147:237|147:237|187:227|187:227|227:241|257:235,1,200,8|0,0:0|0:0,0:0:0:0:
189,317,526815,1,2,0:0:0:0:
294,51,527023,38,0,P|246:234|231:250,1,200,6|0,3:2|0:0,0:0:0:0:
170,74,527648,1,0,3:0:0:0:
342,253,527857,2,0,P|303:301|245:334,1,100,8|0,0:0|0:0,0:0:0:0:
187,171,528273,2,0,P|178:89|155:55,1,100
242,236,528690,54,0,P|201:269|44:287,1,200,2|0,3:2|0:0,0:0:0:0:
14,136,529315,1,0,3:0:0:0:
242,236,529523,2,0,P|251:329|239:353,1,100,10|0,0:0|0:0,0:0:0:0:
7,233,529940,2,0,P|0:183|14:136,1,100,2|0,0:0|0:0,0:0:0:0:
270,50,530357,37,2,3:2:0:0:
288,54,530565,1,0,0:0:0:0:
165,5,530773,1,2,0:0:0:0:
184,136,530982,1,0,3:0:0:0:
442,12,531190,54,0,P|416:88|420:123,1,100,8|0,0:0|0:0,0:0:0:0:
346,239,531607,2,0,P|342:189|320:144,1,100
118,77,532023,37,2,3:2:0:0:
214,174,532232,1,0,0:0:0:0:
85,208,532440,1,0,0:0:0:0:
140,150,532648,1,0,3:0:0:0:
28,379,532857,53,8,0:0:0:0:
278,362,533065,1,8,0:0:0:0:
149,279,533273,1,2,3:2:0:0:
145,289,533482,1,2,3:2:0:0:
216,85,533690,38,0,P|245:154|197:312,1,200,6|0,3:2|0:0,0:0:0:0:
140,300,534315,1,0,3:0:0:0:
355,80,534523,2,0,P|355:117|326:186,1,100,8|0,0:0|0:0,0:0:0:0:
225,274,534940,1,2,0:0:0:0:
259,76,535148,1,2,0:0:0:0:
423,223,535357,54,0,P|436:132|338:81,1,200,2|0,3:2|0:0,0:0:0:0:
303,161,535982,1,0,3:0:0:0:
397,317,536190,2,0,P|488:293|513:270,1,100,10|0,0:0|0:0,0:0:0:0:
303,161,536607,2,0,P|258:138|208:134,1,100,2|0,3:2|0:0,0:0:0:0:
228,290,537023,38,0,P|378:211|412:159,1,200,2|0,3:2|0:0,0:0:0:0:
369,95,537648,1,0,3:0:0:0:
80,196,537857,2,0,P|119:250|172:291,1,100,10|0,0:0|0:0,0:0:0:0:
336,230,538273,1,0,0:0:0:0:
200,91,538482,1,0,0:0:0:0:
226,195,538690,54,0,P|230:271|220:296,1,100,2|0,3:2|0:0,0:0:0:0:
137,324,539107,1,2,0:0:0:0:
303,142,539315,1,0,3:0:0:0:
379,374,539523,1,8,0:0:0:0:
277,273,539732,1,2,3:2:0:0:
282,250,539940,1,2,3:2:0:0:
286,227,540148,1,2,0:0:0:0:
483,356,540357,38,0,B|413:333|413:333|376:343|352:367|352:367|324:371|264:359,1,200,6|0,3:2|0:0,0:0:0:0:
216,311,540982,1,0,3:0:0:0:
322,177,541190,2,0,P|317:258|304:280,1,100,8|0,0:0|0:0,0:0:0:0:
75,352,541607,2,0,P|159:314|257:318,1,150,2|0,0:0|0:0,0:0:0:0:
389,368,542023,54,0,P|309:373|285:353,1,100,2|0,3:2|0:0,0:0:0:0:
202,139,542440,1,0,0:0:0:0:
308,273,542648,1,0,3:0:0:0:
512,97,542857,2,0,B|460:73|411:70|411:70|382:75|335:100,1,150,10|0,0:0|0:0,0:0:0:0:
345,180,543273,2,0,P|323:229|334:284,1,100,2|0,3:2|0:0,0:0:0:0:
185,382,543690,38,0,B|171:362|142:338|142:338|100:303|86:220|123:174|166:147|166:147|214:116|234:73|229:2|229:2|324:57|290:160|244:198|244:198|212:225|220:254|220:254|251:222|282:217|282:217|323:212|344:180|344:180|374:247|336:295|336:295|308:334|329:378,1,1085.00001324463,2|0,0:0|0:0,0:0:0:0:
462,324,547023,6,0,B|391:341|317:339|317:339|223:245,1,224.999993133545,6|8,3:2|0:0,0:0:0:0:
387,187,547336,1,0,0:0:0:0:
353,262,547440,1,2,3:2:0:0:
339,114,547544,1,0,3:0:0:0:
474,181,547648,2,0,P|365:275|342:280,1,112.499996566773,8|0,0:0|0:0,0:0:0:0:
89,141,547857,6,0,B|159:121|216:154|216:154|256:146|256:146|311:168,2,224.999993133545,2|8|0,3:2|0:0|3:0,0:0:0:0:
46,358,548377,1,0,3:0:0:0:
209,323,548482,2,0,B|238:304|238:304|253:263|247:222,1,112.499996566773,10|0,0:0|0:0,0:0:0:0:
42,7,548690,2,0,P|14:99|40:162,1,112.499996566773,0|0,3:0|0:0,0:0:0:0:
312,169,548898,2,0,P|259:93|222:76,1,112.499996566773,8|0,0:0|0:0,0:0:0:0:
18,259,549107,1,0,3:0:0:0:
150,193,549211,1,0,3:0:0:0:
21,116,549315,2,0,P|52:239|86:263,1,112.499996566773,8|0,0:0|0:0,0:0:0:0:
326,303,549523,86,0,B|256:262|203:251|203:251|143:267|95:308,1,224.999993133545,2|8,3:2|0:0,0:0:0:0:
206,344,549836,1,0,0:0:0:0:
252,184,549940,2,0,B|234:172|201:165|201:165|171:173|148:187,1,112.499996566773,2|0,3:2|3:0,3:0:0:0:
332,315,550148,2,0,P|366:250|377:164,1,112.499996566773,8|0,0:0|0:0,0:0:0:0:
381,22,550357,1,0,3:0:0:0:
374,212,550461,1,0,0:0:0:0:
274,83,550565,6,0,B|328:94|367:121|367:121|425:107|425:107|523:118,1,224.999993133545,10|0,0:0|3:0,0:0:0:0:
381,22,550877,1,0,3:0:0:0:
379,281,550982,2,0,B|415:261|430:243|430:243|437:201|418:165,1,112.499996566773,8|0,0:0|0:0,0:0:0:0:
206,19,551190,2,0,B|159:82|180:162|180:162|220:180|252:158,2,224.999993133545,0|8|0,3:0|0:0|3:0,0:0:0:0:
469,119,551711,85,0,3:0:0:0:
280,241,551815,2,0,P|214:254|170:247,1,112.499996566773,8|0,0:0|0:0,0:0:0:0:
381,89,552023,2,0,P|395:182|366:330,1,224.999993133545,0|8,3:0|0:0,0:0:0:0:
209,363,552336,1,0,0:0:0:0:
237,193,552440,1,0,3:0:0:0:
373,310,552544,1,0,3:0:0:0:
102,296,552648,2,0,B|80:278|78:251|78:251|82:215|99:194,1,112.499996566773,8|0,0:0|0:0,0:0:0:0:
304,110,552857,6,0,B|228:96|228:96|158:118|158:118|85:100,1,224.999993133545,0|8,3:0|0:0,0:0:0:0:
180,30,553169,1,0,0:0:0:0:
254,177,553273,1,2,3:2:0:0:
180,30,553377,1,0,3:0:0:0:
87,180,553482,1,10,0:0:0:0:
261,183,553586,1,0,3:0:0:0:
53,53,553690,86,0,P|59:203|105:263,1,224.999993133545,6|8,3:2|0:0,0:0:0:0:
205,303,554002,1,0,0:0:0:0:
257,104,554107,2,0,B|225:124|199:158|199:158|186:198|189:243,1,112.499996566773,2|0,3:2|3:0,3:0:0:0:
54,353,554315,2,0,P|164:381|338:342,2,224.999993133545,10|0|8,0:0|3:0|0:0,0:0:0:0:
273,158,554836,1,0,0:0:0:0:
363,265,554940,2,0,B|378:307|378:307|377:352|345:411,1,112.499996566773,2|0,3:2|3:0,3:0:0:0:
173,165,555148,2,0,B|181:111|181:111|251:46,1,112.499996566773,10|0,0:0|0:0,0:0:0:0:
428,15,555357,6,0,B|443:63|417:106|417:106|450:143|450:143|457:203|422:267,1,224.999993133545,2|8,3:2|0:0,0:0:0:0:
352,252,555669,1,0,0:0:0:0:
239,69,555773,2,0,B|262:49|287:38|287:38|390:58,1,112.499996566773,0|0,3:0|3:0,3:0:0:0:
447,232,555982,2,0,B|385:221|354:232|354:232|311:259|311:259|248:254|195:218,2,224.999993133545,10|0|8,0:0|3:0|0:0,0:0:0:0:
289,165,556502,1,0,3:0:0:0:
370,384,556607,2,0,B|390:386|414:358|414:358|406:323|386:304,2,112.499996566773,2|0|8,0:2|3:0|0:0,0:0:0:0:
200,329,556919,1,0,0:0:0:0:
289,165,557023,86,0,B|232:137|170:127|170:127|130:184|119:263,1,224.999993133545,6|8,3:2|0:0,0:0:0:0:
121,345,557336,1,0,0:0:0:0:
273,368,557440,1,0,3:0:0:0:
219,230,557544,1,0,3:0:0:0:
89,366,557648,2,0,P|53:314|46:263,1,112.499996566773,8|0,0:0|0:0,0:0:0:0:
264,52,557857,2,0,P|188:184|105:223,1,224.999993133545,0|8,3:0|0:0,0:0:0:0:
14,160,558169,1,0,0:0:0:0:
121,96,558273,1,0,3:0:0:0:
45,266,558377,1,0,3:0:0:0:
229,247,558482,2,0,P|356:239|368:230,1,112.499996566773,8|0,0:0|0:0,0:0:0:0:
501,55,558690,6,0,B|450:30|404:47|404:47|355:116|396:230,1,224.999993133545,0|8,3:2|0:0,0:0:0:0:
317,367,559002,1,0,0:0:0:0:
497,331,559107,2,0,P|435:248|404:239,1,112.499996566773,0|0,3:0|3:0,3:0:0:0:
266,155,559315,2,0,B|278:172|310:181|310:181|348:182|390:160,1,112.499996566773,8|0,0:0|0:0,0:0:0:0:
512,50,559523,85,8,0:0:0:0:
512,50,559732,1,0,3:0:0:0:
509,143,559836,1,0,3:0:0:0:
463,221,559940,69,2,3:2:0:0:
402,256,560044,1,0,3:0:0:0:
359,264,560148,1,2,3:2:0:0:
334,261,560252,1,0,3:0:0:0:
481,304,560357,22,0,B|448:272|448:272|368:274|271:301,1,224.999993133545,6|8,3:2|0:0,0:0:0:0:
75,130,560669,1,0,0:0:0:0:
23,218,560773,2,0,P|77:231|133:236,1,112.499996566773,2|0,3:2|3:0,3:0:0:0:
194,327,560982,2,0,B|168:289|144:223|144:223|165:157|187:122,2,224.999993133545,10|0|8,0:0|3:0|0:0,0:0:0:0:
97,364,561502,1,0,0:0:0:0:
325,288,561607,1,2,3:2:0:0:
290,374,561711,1,0,3:0:0:0:
241,233,561815,2,0,B|266:214|266:214|371:201,1,112.499996566773,8|0,0:0|0:0,0:0:0:0:
497,382,562023,6,0,P|441:370|341:358,1,112.499996566773,2|0,3:2|0:0,0:0:0:0:
229,221,562232,2,0,P|217:165|209:110,1,112.499996566773,8|0,0:0|0:0,0:0:0:0:
365,43,562440,1,2,3:2:0:0:
352,212,562544,1,0,3:0:0:0:
106,120,562648,2,0,P|161:108|216:100,1,112.499996566773,8|0,0:0|0:0,0:0:0:0:
478,65,562857,2,0,B|442:84|442:84|428:102|404:196,1,112.499996566773,2|0,3:2|0:0,0:0:0:0:
275,306,563065,1,8,0:0:0:0:
401,358,563169,2,0,B|457:332|457:332|473:276|411:119,1,224.999993133545,0|0,3:0|0:0,0:0:0:0:
324,99,563482,1,8,0:0:0:0:
286,287,563586,1,0,0:0:0:0:
447,194,563690,86,0,B|403:198|363:177|363:177|289:197|289:197|229:183,1,224.999993133545,6|8,3:2|0:0,0:0:0:0:
73,88,564002,1,0,0:0:0:0:
222,169,564107,1,0,3:0:0:0:
63,236,564211,1,0,3:0:0:0:
132,9,564315,2,0,B|157:79|157:79|151:116,1,112.499996566773,10|0,0:0|0:0,0:0:0:0:
96,332,564523,2,0,P|68:209|59:97,2,224.999993133545,0|8|0,3:0|0:0|3:0,0:0:0:0:
295,384,565044,1,0,3:0:0:0:
121,324,565148,2,0,B|142:301|142:301|237:284,1,112.499996566773,8|0,0:0|0:0,0:0:0:0:
405,185,565357,6,0,B|364:225|364:225|319:225|176:192,1,224.999993133545,0|8,3:0|0:0,0:0:0:0:
116,6,565669,1,0,0:0:0:0:
298,79,565773,1,0,3:0:0:0:
113,156,565877,1,0,3:0:0:0:
198,64,565982,2,0,P|223:191|222:287,1,224.999993133545,8|0,0:0|3:0,0:0:0:0:
214,374,566294,1,0,0:0:0:0:
37,315,566398,2,0,P|89:297|156:255,1,112.499996566773,10|0,0:0|0:0,0:0:0:0:
370,124,566607,2,0,B|343:154|343:154|321:259,1,112.499996566773,2|0,0:0|3:0,0:0:0:0:
203,384,566815,1,10,0:0:0:0:
310,219,566919,1,0,3:0:0:0:
444,327,567023,86,0,B|394:313|394:313|344:333|344:333|295:298|164:289,2,224.999993133545,6|8|0,3:2|0:0|3:0,0:0:0:0:
447,344,567544,1,0,3:0:0:0:
512,262,567648,2,0,P|465:229|413:209,1,112.499996566773,8|0,0:0|0:0,0:0:0:0:
218,85,567857,1,0,3:0:0:0:
245,199,567961,1,0,0:0:0:0:
332,115,568065,1,8,0:0:0:0:
219,65,568169,1,0,0:0:0:0:
249,216,568273,2,0,B|255:261|255:261|234:353,2,112.499996566773,2|0|8,3:2|3:0|0:0,0:0:0:0:
346,109,568586,1,0,0:0:0:0:
150,220,568690,6,0,B|297:180|297:180|335:186|357:217,1,224.999993133545,2|8,3:2|0:0,0:0:0:0:
474,158,569002,1,0,0:0:0:0:
364,331,569107,1,0,3:0:0:0:
375,221,569211,1,0,3:0:0:0:
463,278,569315,2,0,B|478:309|478:309|481:336|453:402,1,112.499996566773,8|0,0:0|0:0,0:0:0:0:
259,224,569523,2,0,B|285:139|290:70|290:70|351:112,1,224.999993133545,2|8,3:2|0:0,0:0:0:0:
196,94,569836,1,0,3:0:0:0:
342,130,569940,2,0,P|397:124|458:111,1,112.499996566773,2|0,0:0|3:0,0:0:0:0:
254,233,570148,2,0,P|198:221|142:216,1,112.499996566773,10|0,0:0|0:0,0:0:0:0:
415,353,570357,86,0,P|429:241|453:131,1,224.999993133545,4|8,3:2|0:0,0:0:0:0:
453,131,570773,1,0,3:0:0:0:
333,0,570877,1,0,3:0:0:0:
422,50,570982,2,0,P|373:77|319:93,1,112.499996566773,8|0,0:0|0:0,0:0:0:0:
136,197,571190,2,0,B|183:169|183:169|271:186|338:255,1,224.999993133545,0|8,3:0|0:0,0:0:0:0:
331,248,571607,1,0,3:0:0:0:
391,182,571711,1,0,3:0:0:0:
246,299,571815,2,0,B|227:275|227:275|252:172,1,112.499996566773,8|0,0:0|0:0,0:0:0:0:
456,32,572023,6,0,B|475:56|475:56|479:87|450:159,1,112.499996566773,0|0,3:0|0:0,0:0:0:0:
211,111,572232,2,0,B|267:109|267:109|320:93,1,112.499996566773,8|0,0:0|0:0,0:0:0:0:
155,233,572440,1,0,3:0:0:0:
30,88,572544,1,0,3:0:0:0:
128,43,572648,2,0,B|126:99|126:99|110:152,1,112.499996566773,8|0,0:0|0:0,0:0:0:0:
48,337,572857,1,0,3:0:0:0:
262,256,572961,1,0,3:0:0:0:
138,343,573065,2,0,B|138:286|138:286|154:233,1,112.499996566773,8|0,0:0|0:0,0:0:0:0:
320,94,573273,1,10,0:0:0:0:
369,196,573377,1,0,3:0:0:0:
211,111,573482,1,10,0:0:0:0:
380,23,573586,1,8,0:0:0:0:
255,203,573690,86,0,B|181:193|181:193|141:163|141:163|94:192|12:185,2,224.999993133545,6|8|2,3:2|0:0|3:2,0:0:0:0:
435,279,574211,1,0,3:0:0:0:
259,224,574315,2,0,B|194:213|194:213|112:235,1,112.499996566773,10|0,0:0|0:0,0:0:0:0:
327,384,574523,2,0,B|338:319|338:319|325:274,1,112.499996566773,0|0,3:0|0:0,0:0:0:0:
351,176,574732,1,8,0:0:0:0:
230,320,574836,1,0,0:0:0:0:
365,167,574940,2,0,P|386:118|402:33,2,112.499996566773,2|0|8,3:2|3:0|0:0,0:0:0:0:
286,64,575252,1,0,0:0:0:0:
451,191,575357,6,0,B|356:151|270:156|270:156|181:209,1,224.999993133545,2|8,3:2|0:0,0:0:0:0:
236,175,575773,1,0,3:0:0:0:
324,264,575877,1,0,3:0:0:0:
161,91,575982,1,8,0:0:0:0:
161,91,576190,2,0,P|140:140|124:225,1,112.499996566773,2|0,3:2|0:0,0:0:0:0:
216,368,576398,1,8,0:0:0:0:
91,292,576502,2,0,B|134:301|134:301|219:265,1,112.499996566773,0|2,3:0|0:0,0:0:0:0:
316,107,576711,1,0,3:0:0:0:
115,200,576815,1,8,0:0:0:0:
305,328,576919,1,0,0:0:0:0:
240,190,577023,86,0,B|222:135|221:77|221:77|245:31|297:0,1,224.999993133545,6|8,3:2|0:0,0:0:0:0:
398,26,577336,1,0,0:0:0:0:
239,204,577440,1,0,3:0:0:0:
324,113,577544,1,0,3:0:0:0:
380,223,577648,2,0,P|392:283|399:347,1,112.499996566773,8|0,0:0|0:0,0:0:0:0:
220,102,577857,2,0,B|149:106|149:106|82:84|-22:26,2,224.999993133545,2|8|0,3:2|0:0|3:0,0:0:0:0:
61,157,578377,1,0,3:0:0:0:
163,19,578482,1,8,0:0:0:0:
218,188,578586,1,0,3:0:0:0:
54,171,578690,6,0,B|25:225|25:225|15:317|68:394,1,224.999993133545,0|8,3:2|0:0,0:0:0:0:
318,143,579002,1,0,0:0:0:0:
218,294,579107,2,0,B|147:276|147:276|116:229,2,112.499996566773,0|0|8,3:0|3:0|0:0,0:0:0:0:
218,188,579419,1,0,0:0:0:0:
341,341,579523,1,0,3:0:0:0:
341,341,579732,2,0,B|385:309|385:309|394:287|406:185,1,112.499996566773,10|0,0:0|0:0,0:0:0:0:
296,32,579940,85,10,0:0:0:0:
303,250,580044,1,8,0:0:0:0:
476,128,580148,1,2,3:2:0:0:
351,142,580252,1,0,3:0:0:0:
351,142,580357,6,0,B|292:141|242:113|242:113|225:147|189:159|189:159|122:146|84:75|186:-5,1,400,6|0,3:2|0:0,0:0:0:0:
180,0,581398,1,0,3:0:0:0:
263,212,581607,2,0,P|257:258|236:345,1,100,8|0,0:0|3:0,0:0:0:0:
121,312,582023,85,8,0:0:0:0:
362,344,582127,1,8,0:0:0:0:
362,344,582440,2,0,P|367:297|394:209,1,112.499996566773,0|0,3:0|0:0,0:0:0:0:
326,50,582648,1,8,0:0:0:0:
465,75,582752,2,0,B|439:115|439:115|414:125|371:127,1,112.499996566773,8|0,0:0|3:0,0:0:0:0:
181,232,582961,53,8,0:0:0:0:
268,277,583065,69,8,0:0:0:0:
184,330,583169,53,8,0:0:0:0:
176,218,583273,53,8,0:0:0:0:
277,384,583377,53,8,0:0:0:0:
98,276,583482,69,8,0:0:0:0:
264,176,583586,37,8,0:0:0:0:
43,50,583690,38,0,P|58:120|59:178,1,93.7500035762788,4|0,3:2|2:3,2:3:0:0:
0,317,583898,2,8,P|3:280|33:192,1,93.7500035762788,8|0,0:0|0:0,0:0:0:0:
138,97,584107,1,0,3:0:0:0:
206,48,584211,1,0,3:0:0:0:
145,176,584315,2,0,P|208:192|238:180,1,93.7500035762788,8|0,0:0|0:0,0:0:0:0:
280,90,584523,6,0,P|268:233|311:309,1,187.500007152558,0|8,3:0|0:0,0:0:0:0:
415,365,584836,1,0,0:0:0:0:
452,262,584940,2,0,B|428:244|399:241|399:241|365:246|338:262,1,93.7500035762788,0|0,3:0|3:0,3:0:0:0:
159,351,585148,1,8,0:0:0:0:
159,351,585357,86,0,B|120:291|132:220|132:220|168:224|194:269,1,187.500007152558,0|8,3:0|0:0,0:0:0:0:
245,335,585669,1,0,0:0:0:0:
68,345,585773,2,0,P|55:297|58:198,1,93.7500035762788,2|0,3:2|3:0,3:0:0:0:
285,179,585982,1,8,0:0:0:0:
285,179,586190,6,0,B|308:236|294:308|294:308|268:331|204:345,1,187.500007152558,2|8,3:2|0:0,0:0:0:0:
188,154,586502,1,0,3:0:0:0:
260,87,586607,1,2,0:0:0:0:
214,244,586711,1,0,3:0:0:0:
91,129,586815,2,0,P|151:88|188:79,1,93.7500035762788,8|0,0:0|0:0,0:0:0:0:
428,98,587023,86,0,B|395:121|324:129|324:129|274:109|239:62,1,187.500007152558,2|8,3:2|0:0,0:0:0:0:
354,0,587336,1,0,0:0:0:0:
442,95,587440,2,0,P|428:222|415:234,1,93.7500035762788,0|0,3:0|3:0,3:0:0:0:
354,375,587648,2,0,B|305:312|320:228|320:228|373:188,1,187.500007152558,10|2,0:0|3:2,0:0:0:0:
345,208,588065,5,8,0:0:0:0:
267,367,588273,2,0,P|229:282|246:205,1,93.7500035762788,2|0,3:2|3:0,0:0:0:0:
487,101,588482,2,0,P|475:146|449:184,1,93.7500035762788,10|0,0:0|0:0,0:0:0:0:
402,281,588690,2,0,P|269:276|196:232,1,187.500007152558,0|8,3:0|0:0,0:0:0:0:
170,175,589002,1,0,0:0:0:0:
157,346,589107,2,0,P|134:252|148:219,1,93.7500035762788,0|0,3:0|3:0,0:0:0:0:
297,108,589315,2,0,B|302:128|299:164|299:164|288:190|258:223,1,93.7500035762788,8|0,0:0|0:0,0:0:0:0:
31,293,589523,2,0,P|49:135|102:76,1,187.500007152558,0|8,3:0|0:0,0:0:0:0:
156,157,589836,1,0,3:0:0:0:
16,23,589940,85,2,0:1:0:0:
44,204,590044,1,0,3:0:0:0:
187,88,590148,1,8,0:0:0:0:
16,23,590252,1,0,3:0:0:0:
44,204,590357,54,0,B|111:237|181:238|181:238|232:212|266:159,1,187.500007152558,6|8,3:1|0:0,0:0:0:0:
327,59,590669,1,0,0:0:0:0:
186,54,590773,2,0,P|160:159|179:210,1,93.7500035762788,0|0,3:0|3:0,0:0:0:0:
366,235,590982,2,0,P|344:193|297:165,1,93.7500035762788,8|0,0:0|0:0,0:0:0:0:
140,312,591190,38,0,B|174:323|201:321|201:321|232:301|236:288,1,93.7500035762788,0|0,3:0|0:0,0:0:0:0:
413,70,591398,2,0,P|384:144|367:299,1,187.500007152558,10|0,0:1|3:0,0:0:0:0:
224,159,591711,2,0,P|254:221|304:259,1,93.7500035762788,2|8,3:1|0:0,0:0:0:0:
441,216,591919,1,0,0:0:0:0:
326,83,592023,54,0,B|296:52|253:40|253:40|195:67|163:99,1,187.500007152558,6|8,3:1|0:0,0:0:0:0:
189,218,592336,1,0,0:0:0:0:
85,24,592440,2,0,P|64:92|61:195,1,93.7500035762788,2|0,3:1|3:0,3:0:0:0:
276,230,592648,2,0,P|267:184|251:139,1,93.7500035762788,8|0,0:0|0:0,0:0:0:0:
62,293,592857,38,0,B|101:294|123:288|123:288|180:306|180:306|214:298|261:300,1,187.500007152558,2|8,3:1|0:0,0:0:0:0:
116,371,593169,1,0,3:0:0:0:
53,218,593273,2,0,P|67:101|88:78,1,93.7500035762788,2|0,0:1|3:0,0:0:0:0:
255,289,593482,2,0,P|263:334|255:380,1,93.7500035762788,8|0,0:0|0:0,0:0:0:0:
306,96,593690,54,0,B|237:83|164:95|164:95|138:112|127:136,1,187.500007152558,6|8,3:1|0:0,0:0:0:0:
247,225,594002,1,0,0:0:0:0:
187,13,594107,2,0,B|149:14|126:23|126:23|101:42|80:64,1,93.7500035762788,0|0,3:0|3:0,3:0:0:0:
247,225,594315,1,8,0:0:0:0:
406,142,594419,1,0,0:0:0:0:
315,111,594523,2,0,P|340:212|386:239,1,93.7500035762788,0|0,3:0|0:0,0:0:0:0:
423,348,594732,38,0,B|459:335|480:304|480:304|494:241|463:188,1,187.500007152558,10|0,0:1|3:0,0:0:0:0:
360,48,595044,1,0,3:0:0:0:
303,269,595148,2,0,P|379:274|413:259,1,93.7500035762788,10|0,0:1|0:0,0:0:0:0:
462,180,595357,53,6,3:1:0:0:
321,81,595461,1,0,0:0:0:0:
299,255,595565,2,0,P|316:353|329:368,1,93.7500035762788,8|0,0:0|0:0,0:0:0:0:
321,81,595773,2,0,B|302:60|268:49|268:49|238:57|211:74,1,93.7500035762788,2|0,0:1|3:0,0:0:0:0:
159,186,595982,1,8,0:0:0:0:
249,148,596086,1,0,0:0:0:0:
79,131,596190,37,2,3:1:0:0:
79,131,596398,1,0,3:0:0:0:
81,343,596502,1,8,0:0:0:0:
255,237,596607,1,2,3:1:0:0:
56,236,596711,1,0,3:0:0:0:
183,308,596815,1,0,3:0:0:0:
178,167,596919,1,0,3:0:0:0:
139,237,597036,54,0,P|120:223|109:211,1,25,12|0,0:0|0:0,0:0:0:0:
256,192,597247,12,0,603862,0:0:0:0:
379,292,604744,70,0,P|352:184|307:157,1,125,2|0,0:0|0:0,0:0:0:0:
274,354,605406,1,0,0:0:0:0:
274,354,605626,2,0,P|403:325|438:278,1,187.5,2|0,0:0|0:0,0:0:0:0:
433,286,606741,1,0,0:0:0:0:
386,146,606964,1,0,0:0:0:0:
364,232,607187,1,0,0:0:0:0:
471,124,607410,1,0,3:0:0:0:
471,124,608084,37,0,0:0:0:0:
399,47,608308,2,0,P|348:50|317:59,1,62.5,2|0,0:0|0:0,0:0:0:0:
464,170,608987,1,0,0:0:0:0:
324,22,609213,2,0,P|261:96|255:190,1,187.5,2|0,0:0|0:0,0:0:0:0:
325,142,610362,2,0,P|323:117|302:88,1,62.5
255,361,611064,69,2,0:0:0:0:
