osu file format v14

[General]
AudioFilename: audio.mp3
AudioLeadIn: 0
PreviewTime: 55114
Countdown: 0
SampleSet: Normal
StackLeniency: 0.7
Mode: 1
LetterboxInBreaks: 0
WidescreenStoryboard: 1

[Editor]
DistanceSpacing: 0.8
BeatDivisor: 1
GridSize: 16
TimelineZoom: 1.2

[Metadata]
Title:Yggdrasil Leaf
TitleUnicode:Yggdrasil Leaf
Artist:Nardis
ArtistUnicode:Nardis
Creator:Yuzeyun
Version:Futsuu
Source:
Tags:DVSP-0184 Diverse System Call cut electronic dubstep techno trance njsrt instrumental
BeatmapID:2264122
BeatmapSetID:1082268

[Difficulty]
HPDrainRate:7.5
CircleSize:2
OverallDifficulty:4
ApproachRate:10
SliderMultiplier:1.4
SliderTickRate:1

[Events]
//Background and Video events
0,0,"yggdrasil.jpg",0,42
//Break Periods
//Storyboard Layer 0 (Background)
//Storyboard Layer 1 (Fail)
//Storyboard Layer 2 (Pass)
//Storyboard Layer 3 (Foreground)
//Storyboard Layer 4 (Overlay)
//Storyboard Sound Samples

[TimingPoints]
28,344.827586206897,4,1,0,85,1,0
55200,-100,4,1,0,90,0,0
77269,-100,4,1,0,95,0,1
99338,-100,4,1,0,85,0,0

[HitObjects]
256,192,11062,5,0,0:0:0:0:
256,192,11752,1,0,0:0:0:0:
256,192,12096,1,8,0:0:0:0:
256,192,12441,1,0,0:0:0:0:
256,192,12786,1,0,0:0:0:0:
256,192,13131,1,0,0:0:0:0:
256,192,13476,1,8,0:0:0:0:
256,192,13821,1,0,0:0:0:0:
256,192,14510,1,0,0:0:0:0:
256,192,14855,1,8,0:0:0:0:
256,192,15200,1,0,0:0:0:0:
256,192,15545,1,0,0:0:0:0:
256,192,15890,1,0,0:0:0:0:
256,192,16579,1,0,0:0:0:0:
256,192,17269,1,0,0:0:0:0:
256,192,17614,1,8,0:0:0:0:
256,192,17959,1,0,0:0:0:0:
256,192,18131,1,0,0:0:0:0:
256,192,18303,1,0,0:0:0:0:
256,192,18648,1,0,0:0:0:0:
256,192,18993,1,8,0:0:0:0:
256,192,19338,1,0,0:0:0:0:
256,192,20028,1,0,0:0:0:0:
256,192,20372,1,8,0:0:0:0:
256,192,20717,1,0,0:0:0:0:
256,192,20890,1,0,0:0:0:0:
256,192,21062,1,0,0:0:0:0:
256,192,21407,1,0,0:0:0:0:
256,192,21752,1,12,0:0:0:0:
256,192,22096,1,0,0:0:0:0:
256,192,22441,1,0,0:0:0:0:
256,192,22614,1,0,0:0:0:0:
256,192,22786,1,0,0:0:0:0:
256,192,23131,1,8,0:0:0:0:
256,192,23476,1,0,0:0:0:0:
256,192,23821,1,0,0:0:0:0:
256,192,23993,1,0,0:0:0:0:
256,192,24165,1,0,0:0:0:0:
256,192,24855,1,0,0:0:0:0:
256,192,25200,1,0,0:0:0:0:
256,192,25372,1,0,0:0:0:0:
256,192,25545,1,0,0:0:0:0:
256,192,25890,1,8,0:0:0:0:
256,192,26234,1,0,0:0:0:0:
256,192,26579,1,0,0:0:0:0:
256,192,26752,1,0,0:0:0:0:
256,192,26924,1,0,0:0:0:0:
256,192,27614,1,0,0:0:0:0:
256,192,27959,1,0,0:0:0:0:
256,192,28131,1,0,0:0:0:0:
256,192,28303,1,0,0:0:0:0:
256,192,28648,1,8,0:0:0:0:
256,192,28993,1,0,0:0:0:0:
256,192,29338,1,0,0:0:0:0:
256,192,29510,1,0,0:0:0:0:
256,192,29683,1,0,0:0:0:0:
256,192,30372,1,0,0:0:0:0:
256,192,30717,1,0,0:0:0:0:
256,192,30890,1,0,0:0:0:0:
256,192,31062,1,0,0:0:0:0:
256,192,31407,1,8,0:0:0:0:
256,192,31752,1,0,0:0:0:0:
256,192,32096,1,0,0:0:0:0:
256,192,32269,1,0,0:0:0:0:
256,192,32441,1,0,0:0:0:0:
256,192,32786,1,12,0:0:0:0:
256,192,33131,1,4,0:0:0:0:
256,192,34510,1,8,0:0:0:0:
256,192,35200,1,8,0:0:0:0:
256,192,35890,1,8,0:0:0:0:
256,192,37269,1,0,0:0:0:0:
256,192,37614,1,0,0:0:0:0:
256,192,37959,1,8,0:0:0:0:
256,192,38303,1,8,0:0:0:0:
256,192,38648,1,8,0:0:0:0:
256,192,40028,1,8,0:0:0:0:
256,192,40717,1,8,0:0:0:0:
256,192,41407,1,0,0:0:0:0:
256,192,42786,1,0,0:0:0:0:
256,192,43131,1,0,0:0:0:0:
256,192,43476,1,8,0:0:0:0:
256,192,43821,1,8,0:0:0:0:
256,192,44165,1,0,0:0:0:0:
256,192,45545,1,0,0:0:0:0:
256,192,46234,1,0,0:0:0:0:
256,192,46924,1,8,0:0:0:0:
256,192,48303,1,8,0:0:0:0:
256,192,48993,1,0,0:0:0:0:
256,192,49683,1,8,0:0:0:0:
256,192,51752,1,0,0:0:0:0:
256,192,52441,1,8,0:0:0:0:
256,192,53821,1,0,0:0:0:0:
256,192,54165,1,0,0:0:0:0:
256,192,54510,1,0,0:0:0:0:
256,192,55200,1,0,0:0:0:0:
256,192,55890,1,0,0:0:0:0:
256,192,56062,1,0,0:0:0:0:
256,192,56234,1,0,0:0:0:0:
256,192,56407,1,0,0:0:0:0:
256,192,56579,1,8,0:0:0:0:
256,192,57269,1,0,0:0:0:0:
256,192,57441,1,0,0:0:0:0:
256,192,57614,1,0,0:0:0:0:
256,192,57786,1,0,0:0:0:0:
256,192,57959,1,8,0:0:0:0:
256,192,58648,1,0,0:0:0:0:
256,192,58821,1,0,0:0:0:0:
256,192,58993,1,0,0:0:0:0:
256,192,59338,1,4,0:0:0:0:
256,192,59683,1,12,0:0:0:0:
256,192,60028,1,4,0:0:0:0:
256,192,60372,1,12,0:0:0:0:
256,192,60717,1,4,0:0:0:0:
256,192,61407,1,0,0:0:0:0:
256,192,61579,1,0,0:0:0:0:
256,192,61752,1,8,0:0:0:0:
256,192,61924,1,8,0:0:0:0:
256,192,62096,1,0,0:0:0:0:
256,192,62786,1,0,0:0:0:0:
256,192,62959,1,0,0:0:0:0:
256,192,63131,1,8,0:0:0:0:
256,192,63303,1,8,0:0:0:0:
256,192,63476,1,0,0:0:0:0:
256,192,63821,1,0,0:0:0:0:
256,192,63993,1,0,0:0:0:0:
256,192,64165,1,0,0:0:0:0:
256,192,64855,1,0,0:0:0:0:
256,192,65200,1,0,0:0:0:0:
256,192,65545,1,12,0:0:0:0:
256,192,65890,1,12,0:0:0:0:
256,192,66234,1,4,0:0:0:0:
256,192,66924,1,0,0:0:0:0:
256,192,67096,1,0,0:0:0:0:
256,192,67269,1,0,0:0:0:0:
256,192,67441,1,0,0:0:0:0:
256,192,67614,1,8,0:0:0:0:
256,192,68303,1,0,0:0:0:0:
256,192,68476,1,0,0:0:0:0:
256,192,68648,1,0,0:0:0:0:
256,192,68821,1,0,0:0:0:0:
256,192,68993,1,8,0:0:0:0:
256,192,69683,1,0,0:0:0:0:
256,192,69855,1,0,0:0:0:0:
256,192,70028,1,0,0:0:0:0:
256,192,70372,1,4,0:0:0:0:
256,192,70717,1,12,0:0:0:0:
256,192,71062,1,4,0:0:0:0:
256,192,71407,1,12,0:0:0:0:
256,192,71752,1,4,0:0:0:0:
256,192,72441,1,0,0:0:0:0:
256,192,72614,1,0,0:0:0:0:
256,192,72786,1,8,0:0:0:0:
256,192,72959,1,8,0:0:0:0:
256,192,73131,1,0,0:0:0:0:
256,192,73821,1,0,0:0:0:0:
256,192,73993,1,0,0:0:0:0:
256,192,74165,1,8,0:0:0:0:
256,192,74338,1,8,0:0:0:0:
256,192,74510,1,0,0:0:0:0:
256,192,74855,1,0,0:0:0:0:
256,192,75028,1,0,0:0:0:0:
256,192,75200,1,0,0:0:0:0:
256,192,75890,1,0,0:0:0:0:
256,192,76924,1,0,0:0:0:0:
256,192,77269,1,4,0:0:0:0:
256,192,77959,1,12,0:0:0:0:
256,192,78303,1,0,0:0:0:0:
256,192,78476,1,0,0:0:0:0:
256,192,78648,1,4,0:0:0:0:
256,192,78993,1,4,0:0:0:0:
256,192,79338,1,12,0:0:0:0:
256,192,80028,1,4,0:0:0:0:
256,192,80717,1,12,0:0:0:0:
256,192,81062,1,0,0:0:0:0:
256,192,81234,1,0,0:0:0:0:
256,192,81407,1,4,0:0:0:0:
256,192,81752,1,4,0:0:0:0:
256,192,82096,1,12,0:0:0:0:
256,192,82786,1,4,0:0:0:0:
256,192,83131,1,4,0:0:0:0:
256,192,83476,1,12,0:0:0:0:
256,192,83821,1,0,0:0:0:0:
256,192,83993,1,0,0:0:0:0:
256,192,84165,1,4,0:0:0:0:
256,192,84510,1,4,0:0:0:0:
256,192,84855,1,12,0:0:0:0:
256,192,85545,1,4,0:0:0:0:
256,192,86234,1,12,0:0:0:0:
256,192,86924,1,4,0:0:0:0:
256,192,87269,1,4,0:0:0:0:
256,192,87614,1,12,0:0:0:0:
256,192,88303,1,4,0:0:0:0:
256,192,88993,1,12,0:0:0:0:
256,192,89338,1,0,0:0:0:0:
256,192,89510,1,0,0:0:0:0:
256,192,89683,1,4,0:0:0:0:
256,192,90028,1,4,0:0:0:0:
256,192,90372,1,12,0:0:0:0:
256,192,91062,1,4,0:0:0:0:
256,192,91752,1,12,0:0:0:0:
256,192,92096,1,0,0:0:0:0:
256,192,92269,1,0,0:0:0:0:
256,192,92441,1,4,0:0:0:0:
256,192,92786,1,4,0:0:0:0:
256,192,93131,1,12,0:0:0:0:
256,192,93821,1,4,0:0:0:0:
256,192,94165,1,4,0:0:0:0:
256,192,94510,1,12,0:0:0:0:
256,192,94855,1,0,0:0:0:0:
256,192,95028,1,0,0:0:0:0:
256,192,95200,1,4,0:0:0:0:
256,192,95545,1,4,0:0:0:0:
256,192,95890,1,12,0:0:0:0:
256,192,96579,1,4,0:0:0:0:
256,192,97269,1,12,0:0:0:0:
256,192,97959,1,4,0:0:0:0:
256,192,98303,1,4,0:0:0:0:
256,192,98648,1,12,0:0:0:0:
256,192,99338,1,0,0:0:0:0:
256,192,100028,1,0,0:0:0:0:
256,192,100200,1,0,0:0:0:0:
256,192,100372,1,0,0:0:0:0:
256,192,100545,1,0,0:0:0:0:
256,192,100717,1,8,0:0:0:0:
256,192,101407,1,0,0:0:0:0:
256,192,101579,1,0,0:0:0:0:
256,192,101752,1,0,0:0:0:0:
256,192,101924,1,0,0:0:0:0:
256,192,102096,1,8,0:0:0:0:
256,192,102786,1,0,0:0:0:0:
256,192,102959,1,0,0:0:0:0:
256,192,103131,1,0,0:0:0:0:
256,192,103476,1,4,0:0:0:0:
256,192,103821,1,12,0:0:0:0:
256,192,104165,1,4,0:0:0:0:
256,192,104510,1,12,0:0:0:0:
256,192,104855,1,4,0:0:0:0:
256,192,105545,1,0,0:0:0:0:
256,192,105717,1,0,0:0:0:0:
256,192,105890,1,8,0:0:0:0:
256,192,106062,1,8,0:0:0:0:
256,192,106234,1,0,0:0:0:0:
256,192,106924,1,0,0:0:0:0:
256,192,107096,1,0,0:0:0:0:
256,192,107269,1,8,0:0:0:0:
256,192,107441,1,8,0:0:0:0:
256,192,107614,1,0,0:0:0:0:
256,192,107959,1,0,0:0:0:0:
256,192,108131,1,0,0:0:0:0:
256,192,108303,1,0,0:0:0:0:
256,192,108993,1,0,0:0:0:0:
256,192,109338,1,0,0:0:0:0:
256,192,109683,1,8,0:0:0:0:
256,192,110028,1,12,0:0:0:0:
256,192,110372,1,4,0:0:0:0:
256,192,111062,1,0,0:0:0:0:
256,192,111234,1,0,0:0:0:0:
256,192,111407,1,0,0:0:0:0:
256,192,111579,1,0,0:0:0:0:
256,192,111752,1,8,0:0:0:0:
256,192,112441,1,0,0:0:0:0:
256,192,112614,1,0,0:0:0:0:
256,192,112786,1,0,0:0:0:0:
256,192,112959,1,0,0:0:0:0:
256,192,113131,1,8,0:0:0:0:
256,192,113821,1,0,0:0:0:0:
256,192,113993,1,0,0:0:0:0:
256,192,114165,1,0,0:0:0:0:
256,192,114510,1,4,0:0:0:0:
256,192,114855,1,12,0:0:0:0:
256,192,115200,1,4,0:0:0:0:
256,192,115545,1,12,0:0:0:0:
256,192,115890,1,4,0:0:0:0:
256,192,116579,1,0,0:0:0:0:
256,192,116752,1,0,0:0:0:0:
256,192,116924,1,8,0:0:0:0:
256,192,117096,1,8,0:0:0:0:
256,192,117269,1,0,0:0:0:0:
256,192,117959,1,0,0:0:0:0:
256,192,118131,1,0,0:0:0:0:
256,192,118303,1,8,0:0:0:0:
256,192,118476,1,8,0:0:0:0:
256,192,118648,1,0,0:0:0:0:
256,192,118993,1,0,0:0:0:0:
256,192,119165,1,0,0:0:0:0:
256,192,119338,1,0,0:0:0:0:
256,192,120028,1,12,0:0:0:0:
256,192,120372,1,12,0:0:0:0:
256,192,120717,1,4,0:0:0:0:
256,192,121062,1,12,0:0:0:0:
256,192,121407,1,0,0:0:0:0:
