osu file format v14

[General]
AudioFilename: audio.ogg
AudioLeadIn: 0
PreviewTime: 49454
Countdown: 0
SampleSet: Soft
StackLeniency: 0.4
Mode: 0
LetterboxInBreaks: 0
WidescreenStoryboard: 1

[Editor]
Bookmarks: 8039,15063,22088,29112,36136,39649,43161,46673,50185,51063,52234,52819,54575,56332,58088,59844,61600,63356,64234,64966,65697,66722,67454,68478,69210,70234,78283,85161
DistanceSpacing: 1.2
BeatDivisor: 4
GridSize: 32
TimelineZoom: 2.799999

[Metadata]
Title:Spencer (Cut Ver.)
TitleUnicode:Spencer (Cut Ver.)
Artist:Nardis
ArtistUnicode:Nardis
Creator:Graphical
Version:Hard
Source:
Tags:diverse system celt challenge dvsp-1004 folk instrumental AuroraE -Nanako- nigel486 MyAngelHibikom
BeatmapID:4091095
BeatmapSetID:1971689

[Difficulty]
HPDrainRate:5
CircleSize:3.6
OverallDifficulty:7
ApproachRate:8
SliderMultiplier:1.4
SliderTickRate:1

[Events]
//Background and Video events
0,0,"BG1.jpg",0,0
//Break Periods
//Storyboard Layer 0 (Background)
//Storyboard Layer 1 (Fail)
//Storyboard Layer 2 (Pass)
//Storyboard Layer 3 (Foreground)
//Storyboard Layer 4 (Overlay)
//Storyboard Sound Samples

[TimingPoints]
1015,878.053063673481,2,2,1,70,1,0
7600,-33.3333333333333,6,2,1,50,0,0
22088,-33.3333333333333,6,2,1,60,0,0
50185,-27.7777777777778,6,2,1,70,0,0
59844,-33.3333333333333,6,2,1,70,0,0
62478,-30.3030303030303,6,2,1,70,0,0
64234,-30.3030303030303,6,2,1,70,0,0
78283,-33.3333333333333,6,2,1,40,0,0

[Colours]
Combo1 : 255,255,128
Combo2 : 133,213,0
Combo3 : 192,192,192
Combo4 : 255,128,255

[HitObjects]
90,225,7600,6,0,P|88:244|80:301,2,70,0|0|0,0:0|1:0|0:0,0:0:0:0:
146,162,8039,2,0,P|211:180|222:248,1,140,0|0,1:0|0:0,0:0:0:0:
285,300,8478,2,0,P|349:282|362:217,1,140,0|0,1:0|0:0,0:0:0:0:
422,158,8917,2,0,P|409:126|372:107,1,70,0|0,1:0|0:0,0:0:0:0:
338,34,9210,2,0,P|355:29|371:22,2,35,4|0|0,0:3|0:0|0:0,0:0:0:0:
248,176,9649,5,0,0:0:0:0:
248,176,9795,2,0,P|179:162|110:150,1,140,0|0,1:0|0:0,0:0:0:0:
26,144,10234,2,0,P|35:90|119:72,1,140,0|0,1:0|0:0,0:0:0:0:
193,75,10673,2,0,P|185:40|179:6,1,70,0|0,1:0|0:0,0:0:0:0:
263,1,10966,2,0,P|291:8|309:31,2,35,4|0|0,0:3|0:0|0:0,0:0:0:0:
212,161,11405,5,0,0:0:0:0:
212,161,11551,2,0,B|302:183|242:210|334:232,1,140,0|0,1:0|0:0,0:0:0:0:
411,213,11990,2,0,P|396:281|385:357,1,140,0|0,1:0|0:0,0:0:0:0:
302,366,12429,2,0,P|272:369|225:379,1,70,0|0,1:0|0:0,0:0:0:0:
172,317,12722,2,0,B|184:280,2,35,4|0|0,0:3|0:0|0:0,0:0:0:0:
9,359,13161,5,0,0:0:0:0:
9,359,13307,2,0,P|31:293|106:285,1,140,0|0,1:0|0:0,0:0:0:0:
160,228,13746,2,0,P|152:167|77:135,1,140,0|0,1:0|0:0,0:0:0:0:
3,119,14185,2,0,P|13:84|54:62,2,70,0|0|0,1:0|0:0|0:0,0:0:0:0:
6,203,14624,2,0,P|35:207|82:216,1,70,4|0,0:3|1:0,0:0:0:0:
222,301,15063,6,0,P|280:286|367:273,1,140,2|0,1:2|0:0,0:0:0:0:
386,194,15502,2,0,P|435:230|438:306,1,140,2|0,1:2|1:0,0:0:0:0:
360,336,15941,2,0,P|333:322|315:282,1,70,2|0,1:2|0:0,0:0:0:0:
305,203,16234,2,0,P|282:212|256:217,2,35,2|2|2,0:0|0:0|1:2,0:0:0:0:
449,108,16673,5,0,1:0:0:0:
449,108,16819,2,0,P|383:96|298:76,1,140,2|0,1:2|0:0,0:0:0:0:
267,7,17258,2,0,B|203:39|203:39|240:126,1,140,2|0,1:2|1:0,0:0:0:0:
183,172,17697,2,0,P|148:163|96:154,1,70,2|0,1:2|0:0,0:0:0:0:
57,94,17990,2,0,L|49:49,2,35,2|2|2,0:0|0:0|1:2,0:0:0:0:
133,243,18429,5,0,1:0:0:0:
133,243,18575,2,0,B|47:252|102:290|8:301,1,140,2|0,1:2|0:0,0:0:0:0:
5,216,19014,2,0,P|71:237|99:300,1,140,2|0,1:2|1:0,0:0:0:0:
148,366,19454,2,0,P|179:333|181:292,1,70,2|0,1:2|0:0,0:0:0:0:
246,255,19746,2,0,P|264:261|293:267,2,35,2|2|2,0:0|0:0|1:2,0:0:0:0:
379,357,20185,5,0,1:0:0:0:
379,357,20332,2,0,P|368:282|360:204,1,140,2|0,1:2|0:0,0:0:0:0:
296,163,20771,2,0,B|341:109|341:109|400:146,1,140,2|0,1:2|1:0,0:0:0:0:
484,148,21210,2,0,P|478:188|451:213,2,70,2|2|2,1:2|0:0|0:0,0:0:0:0:
510,67,21649,2,0,P|480:37|441:37,1,70,10|0,0:0|0:0,0:0:0:0:
400,146,21941,5,2,0:0:0:0:
400,146,22088,2,0,P|328:158|254:174,1,140,2|0,1:2|0:0,0:0:0:0:
192,124,22527,6,0,P|202:86|209:46,1,70,2|2,1:2|0:0,0:0:0:0:
271,2,22819,1,10,0:0:0:0:
207,55,22966,2,0,P|135:43|61:27,1,140,2|0,1:2|0:0,0:0:0:0:
15,93,23405,6,0,P|16:125|48:153,1,70,2|10,0:0|0:0,0:0:0:0:
125,149,23697,1,2,0:0:0:0:
41,150,23844,2,0,P|79:72|145:70,2,140,2|2|2,1:2|0:0|0:0,0:0:0:0:
11,228,24575,1,8,0:0:0:0:
11,228,24722,2,0,P|25:291|38:365,1,140,2|0,1:2|1:0,0:0:0:0:
205,351,25307,5,10,0:0:0:0:
205,351,25454,1,2,0:0:0:0:
205,351,25600,2,0,P|189:282|177:213,2,140,2|2|2,1:2|0:0|0:0,0:0:0:0:
287,367,26332,1,8,0:0:0:0:
287,367,26478,2,0,B|373:354|323:318|412:305,1,140,2|0,1:2|1:0,0:0:0:0:
469,149,27063,6,0,P|448:114|406:114,1,70,10|0,0:0|0:0,0:0:0:0:
346,148,27356,2,0,P|369:210|454:216,2,140,2|2|2,1:2|0:0|0:0,0:0:0:0:
289,93,28088,1,8,0:0:0:0:
289,93,28234,2,0,P|221:109|152:123,1,140,2|8,1:2|0:0,0:0:0:0:
152,123,28673,1,0,1:0:0:0:
68,115,28819,2,0,P|76:148|82:183,1,70,8|0,0:0|1:0,0:0:0:0:
154,226,29112,6,0,B|192:285|192:285|133:324,1,140,2|0,1:2|0:0,0:0:0:0:
58,287,29551,6,0,B|40:256|40:256|77:234,1,70,2|2,1:2|0:0,0:0:0:0:
154,226,29844,1,10,0:0:0:0:
213,167,29990,2,0,P|204:133|183:23,1,140,2|0,1:2|1:0,0:0:0:0:
264,4,30429,6,0,P|312:20|321:59,1,70,2|10,0:0|0:0,0:0:0:0:
317,118,30722,1,2,0:0:0:0:
319,34,30868,2,0,P|250:49|178:68,2,140,2|2|2,1:2|0:0|0:0,0:0:0:0:
398,61,31600,1,8,0:0:0:0:
398,61,31746,2,0,P|407:118|344:173,1,140,2|0,1:2|1:0,0:0:0:0:
428,322,32332,5,10,0:0:0:0:
428,322,32478,1,2,0:0:0:0:
428,322,32624,2,0,P|377:310|280:293,2,140,2|2|2,1:2|0:0|0:0,0:0:0:0:
442,238,33356,1,8,0:0:0:0:
442,238,33502,2,0,P|373:226|304:210,1,140,2|0,1:2|1:0,0:0:0:0:
138,238,34088,6,0,B|123:271|123:271|156:304,1,70,10|0,0:0|0:0,0:0:0:0:
217,249,34380,2,0,B|230:189|230:189|228:167|228:167|240:103,1,140,2|0,1:2|0:0,0:0:0:0:
238,111,34819,1,0,1:0:0:0:
156,130,34966,1,2,0:0:0:0:
118,54,35112,1,8,0:0:0:0:
183,1,35258,2,0,P|218:12|267:23,1,70,2|0,1:2|0:0,0:0:0:0:
314,74,35551,5,8,0:0:0:0:
389,36,35697,1,0,1:0:0:0:
314,74,35844,2,0,P|322:112|363:134,1,70,2|0,0:0|1:0,0:0:0:0:
475,111,36136,6,0,P|457:181|447:224,1,105,6|0,1:2|0:0,0:0:0:0:
441,254,36429,1,2,1:2:0:0:
206,338,36868,5,8,0:0:0:0:
206,338,37014,2,0,P|230:286|279:282,1,105,6|0,1:2|0:0,0:0:0:0:
306,306,37307,1,2,1:2:0:0:
82,189,37746,5,0,0:0:0:0:
113,267,37893,1,0,1:0:0:0:
164,201,38039,2,0,P|168:183|176:141,2,35
164,201,38332,1,0,1:0:0:0:
321,170,38624,5,0,1:0:0:0:
292,90,38771,1,0,1:0:0:0:
440,8,39063,5,2,1:2:0:0:
440,8,39210,1,2,0:0:0:0:
505,68,39356,1,10,0:0:0:0:
505,68,39502,1,2,1:2:0:0:
450,132,39649,6,0,P|411:124|337:113,1,105,6|0,1:2|0:0,0:0:0:0:
304,116,39941,1,2,1:2:0:0:
75,22,40380,5,10,0:0:0:0:
75,22,40527,2,0,P|83:61|101:162,1,140,6|0,1:2|1:0,0:0:0:0:
171,204,40966,2,0,P|179:243|197:344,1,140,6|0,0:0|0:0,0:0:0:0:
271,381,41405,5,0,1:0:0:0:
313,308,41551,2,0,P|303:286|283:277,2,35,0|0|0,0:0|0:0|3:0,0:0:0:0:
371,369,41844,1,0,3:0:0:0:
424,304,41990,2,0,P|460:312|504:320,1,70,0|0,0:0|3:0,0:0:0:0:
492,318,42283,1,0,3:0:0:0:
512,236,42429,2,0,P|477:228|443:221,1,70,0|0,0:0|1:0,0:0:0:0:
383,169,42722,1,0,0:0:0:0:
383,169,42868,1,0,0:0:0:0:
243,262,43161,6,0,P|187:219|202:166,1,105,6|0,1:2|0:0,0:0:0:0:
213,157,43454,1,2,1:2:0:0:
433,53,43893,5,8,0:0:0:0:
433,53,44039,2,0,P|383:62|361:108,1,105,6|0,1:2|0:0,0:0:0:0:
377,147,44331,1,2,1:2:0:0:
464,383,44771,5,0,0:0:0:0:
493,304,44917,2,0,P|485:264|478:213,2,70,2|2|2,1:2|0:0|0:0,0:0:0:0:
410,319,45356,2,0,P|404:284|397:250,1,70,2|2,1:2|0:0,0:0:0:0:
347,182,45649,1,0,1:0:0:0:
347,182,45795,2,0,B|264:190|315:226|208:234,1,140,2|2,1:2|1:2,0:0:0:0:
220,232,46234,1,2,0:0:0:0:
157,177,46380,2,0,P|169:127|175:94,1,70,10|2,0:0|1:2,0:0:0:0:
150,27,46673,6,0,P|197:18|245:74,1,105,6|0,1:2|0:0,0:0:0:0:
256,90,46966,1,2,1:2:0:0:
237,344,47405,5,10,0:0:0:0:
237,344,47551,2,0,P|173:344|134:283,1,140,6|0,1:2|1:0,0:0:0:0:
50,304,47990,2,0,P|50:240|111:201,1,140,6|0,0:0|0:0,0:0:0:0:
90,118,48429,2,0,P|154:118|193:179,1,140,6|0,1:2|0:0,0:0:0:0:
218,257,48868,2,0,P|274:221|276:154,1,140,6|0,1:2|0:0,0:0:0:0:
194,174,49307,1,0,1:0:0:0:
334,82,49600,6,2,P|387:95|425:102,1,70,2|0,0:0|0:0,0:1:0:0:
444,171,49893,2,2,P|478:178|512:187,1,70,10|0,0:0|1:0,0:1:0:0:
402,98,50185,6,2,B|367:95|348:120|348:120|370:259|370:259|354:229|310:227,1,251.999992309571,2|2,0:0|0:0,0:1:0:0:
235,197,50771,2,0,P|187:213|175:258,1,83.9999974365235,0|0,1:0|0:0,0:1:0:0:
115,322,51063,6,2,P|51:253|85:188,2,167.999994873047,10|2|2,0:2|0:0|1:2,0:1:0:0:
148,122,51941,2,2,P|134:73|128:33,1,83.9999974365235,2|0,1:2|0:0,0:1:0:0:
60,115,52234,2,2,P|24:151|-7:176,1,83.9999974365235,2|0,0:0|1:0,0:1:0:0:
96,199,52527,2,2,P|145:211|183:226,1,83.9999974365235,2|0,0:0|1:0,0:1:0:0:
264,270,52819,6,0,P|264:229|295:202,2,83.9999974365235,10|2|2,0:0|0:0|0:0,0:0:0:0:
264,270,53258,1,0,3:0:0:0:
364,279,53405,1,2,1:2:0:0:
419,196,53551,5,2,0:1:0:0:
419,196,53624,1,2,0:1:0:0:
419,196,53697,2,2,P|453:322|364:379,1,251.999992309571,2|2,1:2|0:0,0:1:0:0:
272,337,54283,2,2,P|221:326|182:319,1,83.9999974365235,2|0,1:2|0:0,0:1:0:0:
142,231,54575,6,2,B|40:247|98:296|-21:312,2,167.999994873047,10|2|2,0:2|0:2|0:0,0:1:0:0:
328,152,55454,2,2,P|368:126|277:127,1,251.999992309571,2|0,1:2|1:0,0:1:0:0:
246,205,56039,1,0,3:0:0:0:
424,334,56332,5,10,0:0:0:0:
424,334,56478,1,0,1:0:0:0:
385,241,56624,5,8,0:0:0:0:
385,241,56771,1,8,0:0:0:0:
305,300,56917,5,0,3:0:0:0:
305,300,57063,1,0,3:0:0:0:
205,282,57210,6,2,B|157:265|84:293|63:368|63:368|96:351|133:380,1,251.999992309571,2|0,1:2|1:0,0:1:0:0:
106,276,57795,2,2,P|95:231|88:180,1,83.9999974365235,2|0,0:0|1:0,0:1:0:0:
45,102,58088,2,2,P|121:96|188:171,2,167.999994873047,10|2|2,0:0|0:2|0:0,0:1:0:0:
226,14,58966,2,2,B|272:12|317:2|317:2|367:40|367:40|416:29|468:27,1,251.999992309571,2|2,1:2|0:0,0:1:0:0:
429,124,59551,1,2,1:0:0:0:
512,278,59844,6,2,P|439:284|369:296,2,140,10|2|2,0:0|0:0|1:2,0:1:0:0:
355,199,60722,2,2,B|234:227|322:273|177:311,1,210,2|2,1:2|0:0,0:1:0:0:
121,253,61307,2,0,P|130:203|133:155,1,70,0|0,1:0|0:0,0:0:0:0:
76,120,61600,2,2,P|84:56|150:106,1,175,10|0,0:0|0:0,0:1:0:0:
152,100,62039,5,2,1:2:0:0:
224,142,62185,1,0,1:0:0:0:
284,83,62332,1,0,1:0:0:0:
366,123,62478,6,2,B|353:194|334:148|321:231,1,115.50000352478,2|0,1:2|0:0,0:1:0:0:
293,264,62771,2,0,P|331:257|369:251,1,77.0000023498536,8|0,0:0|0:0,0:0:0:0:
436,189,63063,2,0,P|474:195|512:201,1,77.0000023498536,8|0,0:0|0:0,0:0:0:0:
491,110,63356,6,0,P|472:77|436:67,1,77.0000023498536,10|0,0:0|0:0,0:0:0:0:
357,114,63649,1,8,0:0:0:0:
357,114,63795,1,0,1:0:0:0:
294,54,63941,1,0,1:0:0:0:
294,54,64088,1,0,1:0:0:0:
235,124,64234,6,0,B|135:137|198:164|90:178,1,154.000004699707,6|0,1:2|0:0,0:0:0:0:
21,119,64673,5,2,1:2:0:0:
70,41,64819,1,2,0:0:0:0:
21,119,64966,1,10,0:0:0:0:
93,177,65112,2,0,B|198:164|135:137|235:124,1,154.000004699707,2|0,1:2|1:0,0:0:0:0:
304,192,65551,5,2,0:0:0:0:
255,270,65697,1,10,0:0:0:0:
304,192,65844,1,2,0:0:0:0:
234,124,65990,2,0,P|178:76|216:-18,2,154.000004699707,2|2|2,1:2|0:0|0:0,0:0:0:0:
304,192,66722,1,8,0:0:0:0:
304,192,66868,2,0,P|360:240|322:334,1,154.000004699707,2|2,1:2|1:2,0:0:0:0:
348,312,67307,1,2,0:0:0:0:
419,371,67454,6,0,P|457:352|467:307,1,77.0000023498536,10|2,0:0|0:0,0:0:0:0:
417,244,67746,2,0,B|330:227|360:292|254:272,2,154.000004699707,2|2|2,1:2|0:0|0:0,0:0:0:0:
478,168,68478,1,8,0:0:0:0:
479,166,68624,2,0,P|466:89|457:13,1,154.000004699707,2|2,1:2|1:2,0:0:0:0:
457,13,69063,1,0,0:0:0:0:
384,71,69210,6,0,P|338:51|327:13,1,77.0000023498536,10|0,0:0|0:0,0:0:0:0:
239,1,69502,2,0,P|192:18|186:120,2,154.000004699707,2|2|2,1:2|0:0|0:0,0:0:0:0:
269,88,70234,1,8,0:0:0:0:
269,88,70380,6,0,P|306:95|344:104,1,77.0000023498536,2|2,1:2|0:0,0:0:0:0:
397,180,70673,1,2,0:0:0:0:
397,180,70819,1,10,0:0:0:0:
344,256,70966,1,2,0:0:0:0:
344,256,71112,1,8,0:0:0:0:
258,222,71258,6,0,P|193:242|195:342,1,154.000004699707,2|0,1:2|0:0,0:0:0:0:
97,362,71697,5,2,1:2:0:0:
21,308,71844,1,2,0:0:0:0:
97,362,71990,1,10,0:0:0:0:
179,319,72136,2,0,P|165:241|147:160,1,154.000004699707,2|2,1:2|1:2,0:0:0:0:
212,100,72575,5,2,0:0:0:0:
298,133,72722,1,10,0:0:0:0:
212,100,72868,1,2,0:0:0:0:
148,168,73014,2,0,P|83:148|85:48,2,154.000004699707,2|2|2,1:2|0:0|0:0,0:0:0:0:
237,192,73746,1,10,0:0:0:0:
237,192,73893,2,0,B|281:255|281:255|211:304,1,154.000004699707,2|2,1:2|1:2,0:0:0:0:
217,299,74332,1,2,0:0:0:0:
134,338,74478,6,0,P|96:328|58:322,1,77.0000023498536,10|2,0:0|0:0,0:0:0:0:
22,237,74771,2,0,P|34:189|54:82,2,154.000004699707,2|2|2,1:2|0:0|0:0,0:0:0:0:
113,225,75502,1,8,0:0:0:0:
113,225,75649,2,0,B|208:212|161:175|270:161,1,154.000004699707,2|2,1:2|1:2,0:0:0:0:
401,272,76234,6,0,P|406:310|416:347,1,77.0000023498536,10|0,0:0|0:0,0:0:0:0:
508,349,76527,2,0,P|494:273|476:198,1,154.000004699707,2|2,1:2|0:0,0:0:0:0:
476,198,76966,1,0,1:0:0:0:
398,148,77112,1,2,0:0:0:0:
430,61,77258,1,8,0:0:0:0:
398,148,77405,2,0,P|358:141|307:133,1,77.0000023498536,0|0,1:0|0:0,0:0:0:0:
259,67,77697,5,8,0:0:0:0:
259,67,77844,1,0,1:0:0:0:
183,117,77990,1,8,0:0:0:0:
183,117,78136,1,0,0:0:0:0:
108,76,78283,6,0,P|99:26|93:-5,1,70,2|0,1:2|1:0,0:0:0:0:
12,22,78575,2,0,P|21:72|27:103,1,70,0|0,1:0|1:0,0:0:0:0:
82,152,78868,6,0,P|75:186|69:220,1,70,2|0,0:0|1:0,0:0:0:0:
13,283,79161,2,0,P|6:317|0:351,1,70,2|0,1:2|1:0,0:0:0:0:
87,344,79454,5,2,0:0:0:0:
87,344,79600,2,0,P|122:350|144:386,1,70,2|0,0:0|1:0,0:0:0:0:
226,376,79893,2,0,P|261:370|283:334,1,70,2|0,0:0|1:0,0:0:0:0:
244,268,80185,6,0,L|234:221,2,35
328,266,80478,6,0,L|309:168,2,70,2|0|2,1:2|1:0|0:0,0:0:0:0:
389,324,80917,2,0,B|421:303|421:303|405:256,1,70,2|0,1:2|0:0,0:0:0:0:
406,188,81210,5,2,0:0:0:0:
406,188,81356,2,0,P|447:188|476:215,1,70,2|0,1:2|1:0,0:0:0:0:
491,123,81649,2,0,P|462:104|427:106,1,70,2|0,0:0|1:0,0:0:0:0:
353,68,81941,6,0,P|363:23|369:-17,2,70,0|0|0,1:0|1:0|1:0,0:0:0:0:
286,119,82380,6,0,P|276:164|270:204,1,70,2|0,0:0|1:0,0:0:0:0:
189,168,82673,2,0,P|199:123|205:83,1,70,2|0,1:2|1:0,0:0:0:0:
160,31,82966,5,2,0:0:0:0:
160,31,83112,2,0,P|111:45|102:77,1,70,2|0,0:0|1:0,0:0:0:0:
20,72,83405,2,0,P|21:106|47:128,1,70,2|0,0:0|1:0,0:0:0:0:
117,174,83697,6,0,P|128:152|131:133,2,35
68,242,83990,6,0,P|24:249|-25:258,2,70,2|0|2,1:2|1:0|0:0,0:0:0:0:
117,174,84429,2,0,P|151:180|186:185,1,70,2|0,1:2|0:0,0:0:0:0:
246,244,84722,2,0,P|280:249|315:255,1,70,0|0,1:0|1:0,0:0:0:0:
385,210,85014,5,2,1:2:0:0:
341,137,85161,5,6,0:0:0:0:
