osu file format v14

[General]
AudioFilename: audio.mp3
AudioLeadIn: 0
PreviewTime: 160754
Countdown: 0
SampleSet: Soft
StackLeniency: 0.2
Mode: 0
LetterboxInBreaks: 0
WidescreenStoryboard: 1

[Editor]
Bookmarks: 15754,26832,45496,51013,60840,62047,73082,84116,95151,106185,112047,115495,117220,128297,137392,139289,159461,161358,172392,183427,194461,205236,205496,216530,226185
DistanceSpacing: 0.2
BeatDivisor: 4
GridSize: 16
TimelineZoom: 4.799996

[Metadata]
Title:LOSTAIR
TitleUnicode:LOSTAIR
Artist:Nardis
ArtistUnicode:Nardis
Creator:zev
Version:INSANE
Source:
Tags:BMS groundbreaking piano bofu 2016 DnB drum and bass wub Zetera
BeatmapID:1603722
BeatmapSetID:555408

[Difficulty]
HPDrainRate:6.5
CircleSize:3.9
OverallDifficulty:7.3
ApproachRate:8.9
SliderMultiplier:1.3
SliderTickRate:1

[Events]
//Background and Video events
0,0,"wallup-20398 (1).jpg",0,0
//Break Periods
2,73282,83501
2,205695,215915
//Storyboard Layer 0 (Background)
//Storyboard Layer 1 (Fail)
//Storyboard Layer 2 (Pass)
//Storyboard Layer 3 (Foreground)
//Storyboard Layer 4 (Overlay)
//Storyboard Sound Samples

[TimingPoints]
1013,344.827586206897,4,2,99,15,1,0
1013,-200,4,2,99,15,0,0
1358,344.827586206897,4,2,99,15,1,0
1358,-200,4,2,99,15,0,0
23426,-222.222222222221,4,2,42,50,0,0
38426,-222.222222222222,4,2,42,50,0,0
39978,-181.818181818182,4,2,42,50,0,0
45495,-100,4,2,42,50,0,0
50668,-363.636363636364,4,2,42,50,0,0
51013,-76.9230769230769,4,2,42,50,0,0
61702,-133.333333333333,4,2,42,50,0,0
62564,-76.9230769230769,4,2,42,50,0,0
70323,-66.6666666666667,4,2,42,50,0,0
71358,-66.6666666666667,4,2,42,65,0,0
72737,-133.333333333333,4,2,42,50,0,0
73082,-76.9230769230769,4,2,42,50,0,0
83771,-111.111111111111,4,2,42,79,0,0
93082,-100,4,2,42,79,0,0
93426,-95.2380952380952,4,2,42,79,0,0
93771,-90.9090909090909,4,2,42,79,0,0
94116,-86.9565217391304,4,2,42,79,0,0
94461,-83.3333333333333,4,2,42,79,0,0
94806,-80,4,2,42,79,0,0
95151,-66.6666666666667,4,3,42,95,0,0
95668,-106.382978723404,4,2,42,79,0,0
96185,-106.382978723404,4,2,42,79,0,0
96358,-106.382978723404,4,2,42,79,0,0
97909,-66.6666666666667,4,2,42,79,0,1
98254,-57.1428571428571,4,2,42,79,0,0
98340,-106.382978723404,4,2,42,79,0,0
98599,-106.382978723404,4,2,43,79,0,0
98685,-106.382978723404,4,2,42,79,0,0
99461,-26.3157894736842,4,2,42,100,0,0
99633,-66.6666666666667,4,2,42,79,0,1
101013,-57.1428571428571,4,2,42,79,0,0
101185,-106.382978723404,4,2,42,100,0,0
103771,-58.8235294117647,4,2,42,79,0,1
106185,-66.6666666666667,4,3,42,95,0,0
106702,-106.382978723404,4,2,42,79,0,0
107219,-106.382978723404,4,2,42,79,0,0
107392,-106.382978723404,4,2,42,79,0,0
108943,-66.6666666666667,4,2,42,79,0,1
109288,-57.1428571428571,4,2,42,79,0,0
109374,-106.382978723404,4,2,42,79,0,0
109633,-106.382978723404,4,2,43,79,0,0
109719,-106.382978723404,4,2,42,79,0,0
110495,-26.3157894736842,4,2,42,100,0,0
110667,-66.6666666666667,4,2,42,79,0,1
112047,-57.1428571428571,4,2,42,79,0,0
112219,-106.382978723404,4,2,42,100,0,0
114805,-58.8235294117647,4,2,42,79,0,1
116875,-100,4,2,0,79,0,1
117220,-66.6666666666667,4,3,42,95,0,0
117737,-106.382978723404,4,2,42,79,0,0
118254,-106.382978723404,4,2,42,79,0,0
118427,-106.382978723404,4,2,42,79,0,0
119978,-66.6666666666667,4,2,42,79,0,1
120323,-57.1428571428571,4,2,42,79,0,0
120409,-106.382978723404,4,2,42,79,0,0
120668,-106.382978723404,4,2,43,79,0,0
120754,-106.382978723404,4,2,42,79,0,0
121530,-26.3157894736842,4,2,42,100,0,0
121702,-66.6666666666667,4,2,42,79,0,1
123082,-57.1428571428571,4,2,42,79,0,0
123254,-106.382978723404,4,2,42,100,0,0
125840,-58.8235294117647,4,2,42,79,0,1
128254,-66.6666666666667,4,3,42,95,0,0
128771,-106.382978723404,4,2,42,79,0,0
129288,-106.382978723404,4,2,42,79,0,0
129461,-106.382978723404,4,2,42,79,0,0
131012,-66.6666666666667,4,2,42,79,0,1
131357,-57.1428571428571,4,2,42,79,0,0
131443,-106.382978723404,4,2,42,79,0,0
131702,-106.382978723404,4,2,43,79,0,0
131788,-106.382978723404,4,2,42,79,0,0
132564,-26.3157894736842,4,2,42,100,0,0
132736,-66.6666666666667,4,2,42,79,0,1
134116,-57.1428571428571,4,2,42,79,0,0
134288,-106.382978723404,4,2,42,100,0,0
136874,-58.8235294117647,4,2,42,79,0,1
138944,-100,4,2,0,79,0,1
139461,-222.222222222221,4,2,42,50,0,0
154288,-222.222222222222,4,2,42,50,0,0
155840,-111.111111111111,4,2,42,50,0,0
161358,-100,4,2,42,60,0,0
161702,-83.3333333333333,4,2,42,60,0,0
172392,-50,4,2,42,60,0,0
172737,-83.3333333333333,4,2,42,60,0,0
173426,-50,4,2,42,60,0,0
173771,-83.3333333333333,4,2,42,60,0,0
174806,-125,4,2,42,60,0,0
175151,-50,4,2,42,60,0,0
175495,-83.3333333333333,4,2,42,60,0,0
176185,-50,4,2,42,60,0,0
176530,-83.3333333333333,4,2,42,60,0,0
178253,-100,4,2,42,60,0,0
183426,-80,4,1,0,100,0,1
183771,-100,4,2,42,77,0,1
186185,-133.333333333333,4,1,0,100,0,1
186529,-100,4,2,42,77,0,1
188944,-133.333333333333,4,1,0,100,0,1
189288,-100,4,2,42,77,0,1
190150,-133.333333333333,4,2,42,77,0,1
190883,-100,4,2,42,77,0,1
191701,-133.333333333333,4,1,0,100,0,1
192046,-100,4,2,42,77,0,1
192909,-200,4,2,42,77,0,1
193599,-133.333333333333,4,2,42,77,0,1
194459,-100,4,1,0,100,0,1
194805,-200,4,2,42,77,0,1
197219,-133.333333333333,4,1,0,100,0,1
197564,-100,4,2,42,77,0,1
199806,-100,4,1,0,100,0,1
201530,-100,4,2,42,77,0,1
201875,-100,4,1,0,100,0,1
202220,-100,4,1,42,100,0,1
202736,-100,4,1,0,100,0,1
203599,-83.3333333333333,4,1,42,100,0,1
205495,-200,4,1,0,100,0,0
205582,-200,4,1,0,5,0,0
216529,-403.030303030303,4,2,0,66,0,0
227349,-500,4,2,99,40,0,1
227370,-500,4,2,99,55,0,1
227392,-500,4,2,99,5,0,1
227564,-500,4,2,99,77,0,0

[Colours]
Combo1 : 33,95,197
Combo2 : 113,210,232
Combo3 : 36,223,196
Combo4 : 220,141,231
Combo5 : 142,211,215
Combo6 : 227,203,117
Combo7 : 94,187,168
Combo8 : 255,40,40

[HitObjects]
171,330,1013,70,0,L|166:314,5,10.8333333333333
63,357,1357,6,2,B|103:295|48:228|48:228|-30:138|65:45|116:81|70:120,1,357.5,8|0,0:0|0:0,0:1:0:0:
177,33,3426,102,0,L|200:14,3,16.25,8|0|0|0,0:0|0:0|0:0|0:0,0:0:0:0:
233,146,3771,2,0,L|257:151,3,16.25,8|0|0|0,0:0|0:0|0:0|0:0,0:0:0:0:
287,65,4116,6,2,B|337:86|464:4|464:4|373:121|452:152|453:115,1,357.5,8|0,0:0|0:0,0:1:0:0:
512,218,6185,102,0,L|489:199,3,16.25,8|0|0|0,0:0|0:0|0:0|0:0,0:0:0:0:
426,327,6530,2,0,L|420:305,3,16.25,8|0|0|0,0:0|0:0|0:0|0:0,0:0:0:0:
326,307,6875,6,2,B|313:289|287:242|180:273|201:379|267:389|267:389|253:346|179:340,1,325,8|0,0:0|0:0,0:1:0:0:
94,367,8771,102,0,L|71:386,3,16.25,8|0|0|0,0:0|0:0|0:0|0:0,0:0:0:0:
118,247,9116,102,0,L|97:233,5,16.25,8|0|0|0|0|0,0:0|0:0|0:0|0:0|0:0|0:0,0:0:0:0:
31,164,9633,5,8,0:0:0:0:
35,161,9720,1,0,0:0:0:0:
39,158,9806,1,0,0:0:0:0:
43,155,9892,1,0,0:0:0:0:
47,152,9978,1,0,0:0:0:0:
51,149,10064,1,0,0:0:0:0:
55,146,10151,6,2,B|77:101|150:44|326:103|205:127,1,260,8|8,0:0|0:0,0:1:0:0:
207,126,12047,70,0,L|211:120,6,8.125
306,168,12392,38,2,B|185:247|430:260|570:128|438:129,1,341.25,8|0,0:0|0:0,0:1:0:0:
500,275,14289,102,0,L|523:294,5,16.25,8|0|0|0|0|0,0:0|0:0|0:0|0:0|0:0|0:0,0:0:0:0:
443,362,14806,102,0,L|440:379,3,16.25,8|0|0|0,0:0|0:0|0:0|0:0,0:0:0:0:
337,357,15151,22,2,B|393:398|230:432|167:261|281:268|276:291,2,227.5,8|8|0,0:0|0:0|0:1,0:1:0:0:
144,276,17909,2,2,B|93:233|30:256|-36:312,1,195,8|0,0:0|0:0,0:1:0:0:
70,349,19116,2,2,P|69:263|53:240,1,97.5,8|0,0:0|0:0,0:1:0:0:
0,169,19806,2,2,P|1:83|17:60,1,97.5,8|8,0:0|0:0,0:1:0:0:
123,12,20668,2,2,P|130:50|149:72,1,65,8|0,0:0|0:0,0:1:0:0:
216,81,21185,2,2,P|242:64|253:1,1,97.5,8|0,0:0|0:0,0:1:0:0:
470,136,22047,2,2,P|432:129|410:110,1,65,8|0,0:0|0:0,0:1:0:0:
401,43,22564,2,2,P|418:17|481:6,1,97.5,8|0,0:0|0:0,0:1:0:0:
512,141,23426,101,8,1:0:0:0:
512,141,23599,2,2,L|505:173,2,29.2499991073609
396,212,24116,1,0,0:0:0:0:
396,212,24289,2,2,L|403:244,2,29.2499991073609
305,316,24806,1,0,0:0:0:0:
305,316,24978,2,0,L|328:333,1,29.2499991073609,10|10,0:0|0:0,0:0:0:0:
208,384,25323,69,2,0:0:0:0:
197,381,25409,1,2,0:0:0:0:
186,378,25495,2,0,L|183:361,3,14.6249995536804,2|2|2|2,0:0|0:0|0:0|0:0,0:0:0:0:
60,352,25840,2,0,L|75:330,3,14.6249995536804,2|2|2|2,0:0|0:0|0:0|0:0,0:0:0:0:
0,243,26185,101,8,0:0:0:0:
0,243,26358,2,2,L|7:211,2,29.2499991073609
116,172,26875,1,0,0:0:0:0:
116,172,27047,2,2,L|109:140,2,29.2499991073609
24,62,27564,1,0,0:0:0:0:
24,62,27737,1,10,0:0:0:0:
24,62,27909,1,10,0:0:0:0:
160,25,28082,5,2,0:0:0:0:
171,22,28168,1,2,0:0:0:0:
182,19,28254,2,0,L|184:2,3,14.6249995536804,2|2|2|2,0:0|0:0|0:0|0:0,0:0:0:0:
285,78,28599,2,0,L|302:67,3,14.6249995536804,2|2|2|2,0:0|0:0|0:0|0:0,0:0:0:0:
409,113,28944,101,8,0:0:0:0:
409,113,29116,2,2,L|402:145,2,29.2499991073609
292,188,29633,1,0,0:0:0:0:
292,188,29806,2,2,L|299:220,2,29.2499991073609
176,148,30323,1,0,0:0:0:0:
176,148,30495,2,0,L|155:179,1,29.2499991073609,10|10,0:0|0:0,0:0:0:0:
56,51,30840,5,2,0:0:0:0:
59,62,30926,1,2,0:0:0:0:
62,73,31013,2,0,L|78:75,3,14.6249995536804,2|2|2|2,0:0|0:0|0:0|0:0,0:0:0:0:
8,170,31358,2,0,L|0:182,3,14.6249995536804,2|2|2|2,0:0|0:0|0:0|0:0,0:0:0:0:
47,288,31702,1,2,0:0:0:0:
58,285,31789,1,2,0:0:0:0:
69,282,31875,1,2,0:0:0:0:
80,279,31961,1,2,0:0:0:0:
91,276,32047,2,0,L|93:259,2,14.6249995536804,2|2|0,0:0|0:0|0:0,0:0:0:0:
167,368,32392,37,0,0:0:0:0:
167,368,32564,2,0,L|187:338,1,29.2499991073609
288,334,32909,2,0,L|352:343,1,58.4999982147217,8|0,0:0|0:0,0:0:0:0:
449,253,33426,1,0,0:0:0:0:
449,253,33599,2,0,L|385:244,1,58.4999982147217,8|0,0:0|0:0,0:0:0:0:
284,210,34116,70,0,L|287:193,4,9.74999970245362,2|2|2|2|2,0:0|0:0|0:0|0:0|0:0,0:0:0:0:
177,277,34461,101,10,0:0:0:0:
177,277,34633,2,0,L|171:244,2,29.2499991073609,2|2|2,0:0|0:0|0:0,0:0:0:0:
87,168,35151,1,0,0:0:0:0:
87,168,35323,2,0,L|68:195,2,29.2499991073609,2|2|2,0:0|0:0|0:0,0:0:0:0:
21,48,35840,1,0,0:0:0:0:
21,48,36013,2,0,L|23:84,1,29.2499991073609,2|2,0:0|0:0,0:0:0:0:
131,28,36358,5,2,0:0:0:0:
142,25,36444,1,2,0:0:0:0:
153,22,36530,2,0,L|155:6,3,14.6249995536804,2|2|2|2,0:0|0:0|0:0|0:0,0:0:0:0:
245,68,36875,2,0,L|257:76,3,14.6249995536804,2|2|2|0,0:0|0:0|0:0|0:0,0:0:0:0:
360,18,37220,38,0,L|367:53,2,29.2499991073609
512,120,37737,2,0,L|449:104,1,58.4999982147217,2|0,0:0|0:0,0:0:0:0:
362,146,38254,1,2,0:0:0:0:
401,240,38426,2,0,L|500:227,1,87.7499973220826,10|0,0:0|0:0,0:0:0:0:
512,356,39116,2,0,L|443:342,1,58.4999982147217,8|0,0:0|0:0,0:0:0:0:
351,369,39633,1,2,0:0:0:0:
351,369,39806,1,2,0:0:0:0:
351,369,39978,6,2,B|242:352|264:208|381:264|352:295,1,214.500006546021,0|2,0:0|0:0,0:1:0:0:
204,158,41185,1,2,0:0:0:0:
214,163,41271,1,2,0:0:0:0:
224,168,41358,2,2,L|180:272,1,107.25000327301,10|10,0:0|0:0,0:1:0:0:
3,352,42392,2,2,L|22:394,1,35.7500010910034,10|8,0:0|0:0,0:1:0:0:
136,384,42737,2,2,L|103:309,1,71.5000021820069,2|0,0:0|0:0,0:1:0:0:
80,239,43254,2,2,P|110:201|219:193,1,160.875004909516,0|0,0:0|0:0,0:1:0:0:
272,297,44116,2,2,P|249:287|269:255,1,71.5000021820069,2|0,0:0|0:0,0:1:0:0:
215,191,44633,2,2,P|245:153|354:145,1,160.875004909516,0|0,0:0|0:0,0:1:0:0:
425,176,45495,38,2,B|505:142,29,65,8|0|0|0|0|0|0|0|0|0|0|0|0|0|0|0|0|0|0|0|0|0|0|0|0|0|0|0|0|0,1:2|0:0|0:0|0:0|0:0|0:0|0:0|0:0|0:0|0:0|0:0|0:0|0:0|0:0|0:0|0:0|0:0|0:0|0:0|0:0|0:0|0:0|0:0|0:0|0:0|0:0|0:0|0:0|0:0|1:0,0:1:0:0:
484,150,50668,1,8,1:0:0:0:
298,157,51013,38,0,L|280:245,1,84.4999961318971,8|0,3:0|0:0,0:0:0:0:
202,267,51358,1,8,1:0:0:0:
45,323,51530,2,0,P|85:300|130:293,1,84.4999961318971,10|8,0:0|1:0,0:0:0:0:
344,294,52047,5,10,3:0:0:0:
424,267,52220,2,0,P|436:222|464:186,1,84.4999961318971,10|8,0:0|1:0,0:0:0:0:
346,81,52737,101,10,3:0:0:0:
266,54,52909,101,10,0:0:0:0:
282,136,53082,1,10,0:2:0:0:
202,108,53254,1,10,0:2:0:0:
217,191,53426,2,0,P|165:192|123:172,1,84.4999961318971,10|2,0:0|0:0,3:0:0:0:
7,290,53771,22,0,L|74:230,1,84.4999961318971,8|0,1:0|0:0,0:0:0:0:
40,69,54116,101,10,3:0:0:0:
56,152,54289,1,8,1:0:0:0:
266,54,54633,6,0,L|351:25,1,84.4999961318971,10|10,1:2|3:0,0:0:0:0:
457,165,54978,2,0,L|371:193,1,84.4999961318971,14|2,1:2|0:0,0:0:0:0:
296,163,55323,5,8,1:0:0:0:
232,218,55495,1,10,3:0:0:0:
390,270,55668,86,0,B|365:268|365:268|304:241,1,84.4999961318971,8|0,1:0|3:0,0:0:0:0:
168,273,56013,21,8,1:0:0:0:
104,328,56185,1,10,3:0:0:0:
40,383,56358,1,2,3:2:0:0:
8,219,56530,86,0,B|33:221|33:221|93:247,1,84.4999961318971,12|0,1:2|3:0,0:0:0:0:
104,328,56875,5,2,1:3:0:0:
152,190,57047,2,0,P|140:145|112:109,1,84.4999961318971,10|0,0:0|0:0,0:0:0:0:
102,30,57392,85,10,0:2:0:0:
182,59,57564,1,10,0:2:0:0:
262,88,57737,1,10,0:2:0:0:
422,146,58082,1,10,0:2:0:0:
418,254,58254,6,0,L|350:194,1,84.4999961318971,10|10,1:2|3:0,0:0:0:0:
237,312,58771,5,8,1:0:0:0:
173,368,58944,2,0,P|128:355|82:362,1,84.4999961318971,2|0,3:0|2:0,0:0:0:0:
32,192,59289,6,0,P|21:147|45:103,1,84.4999961318971,12|2,1:2|0:0,0:0:0:0:
160,229,59633,2,0,P|147:180|182:158,1,84.4999961318971,2|2,0:0|0:0,0:0:0:0:
288,266,59978,2,0,P|277:221|307:212,1,84.4999961318971,2|2,0:0|0:0,0:0:0:0:
416,303,60323,2,0,P|412:267|445:280,1,84.4999961318971,2|2,0:0|0:0,0:0:0:0:
512,371,60668,85,4,0:1:0:0:
432,343,60840,37,8,1:0:0:0:
402,177,61013,1,10,3:0:0:0:
352,315,61185,1,8,1:0:0:0:
322,149,61358,1,10,3:0:0:0:
272,287,61530,1,8,1:0:0:0:
242,121,61702,1,10,3:0:0:0:
192,259,62047,5,14,1:2:0:0:
144,16,62392,53,8,1:0:0:0:
4,98,62564,2,0,P|44:75|89:68,1,84.4999961318971,10|0,1:2|2:0,0:0:0:0:
208,70,62909,1,8,1:0:0:0:
272,124,63082,1,10,3:0:0:0:
413,207,63254,2,0,P|373:184|328:177,1,84.4999961318971,10|0,1:2|2:0,0:0:0:0:
398,289,63599,1,8,1:0:0:0:
283,357,63771,5,10,3:0:0:0:
203,384,63944,85,10,0:0:0:0:
219,302,64116,1,10,0:2:0:0:
139,330,64289,1,10,0:2:0:0:
154,247,64461,2,0,P|102:246|60:266,1,84.4999961318971,10|2,0:0|0:0,0:0:0:0:
174,1,64806,22,0,L|155:89,1,84.4999961318971,8|0,1:0|0:0,0:0:0:0:
0,140,65151,101,10,3:0:0:0:
78,112,65323,1,8,1:0:0:0:
283,357,65668,6,0,L|198:328,1,84.4999961318971,10|10,1:2|3:0,0:0:0:0:
443,284,66013,2,0,L|529:312,1,84.4999961318971,12|2,1:2|0:0,0:0:0:0:
339,53,66358,37,8,1:0:0:0:
339,53,66530,1,10,3:0:0:0:
181,107,66702,54,0,B|133:72|133:72|119:52,1,84.4999961318971,8|0,1:0|3:0,0:0:0:0:
306,219,67047,53,8,1:0:0:0:
306,219,67220,1,10,3:0:0:0:
450,327,67564,54,0,B|497:363|497:363|512:384,1,84.4999961318971,12|0,1:2|3:0,1:0:0:0:
211,329,67909,5,10,1:3:0:0:
306,219,68082,2,0,P|349:206|394:213,1,68.9000001051331,10|0,1:2|0:0,0:0:0:0:
410,30,68426,85,10,0:2:0:0:
330,59,68599,1,10,0:2:0:0:
250,88,68771,6,0,B|226:91|226:91|172:77,1,68.9000001051331,14|0,1:2|0:0,0:0:0:0:
6,103,69116,101,10,0:2:0:0:
71,157,69289,1,10,0:2:0:0:
136,212,69461,6,0,B|150:231|150:231|165:285,1,68.9000001051331,14|0,1:2|0:0,0:0:0:0:
330,384,69806,5,8,1:0:0:0:
357,303,69978,2,0,P|402:291|438:262,1,84.4999961318971,2|0,3:0|2:0,0:0:0:0:
512,88,70323,6,0,P|523:133|497:184,1,97.50000371933,6|2,1:2|0:0,0:0:0:0:
369,68,70668,2,0,P|382:117|339:138,1,97.50000371933,2|2,0:0|0:0,0:0:0:0:
226,48,71013,2,0,P|223:92|204:73,1,97.50000371933,2|2,0:0|0:0,0:0:0:0:
0,91,71358,5,10,3:0:0:0:
30,257,71530,1,8,1:0:0:0:
73,112,71702,1,10,3:0:0:0:
104,287,71875,1,8,1:0:0:0:
152,136,72047,1,10,3:0:0:0:
185,319,72220,1,8,1:0:0:0:
239,165,72392,1,10,3:0:0:0:
272,351,72564,1,8,1:0:0:0:
328,196,72737,1,10,3:0:0:0:
362,383,73082,5,10,1:0:0:0:
15,279,84116,102,0,B|63:271|63:271|74:263|74:263|133:251,1,116.999996429443,10|10,3:2|3:0,0:0:0:0:
154,160,84633,86,0,P|183:169|204:192,3,58.4999982147217,0|8|10|8,0:0|3:1|3:0|3:1,0:0:0:0:
268,257,85323,22,0,B|293:261|293:261|312:173,1,116.999996429443,10|2,3:2|0:1,0:0:0:0:
339,81,85840,86,0,P|368:90|389:113,2,58.4999982147217,10|8|0,3:0|3:1|0:0,0:0:0:0:
478,86,86358,22,0,B|494:203|494:203,1,116.999996429443,10|10,3:2|3:2,0:0:0:0:
437,279,86875,2,0,B|444:337|444:337|385:344|385:344,1,116.999996429443,10|10,3:2|3:0,0:0:0:0:
289,332,87392,86,0,P|268:354|261:384,2,58.4999982147217,0|8|10,3:0|3:1|3:0,0:0:0:0:
165,370,87909,69,2,0:1:0:0:
126,281,88082,70,0,B|80:263|80:263|66:265|66:265|9:246,1,116.999996429443,10|0,3:2|3:0,0:0:0:0:
71,168,88599,101,2,0:0:0:0:
128,89,88944,1,2,0:0:0:0:
128,89,89116,5,10,3:2:0:0:
216,49,89289,101,10,3:0:0:0:
312,58,89633,6,0,B|347:104|347:104|299:140|299:140,1,116.999996429443,10|10,3:2|3:0,0:0:0:0:
342,228,90151,86,0,P|371:219|392:196,3,58.4999982147217,0|8|10|8,0:0|3:1|3:0|3:1,0:0:0:0:
494,349,90840,22,0,B|448:331|448:331|434:333|434:333|377:314,1,116.999996429443,10|2,3:2|3:1,0:0:0:0:
232,382,91358,86,0,P|261:373|282:350,2,58.4999982147217,0|8|8,0:0|3:1|3:1,0:0:0:0:
135,374,91875,22,0,B|139:349|139:349|51:330,1,116.999996429443,10|0,3:2|3:1,0:0:0:0:
0,187,92392,2,0,B|-4:212|-4:212|84:231,1,116.999996429443,10|2,3:2|1:3,0:0:0:0:
423,265,93082,70,0,L|404:367,1,65,2|0,1:3|0:0,0:0:0:0:
332,200,93426,2,0,L|313:302,1,68.2499979171754,2|0,1:3|0:0,0:0:0:0:
241,135,93771,2,0,L|222:237,1,71.5000021820069,2|0,1:3|0:0,0:0:0:0:
150,70,94116,2,0,L|131:172,1,74.7500014257431,2|0,1:3|0:0,0:0:0:0:
59,8,94461,2,0,L|40:110,1,77.999997619629,2|0,1:3|0:0,0:0:0:0:
0,273,94806,37,10,1:3:0:0:
0,273,95151,38,0,B|55:305|55:305|235:275,1,195.00000743866,4|0,1:0|0:0,0:0:0:0:
277,205,95668,54,2,L|372:221,1,61.099999067688,2|0,3:2|0:0,1:2:0:0:
452,256,96013,1,8,1:0:0:0:
430,135,96185,5,2,0:1:0:0:
316,94,96358,102,2,L|221:110,1,61.099999067688,2|0,3:2|0:0,1:2:0:0:
141,63,96702,21,2,3:2:0:0:
162,182,96875,1,10,3:0:0:0:
48,140,97047,38,0,P|8:141|49:130,1,122.199998135376,10|10,0:0|0:0,0:0:0:0:
141,63,97564,69,10,3:0:0:0:
162,182,97909,22,0,P|147:295|211:330,1,195.00000743866,8|10,1:0|3:0,0:0:0:0:
219,361,98599,2,0,P|190:370|161:364,1,61.099999067688,8|8,0:1|1:0,0:0:0:0:
213,247,98944,86,0,L|337:235,1,122.199998135376,10|8,3:0|1:0,0:0:0:0:
233,149,99461,102,2,B|217:139|217:139|305:131|305:131|288:144,1,123.499996702194,2|0,3:1|0:0,0:1:0:0:
340,19,99633,38,0,P|418:73|512:64,1,195.00000743866,10|0,3:0|0:0,0:0:0:0:
511,63,100151,2,0,P|424:103|385:190,1,195.00000743866,10|0,3:0|0:0,0:0:0:0:
385,190,100668,2,0,P|393:94|337:17,1,195.00000743866,12|0,1:0|0:0,0:0:0:0:
208,30,101185,54,2,L|113:46,1,61.099999067688,2|0,3:2|0:0,1:2:0:0:
53,118,101530,1,8,1:0:0:0:
168,160,101702,5,2,0:1:0:0:
74,238,101875,102,2,L|56:298,1,61.099999067688,2|0,3:2|0:0,1:2:0:0:
188,279,102220,21,2,3:2:0:0:
302,322,102392,1,10,3:0:0:0:
283,202,102564,38,0,P|307:170|274:196,1,122.199998135376,10|10,0:0|0:0,0:0:0:0:
302,322,103082,69,10,3:0:0:0:
302,322,103426,53,8,0:1:0:0:
302,322,103771,102,2,B|375:185|490:214|490:214|443:229|427:277,1,317.687506059408,10|8,3:0|1:0,1:1:0:0:
470,364,104461,2,2,P|466:317|423:260,1,110.50000210762,10|0,3:0|0:0,1:1:0:0:
302,322,104806,2,2,P|195:281|105:212,1,221.000004215241,8|10,1:0|3:0,1:1:0:0:
10,358,105323,2,2,B|44:274|114:219|114:219|111:217|111:217|115:219|115:219|160:191|200:173|253:167,1,331.500006322861,8|10,1:0|3:3,3:3:0:0:
417,234,106185,102,0,B|447:240|447:240|402:324|310:344,1,195.00000743866,4|0,1:0|0:0,0:0:0:0:
204,378,106702,54,2,L|109:362,1,61.099999067688,2|0,3:2|0:0,1:2:0:0:
226,257,107047,1,8,1:0:0:0:
88,262,107220,5,2,0:1:0:0:
151,139,107392,102,2,L|129:81,1,61.099999067688,2|0,3:2|0:0,1:2:0:0:
267,74,107737,21,2,3:2:0:0:
380,32,107909,1,10,3:0:0:0:
359,150,108082,38,2,P|381:183|366:143,1,122.199998135376,10|10,0:0|0:0,0:0:0:0:
380,32,108599,69,10,3:0:0:0:
267,74,108944,22,0,L|67:52,1,195.00000743866,8|10,1:0|3:0,0:0:0:0:
68,77,109633,2,0,L|129:84,1,61.099999067688,8|8,0:1|1:0,0:0:0:0:
84,190,109978,86,0,L|72:314,1,122.199998135376,10|8,3:0|1:0,0:0:0:0:
198,329,110495,102,2,B|184:316|184:316|272:325|272:325|252:334,1,123.499996702194,2|0,3:1|0:0,0:1:0:0:
402,288,110668,38,0,P|333:194|328:116,1,195.00000743866,10|0,3:0|0:0,0:0:0:0:
328,118,111185,2,0,P|443:105|513:140,1,195.00000743866,10|0,3:0|0:0,3:0:0:0:
512,138,111702,2,0,P|465:244|400:287,1,195.00000743866,10|0,3:0|3:0,3:0:0:0:
303,229,112220,54,2,L|287:324,1,61.099999067688,2|0,3:2|0:0,1:2:0:0:
215,384,112564,1,8,1:0:0:0:
173,269,112737,5,2,0:1:0:0:
95,363,112909,102,2,L|35:381,1,61.099999067688,2|0,3:2|0:0,1:2:0:0:
54,249,113254,21,2,3:2:0:0:
11,135,113426,1,10,3:0:0:0:
131,154,113599,38,0,P|171:155|130:144,1,122.199998135376,10|10,0:0|0:0,0:0:0:0:
69,264,114116,53,10,3:0:0:0:
69,264,114202,1,2,3:0:0:0:
69,264,114289,1,2,3:0:0:0:
69,264,114375,1,2,3:0:0:0:
69,264,114461,1,8,1:1:0:0:
20,133,114806,38,2,B|32:122|-14:103|-14:103|36:80|146:55|199:148|257:154,1,331.500006322861,10|8,3:0|1:0,1:1:0:0:
368,192,115495,2,2,P|421:185|484:162,1,110.50000210762,10|0,3:0|0:0,1:1:0:0:
512,48,115840,37,10,3:0:0:0:
398,5,116013,1,8,1:0:0:0:
323,110,116185,21,10,3:0:0:0:
255,13,116358,1,8,1:0:0:0:
134,172,116530,85,10,3:0:0:0:
75,57,116702,1,8,1:0:0:0:
134,172,116875,38,4,L|164:183,3,32.5,4|4|4|4,3:0|3:0|3:0|3:0,3:0:0:0:
0,301,117220,22,0,B|55:333|55:333|235:303,1,195.00000743866,4|0,1:0|0:0,0:0:0:0:
174,371,117737,54,2,L|190:276,1,61.099999067688,2|0,3:2|0:0,1:2:0:0:
225,196,118082,1,8,1:0:0:0:
204,77,118254,5,2,0:1:0:0:
225,196,118426,102,2,L|320:180,1,61.099999067688,2|0,3:2|0:0,1:2:0:0:
399,291,118771,21,2,3:2:0:0:
378,172,118944,1,10,3:0:0:0:
357,41,119116,38,0,P|397:40|356:51,1,122.199998135376,10|10,0:0|0:0,0:0:0:0:
399,291,119633,69,10,3:0:0:0:
378,172,119978,22,0,P|482:156|537:87,1,195.00000743866,8|0,1:0|0:0,0:0:0:0:
387,150,120668,2,0,P|358:159|329:153,1,61.099999067688,8|8,0:1|1:0,0:0:0:0:
184,97,121013,86,0,L|60:108,1,122.199998135376,10|8,3:0|1:0,0:0:0:0:
164,194,121530,102,2,B|180:204|180:204|92:212|92:212|109:199,1,123.499996702194,2|0,3:1|0:0,0:1:0:0:
16,374,121702,38,0,P|94:320|188:329,1,195.00000743866,10|0,3:0|0:0,0:0:0:0:
189,330,122220,2,0,P|267:274|361:284,1,195.00000743866,8|0,1:0|0:0,0:0:0:0:
361,285,122737,2,0,P|440:230|534:240,1,195.00000743866,12|0,1:0|0:0,0:0:0:0:
512,110,123254,54,2,L|417:94,1,61.099999067688,2|0,3:2|0:0,1:2:0:0:
338,142,123599,1,0,3:0:0:0:
225,185,123771,5,2,0:1:0:0:
244,65,123944,102,2,L|149:49,1,61.099999067688,2|0,3:2|0:0,1:2:0:0:
112,228,124289,21,2,3:2:0:0:
225,185,124461,1,10,3:0:0:0:
4,273,124633,38,0,P|-20:305|13:279,1,122.199998135376,10|10,0:0|0:0,0:0:0:0:
225,185,125151,69,10,3:0:0:0:
112,228,125495,53,8,0:1:0:0:
112,228,125840,102,2,L|449:267,1,331.500006322861,0|8,0:0|1:0,1:1:0:0:
359,340,126530,2,2,L|440:266,1,110.50000210762,10|0,3:0|0:0,1:1:0:0:
208,178,126875,2,2,L|367:348,1,221.000004215241,8|10,1:0|3:0,1:1:0:0:
30,318,127392,2,2,B|346:219,1,331.500006322861,8|10,1:0|3:3,3:3:0:0:
512,362,128254,102,0,B|450:382|450:382|330:335,1,195.00000743866,4|0,1:0|0:0,0:0:0:0:
246,257,128771,54,2,L|151:273,1,61.099999067688,2|0,3:2|0:0,1:2:0:0:
130,373,129116,1,8,1:0:0:0:
66,273,129289,5,2,0:1:0:0:
0,155,129461,102,2,L|22:97,1,61.099999067688,2|0,3:2|0:0,1:2:0:0:
134,55,129806,21,2,3:2:0:0:
247,13,129978,1,10,3:0:0:0:
226,131,130151,38,2,P|248:164|233:124,1,122.199998135376,10|10,0:0|0:0,0:0:0:0:
134,55,130668,69,10,3:0:0:0:
226,131,131013,22,0,L|426:153,1,195.00000743866,8|0,1:0|0:0,0:0:0:0:
287,117,131702,2,0,L|226:110,1,61.099999067688,8|8,0:1|1:0,0:0:0:0:
56,64,132047,86,0,L|44:185,1,122.199998135376,10|8,3:0|1:0,0:0:0:0:
12,304,132564,102,2,B|-2:291|-2:291|86:300|86:300|66:309,1,123.499996702194,2|0,3:1|0:0,0:1:0:0:
270,383,132737,38,0,P|201:289|196:211,1,195.00000743866,10|0,3:0|0:0,0:0:0:0:
195,213,133254,2,0,P|241:175|171:194,1,195.00000743866,8|0,1:0|0:0,0:0:0:0:
203,178,133771,2,0,L|426:113,1,195.00000743866,12|0,1:0|0:0,0:0:0:0:
496,17,134289,54,2,L|401:33,1,61.099999067688,2|0,3:2|0:0,1:2:0:0:
333,99,134633,1,8,1:0:0:0:
456,147,134806,5,2,0:1:0:0:
362,225,134978,102,2,L|303:207,1,61.099999067688,2|0,3:2|0:0,1:2:0:0:
189,250,135323,21,2,3:2:0:0:
75,293,135495,1,10,3:0:0:0:
102,150,135668,38,0,P|103:110|92:151,1,122.199998135376,10|10,0:0|0:0,0:0:0:0:
90,308,136185,53,10,3:0:0:0:
90,308,136271,1,2,3:0:0:0:
90,308,136358,1,2,3:0:0:0:
90,308,136444,1,2,3:0:0:0:
90,308,136530,1,8,1:1:0:0:
379,339,136875,38,2,B|360:324|448:307|448:307|382:256|290:237|183:292,1,331.500006322861,10|8,3:0|1:0,1:1:0:0:
93,313,137564,2,2,P|40:306|-23:283,1,110.50000210762,10|0,3:0|0:0,1:1:0:0:
4,174,137909,2,0,P|94:97|206:136,1,221.000004215241,8|0,1:0|0:0,0:0:0:0:
290,184,138426,2,0,P|400:204|515:139,1,221.000004215241,8|0,1:0|0:0,0:0:0:0:
512,38,138944,86,4,L|470:28,3,32.5,4|4|4|4,3:0|3:0|3:0|3:0,3:0:0:0:
368,7,139289,1,0,1:0:0:0:
246,67,139461,70,2,L|249:36,2,29.2499991073609
132,128,139978,1,0,0:0:0:0:
132,128,140151,2,2,L|125:96,2,29.2499991073609
42,210,140668,1,0,0:0:0:0:
42,210,140840,2,0,L|19:193,1,29.2499991073609,10|10,0:0|0:0,0:0:0:0:
60,343,141185,69,2,0:0:0:0:
71,340,141271,1,2,0:0:0:0:
82,337,141358,2,0,L|85:320,3,14.6249995536804,2|2|2|2,0:0|0:0|0:0|0:0,0:0:0:0:
203,384,141702,2,0,L|188:362,3,14.6249995536804,2|2|2|2,0:0|0:0|0:0|0:0,0:0:0:0:
315,301,142047,101,8,0:0:0:0:
315,301,142220,2,2,L|308:333,2,29.2499991073609
399,197,142737,1,0,0:0:0:0:
399,197,142909,2,2,L|406:229,2,29.2499991073609
496,304,143426,1,0,0:0:0:0:
496,304,143599,1,10,0:0:0:0:
496,304,143771,1,10,0:0:0:0:
441,192,143944,5,2,0:0:0:0:
438,181,144030,1,2,0:0:0:0:
435,170,144116,2,0,L|418:168,3,14.6249995536804,2|2|2|2,0:0|0:0|0:0|0:0,0:0:0:0:
494,67,144461,2,0,L|483:50,3,14.6249995536804,2|2|2|2,0:0|0:0|0:0|0:0,0:0:0:0:
364,22,144806,101,8,0:0:0:0:
364,22,144978,2,2,L|332:15,2,29.2499991073609
245,87,145495,1,0,0:0:0:0:
245,87,145668,2,2,L|213:94,2,29.2499991073609
103,44,146185,1,0,0:0:0:0:
103,44,146358,2,0,L|71:23,1,29.2499991073609,10|10,0:0|0:0,0:0:0:0:
10,139,146702,5,2,0:0:0:0:
8,150,146789,1,2,0:0:0:0:
7,161,146875,2,0,L|21:168,3,14.6249995536804,2|2|2|2,0:0|0:0|0:0|0:0,0:0:0:0:
31,294,147220,2,0,L|39:282,3,14.6249995536804,2|2|2|2,0:0|0:0|0:0|0:0,0:0:0:0:
135,380,147564,1,10,0:0:0:0:
138,369,147651,1,2,0:0:0:0:
141,358,147737,1,2,0:0:0:0:
144,347,147823,1,2,0:0:0:0:
147,336,147909,2,0,L|164:334,2,14.6249995536804,2|2|0,0:0|0:0|0:0,0:0:0:0:
288,325,148254,37,0,0:0:0:0:
288,325,148426,2,0,L|288:361,1,29.2499991073609
418,313,148771,2,0,L|482:304,1,58.4999982147217,8|0,0:0|0:0,0:0:0:0:
333,212,149289,1,0,0:0:0:0:
333,212,149461,2,0,L|269:221,1,58.4999982147217,8|0,0:0|0:0,0:0:0:0:
153,145,149978,70,0,L|154:155,4,9.74999970245362,2|2|2|2|2,0:0|0:0|0:0|0:0|0:0,0:0:0:0:
49,52,150323,101,10,0:0:0:0:
49,52,150495,2,0,L|55:85,2,29.2499991073609,2|2|2,0:0|0:0|0:0,0:0:0:0:
167,27,151013,1,0,0:0:0:0:
167,27,151185,2,0,L|180:-2,2,29.2499991073609,2|2|2,0:0|0:0|0:0,0:0:0:0:
278,73,151702,1,0,0:0:0:0:
278,73,151875,2,0,L|276:109,1,29.2499991073609,2|2,0:0|0:0,0:0:0:0:
387,154,152220,5,2,0:0:0:0:
398,151,152306,1,2,0:0:0:0:
409,148,152392,2,0,L|411:132,3,14.6249995536804,2|2|2|2,0:0|0:0|0:0|0:0,0:0:0:0:
512,234,152737,2,0,L|500:226,3,14.6249995536804,2|2|2|0,0:0|0:0|0:0|0:0,0:0:0:0:
442,363,153082,38,0,L|435:328,2,29.2499991073609,8|0|0,0:0|0:0|0:0,0:0:0:0:
266,326,153599,2,0,L|329:340,1,58.4999982147217,2|0,0:0|0:0,0:0:0:0:
160,257,154116,1,2,0:0:0:0:
87,353,154289,2,0,L|-12:366,1,87.7499973220826,10|0,0:0|0:0,0:0:0:0:
160,257,154978,2,0,L|229:271,1,58.4999982147217,8|0,0:0|0:0,0:0:0:0:
309,187,155495,1,2,0:0:0:0:
309,187,155668,1,2,0:0:0:0:
428,185,155840,6,2,B|433:218|601:135|305:-34|394:164|208:35,1,350.99998928833,10|0,0:0|0:0,0:1:0:0:
53,121,157047,1,2,0:0:0:0:
64,118,157133,1,2,0:0:0:0:
74,114,157220,2,2,B|181:67|65:153|83:216,1,146.249995536804,0|0,0:0|0:0,0:1:0:0:
10,306,157737,2,0,L|-8:268,5,29.2499991073609,0|0|0|0|0|0,0:0|0:0|0:0|0:0|0:0|0:0,0:1:0:0:
118,379,158254,2,0,L|136:341,3,29.2499991073609,0|0|0|0,0:0|0:0|0:0|0:0,0:1:0:0:
260,332,158599,2,2,B|217:370|309:389|377:342,1,146.249995536804,2|0,0:0|0:0,0:1:0:0:
484,253,159116,2,2,B|542:325|453:243|415:262,2,116.999996429443,0|0|0,0:0|0:0|0:1,0:1:0:0:
280,124,159978,86,0,B|371:142|371:142|355:117,2,116.999996429443,2|2|2,3:2|3:2|3:2,0:0:0:0:
284,316,161013,38,0,L|293:283,6,19.4999994049072,8|0|0|0|0|0|8,1:3|0:0|0:0|0:0|0:0|0:0|1:0,0:0:0:0:
14,384,161702,86,0,L|54:293,1,77.999997619629,2|0,1:2|0:0,0:0:0:0:
118,258,161961,1,2,0:0:0:0:
118,258,162047,2,0,L|158:167,1,77.999997619629,2|2,1:2|0:0,0:0:0:0:
240,89,162392,2,0,P|286:94|331:113,1,77.999997619629,2|0,1:2|0:0,0:0:0:0:
458,31,162737,1,8,1:0:0:0:
505,149,162909,53,2,0:0:0:0:
505,149,162995,1,2,0:0:0:0:
505,149,163082,2,0,L|483:198,3,38.9999988098145,2|2|2|2,1:2|0:0|0:0|0:0,0:0:0:0:
399,198,163426,2,0,L|296:211,1,77.999997619629,8|8,1:0|0:0,0:0:0:0:
321,207,163771,21,8,0:0:0:0:
282,288,163944,1,8,0:0:0:0:
194,352,164116,22,0,P|185:299|161:260,1,77.999997619629,8|0,1:0|0:0,0:0:0:0:
70,190,164461,2,0,P|79:140|103:101,1,77.999997619629,8|0,1:0|0:0,0:0:0:0:
246,69,164806,54,0,L|223:119,2,38.9999988098145,2|2|2,1:2|0:0|0:0,0:0:0:0:
407,181,165151,2,0,L|384:131,2,38.9999988098145,2|2|2,1:2|0:0|0:0,0:0:0:0:
512,346,165495,54,0,L|415:324,1,77.999997619629,2|2,1:2|0:0,0:0:0:0:
400,313,165754,1,2,0:0:0:0:
373,284,165840,2,0,L|276:262,1,77.999997619629,2|2,1:2|0:0,0:0:0:0:
187,351,166185,2,0,L|145:362,3,38.9999988098145,2|2|2|2,1:2|0:0|0:0|0:0,0:0:0:0:
61,383,166530,2,0,P|32:341|21:296,1,77.999997619629,8|0,1:0|0:0,0:0:0:0:
93,207,166875,102,0,P|99:156|87:112,1,77.999997619629,8|0,1:0|0:0,0:0:0:0:
198,249,167220,2,0,P|230:209|244:166,1,77.999997619629,8|0,1:0|0:0,0:0:0:0:
263,341,167564,2,0,P|311:325|347:297,1,77.999997619629,8|0,1:0|0:0,0:0:0:0:
433,118,167909,2,0,P|413:150|405:188,1,77.999997619629,8|0,1:0|0:0,0:0:0:0:
276,113,168254,2,0,P|277:151|291:187,1,77.999997619629,8|0,1:0|0:0,0:0:0:0:
143,194,168598,2,0,P|166:224|196:248,1,77.999997619629,8|0,1:0|0:0,0:0:0:0:
75,334,168944,2,0,P|111:347|149:350,1,77.999997619629,8|8,1:0|0:0,0:0:0:0:
150,350,169289,101,8,0:0:0:0:
238,373,169461,1,8,0:0:0:0:
325,340,169633,6,2,L|288:174,3,155.999995239258,8|8|8|8,1:0|1:0|1:0|1:0,0:0:0:0:
276,67,170840,102,2,P|264:41|211:12,2,77.999997619629,2|8|2,1:2|1:0|2:2,2:2:0:0:
399,112,171358,6,0,L|497:123,2,77.999997619629,8|14|8,1:0|3:2|1:0,0:0:0:0:
497,218,171875,101,2,0:0:0:0:
335,211,172048,1,2,0:0:0:0:
414,256,172220,1,2,0:0:0:0:
210,300,172392,54,0,B|230:207|230:207|262:276,1,130,10|10,3:0|3:0,0:0:0:0:
96,280,172737,70,0,P|64:283|23:258,2,77.999997619629,2|2|2,1:2|0:0|1:2,0:0:0:0:
335,211,173426,38,0,B|315:118|315:118|283:187,1,130,10|10,3:0|3:0,0:0:0:0:
438,117,173771,70,0,P|472:119|517:91,2,77.999997619629,2|2|2,1:2|0:0|1:2,0:0:0:0:
376,18,174289,1,2,0:0:0:0:
251,51,174461,6,0,L|159:24,1,77.999997619629,8|0,1:0|0:0,0:0:0:0:
75,147,174806,2,0,L|-17:120,1,77.999997619629,8|0,1:0|0:0,0:0:0:0:
0,125,175151,22,0,B|88:91|88:91|48:155,1,130,10|10,3:0|3:0,0:0:0:0:
193,198,175495,86,0,L|285:171,1,77.999997619629,8|0,1:0|0:0,0:0:0:0:
125,307,175840,2,0,L|33:334,1,77.999997619629,8|0,1:0|0:0,0:0:0:0:
260,364,176185,22,0,B|237:358|237:358|361:322,1,130,10|10,3:0|3:0,0:0:0:0:
489,328,176530,102,0,B|466:295|466:295|445:164|445:164,1,155.999995239258,8|8,1:0|1:0,0:0:0:0:
417,81,177047,1,8,1:1:0:0:
281,176,177220,2,0,B|304:143|304:143|325:12|325:12,1,155.999995239258,8|10,1:0|1:3,0:0:0:0:
189,0,177909,5,10,3:0:0:0:
189,0,178082,1,10,3:0:0:0:
82,43,178254,86,0,P|95:72|119:94,1,65,0|0,1:0|0:0,0:0:0:0:
187,192,178599,2,0,P|173:221|149:243,1,65,0|0,1:0|0:0,0:0:0:0:
86,352,178944,21,10,3:0:0:0:
86,352,179117,1,10,3:0:0:0:
209,374,179289,86,0,P|241:378|272:370,1,65,8|0,1:0|0:0,0:0:0:0:
376,300,179634,2,0,P|408:301|437:314,1,65,8|0,1:0|3:0,3:0:0:0:
512,227,179978,21,10,3:0:0:0:
512,227,180151,1,10,3:0:0:0:
512,227,180323,2,0,P|487:205|456:195,1,65,10|0,1:3|0:0,0:0:0:0:
379,68,180668,86,0,L|431:55,1,32.5,10|0,1:3|2:0,0:0:0:0:
277,171,181013,2,0,L|329:158,1,32.5,10|0,1:3|2:0,0:0:0:0:
150,90,181358,2,0,L|202:77,1,32.5,10|0,1:3|2:0,0:0:0:0:
48,193,181703,2,0,L|100:180,1,32.5,10|0,1:3|2:0,0:0:0:0:
121,365,182047,54,0,P|122:334|141:290,1,65,10|0,1:3|2:0,0:0:0:0:
195,166,182392,2,0,P|217:187|261:206,1,65,10|0,3:3|3:0,3:0:0:0:
349,309,182737,2,0,P|379:298|413:276,1,65,10|0,1:3|2:0,0:0:0:0:
487,158,183082,85,10,1:3:0:0:
487,158,183426,70,0,B|417:153|417:153|427:159|427:159|329:152,1,162.5,4|0,1:0|0:0,0:0:0:0:
346,153,183944,5,10,0:0:0:0:
241,46,184116,1,10,0:0:0:0:
88,138,184289,2,0,L|11:126,1,65,10|10,1:2|1:2,0:0:0:0:
86,156,184633,2,2,L|232:178,1,130,10|8,1:2|1:0,0:1:0:0:
214,175,185151,1,10,3:0:0:0:
163,370,185323,69,2,0:0:0:0:
152,350,185409,1,2,0:0:0:0:
141,330,185495,1,2,0:0:0:0:
130,310,185582,1,2,0:0:0:0:
118,290,185668,2,0,L|79:304,5,32.5,2|2|2|2|2|2,0:0|0:0|0:0|0:0|0:0|0:0,0:0:0:0:
2,228,186185,22,0,P|14:155|29:119,1,97.50000371933,4|10,1:0|3:0,1:0:0:0:
22,133,186702,5,10,0:2:0:0:
170,35,186875,1,10,0:2:0:0:
136,206,187047,2,0,L|120:142,1,65,10|10,1:2|1:2,0:0:0:0:
155,176,187392,2,0,L|171:240,1,65,10|0,0:2|0:2,0:0:0:0:
143,383,187737,1,8,1:0:0:0:
285,273,187909,1,10,3:0:0:0:
406,340,188082,69,2,0:0:0:0:
414,318,188168,1,2,0:0:0:0:
419,296,188254,1,2,0:0:0:0:
420,274,188340,1,2,0:0:0:0:
419,251,188426,1,2,0:0:0:0:
413,229,188513,1,2,0:0:0:0:
405,208,188599,2,0,L|437:154,3,32.5
456,75,188944,22,0,P|417:53|352:37,1,97.50000371933,4|0,1:0|0:0,0:0:0:0:
366,38,189461,5,10,0:0:0:0:
281,200,189633,1,10,0:0:0:0:
201,87,189806,2,0,L|276:67,1,65,10|10,3:2|3:2,3:0:0:0:
230,100,190151,2,2,L|126:126,1,97.50000371933,10|8,3:2|1:0,3:1:0:0:
6,22,190668,1,10,3:0:0:0:
0,154,190840,70,0,L|-22:181,9,24.3750009298325,2|2|2|2|2|2|2|2|2|2,0:0|0:0|0:0|0:0|0:0|0:0|0:0|0:0|0:0|0:0,0:0:0:0:
0,308,191702,21,2,0:2:0:0:
10,294,191789,1,2,2:2:0:0:
23,283,191874,1,2,2:2:0:0:
37,273,191960,1,2,2:2:0:0:
51,264,192046,1,2,2:2:0:0:
67,257,192133,1,2,2:2:0:0:
86,251,192220,2,2,B|158:229|175:262|225:249,1,130,2|8,0:0|1:0,0:1:0:0:
306,370,192737,1,10,3:0:0:0:
484,308,192909,86,0,L|473:238,1,65,4|8,1:2|1:0,0:0:0:0:
392,134,193426,1,10,3:0:0:0:
344,200,193599,2,0,L|359:101,1,97.50000371933,4|0,1:2|0:0,0:0:0:0:
392,134,194116,6,0,L|381:102,3,24.3750009298325,10|2|2|2,3:0|0:0|0:0|0:0,0:0:0:0:
453,32,194461,102,2,B|352:-22|187:5|128:161|128:161|211:81|307:106|305:220|184:186|246:90,1,650,0|10,0:1|3:0,0:1:0:0:
235,110,196358,6,0,L|223:98,9,16.25,2|2|2|2|2|2|2|2|2|2,0:0|0:0|0:0|0:0|0:0|0:0|0:0|0:0|0:0|0:0,0:0:0:0:
349,139,197220,102,2,P|246:226|117:138,1,292.50001115799,4|0,1:0|0:0,0:1:0:0:
21,112,198426,70,0,P|72:58|88:52,1,65,2|0,3:1|0:0,0:0:0:0:
165,7,198771,85,0,1:0:0:0:
277,32,198944,1,10,3:0:0:0:
307,143,199116,22,0,P|380:136|393:125,1,65,2|0,3:1|0:0,3:0:0:0:
407,31,199461,85,8,1:0:0:0:
512,112,199633,1,10,3:0:0:0:
466,216,199806,1,4,3:3:0:0:
498,317,199978,70,2,B|510:347|510:347|341:242|239:340|239:340|329:314|346:365|323:381|307:361,1,455,0|4,0:0|1:0,0:0:0:0:
246,50,201530,69,8,1:0:0:0:
325,140,201702,1,10,3:0:0:0:
92,203,201875,38,2,P|138:166|220:167,1,130,4|8,1:0|1:0,0:1:0:0:
181,284,202392,69,10,3:0:0:0:
384,383,202737,70,0,P|404:315|411:248,1,130,4|0,1:0|3:0,3:0:0:0:
325,140,203254,2,0,P|330:109|346:72,1,65,4|0,2:3|2:0,0:0:0:0:
512,119,203599,54,0,L|425:145,1,77.999997619629,8|10,1:0|3:0,1:0:0:0:
255,261,203944,2,0,L|168:287,1,77.999997619629,8|10,1:0|3:0,1:0:0:0:
0,144,204289,2,0,L|87:170,1,77.999997619629,8|10,1:0|3:0,1:0:0:0:
225,57,204633,2,0,L|312:31,1,77.999997619629,8|10,1:0|3:0,1:0:0:0:
389,155,204978,21,8,1:0:0:0:
512,218,205150,1,10,3:0:0:0:
512,29,205323,1,8,1:0:0:0:
468,115,205495,37,2,3:2:0:0:
157,254,216530,102,2,P|244:95|293:55,1,241.91729267799,2|0,0:0|0:0,0:0:0:0:
138,41,219289,2,2,P|296:128|321:178,1,241.91729267799,2|0,0:0|0:0,0:0:0:0:
464,185,222047,2,2,P|334:198|341:289,1,241.91729267799,2|0,0:0|0:0,0:0:0:0:
404,240,224806,2,2,L|373:200,2,48.383458535598,2|2|0,0:0|0:0|0:0,0:0:0:0:
211,384,226185,2,2,L|232:335,2,48.383458535598,2|2|0,0:0|0:0|0:0,0:0:0:0:
512,336,227564,101,10,0:0:0:0:
