osu file format v14

[General]
AudioFilename: audio.mp3
AudioLeadIn: 0
PreviewTime: 0
Countdown: 0
SampleSet: Soft
StackLeniency: 0.3
Mode: 0
LetterboxInBreaks: 0
WidescreenStoryboard: 1

[Editor]
Bookmarks: 15916,30916,45916,60916,75916,90916,105916,120916,135916
DistanceSpacing: 1.2
BeatDivisor: 4
GridSize: 16
TimelineZoom: 6.999997

[Metadata]
Title:HAPPY
TitleUnicode:HAPPY
Artist:Nardis
ArtistUnicode:Nardis
Creator:-PC
Version:Extreme: EUPHORIC
Source:
Tags:call diverse system nardis0404 m3-40 electro yokespai striderin pennek
BeatmapID:2085629
BeatmapSetID:790841

[Difficulty]
HPDrainRate:4.5
CircleSize:4.2
OverallDifficulty:8.5
ApproachRate:9.3
SliderMultiplier:2.8
SliderTickRate:1

[Events]
//Background and Video events
0,0,"hjapp.jpg",0,0
//Break Periods
//Storyboard Layer 0 (Background)
//Storyboard Layer 1 (Fail)
//Storyboard Layer 2 (Pass)
//Storyboard Layer 3 (Foreground)
//Storyboard Layer 4 (Overlay)
//Storyboard Sound Samples

[TimingPoints]
916,468.75,4,2,0,70,1,0
916,-62.5,4,2,0,70,0,0
1619,-71.4285714285714,4,2,0,70,0,0
2087,-62.5,4,2,0,70,0,0
2205,-62.5,4,2,0,5,0,0
2322,-62.5,4,2,0,70,0,0
2556,-71.4285714285714,4,2,0,70,0,0
3025,-62.5,4,2,0,70,0,0
3142,-62.5,4,2,0,5,0,0
3259,-62.5,4,2,0,70,0,0
3494,-71.4285714285714,4,2,0,70,0,0
3962,-62.5,4,2,0,70,0,0
4080,-62.5,4,2,0,5,0,0
4197,-55.5555555555556,4,2,0,70,0,0
4314,-55.5555555555556,4,2,0,5,0,0
4431,-50,4,2,0,70,0,0
4548,-50,4,2,0,5,0,0
4666,-62.5,4,2,0,70,0,0
5369,-71.4285714285714,4,2,0,70,0,0
5837,-62.5,4,2,0,70,0,0
5955,-62.5,4,2,0,5,0,0
6072,-62.5,4,2,0,70,0,0
6306,-71.4285714285714,4,2,0,70,0,0
6775,-62.5,4,2,0,70,0,0
6892,-62.5,4,2,0,5,0,0
7009,-62.5,4,2,0,70,0,0
7478,-71.4285714285714,4,2,0,70,0,0
8416,-62.5,4,2,0,70,0,0
9119,-71.4285714285714,4,2,0,70,0,0
9587,-62.5,4,2,0,70,0,0
9705,-62.5,4,2,0,5,0,0
9822,-62.5,4,2,0,70,0,0
10056,-71.4285714285714,4,2,0,70,0,0
10525,-62.5,4,2,0,70,0,0
10642,-62.5,4,2,0,5,0,0
10759,-62.5,4,2,0,70,0,0
10994,-71.4285714285714,4,2,0,70,0,0
11462,-62.5,4,2,0,70,0,0
11580,-62.5,4,2,0,5,0,0
11697,-55.5555555555556,4,2,0,70,0,0
11814,-55.5555555555556,4,2,0,5,0,0
11931,-50,4,2,0,70,0,0
12048,-50,4,2,0,5,0,0
12166,-62.5,4,2,0,70,0,0
12869,-71.4285714285714,4,2,0,70,0,0
13337,-62.5,4,2,0,70,0,0
13455,-62.5,4,2,0,5,0,0
13572,-62.5,4,2,0,70,0,0
13806,-71.4285714285714,4,2,0,70,0,0
14275,-62.5,4,2,0,70,0,0
14392,-62.5,4,2,0,5,0,0
14509,-62.5,4,2,0,70,0,0
14626,-62.5,4,2,0,5,0,0
14744,-62.5,4,2,0,70,0,0
14861,-62.5,4,2,0,5,0,0
14978,-50,4,2,0,70,0,0
15447,-75.187969924812,4,2,0,70,0,0
15798,-75.187969924812,4,2,0,5,0,0
15916,-125,4,2,0,70,0,0
22947,-50,4,2,0,70,0,0
23064,-50,4,2,0,5,0,0
23181,-50,4,2,0,70,0,0
23298,-50,4,2,0,5,0,0
23416,-62.5,4,2,0,70,0,0
29978,-58.8235294117647,4,2,0,70,0,0
30916,-58.8235294117647,4,2,0,70,0,0
33962,-38.9105058365759,4,2,0,70,0,0
34138,-38.9105058365759,4,2,0,5,0,0
34197,-38.9105058365759,4,2,0,70,0,0
37888,-38.9105058365759,4,2,0,5,0,0
37947,-38.9105058365759,4,2,0,70,0,0
42166,-83.3333333333333,4,2,0,70,0,0
42634,-90.9090909090909,4,2,0,70,0,0
43103,-99.9999999999999,4,2,0,70,0,0
43572,-111.111111111111,4,2,0,70,0,0
44041,-125,4,2,0,70,0,0
44509,-142.857142857143,4,2,0,70,0,0
45212,-500.000000000003,4,2,0,70,0,0
45447,-166.666666666667,4,2,0,70,0,0
45916,-34.4827586206897,4,2,0,70,0,1
45945,-34.4827586206897,4,2,0,50,0,1
46384,-38.9105058365759,4,2,0,70,0,0
46560,-38.9105058365759,4,2,0,5,0,0
46619,-38.9105058365759,4,2,0,70,0,0
46794,-38.9105058365759,4,2,0,5,0,0
46853,-125,4,2,0,70,0,0
47322,-38.9105058365759,4,2,0,70,0,0
47498,-38.9105058365759,4,2,0,5,0,0
47556,-38.9105058365759,4,2,0,70,0,0
47732,-38.9105058365759,4,2,0,5,0,0
47791,-125,4,2,0,70,0,0
48025,-125,4,2,0,40,0,0
48259,-38.9105058365759,4,2,0,70,0,0
48435,-38.9105058365759,4,2,0,5,0,0
48494,-38.9105058365759,4,2,0,70,0,0
48728,-41.6666666666667,4,2,0,70,0,0
48845,-41.6666666666667,4,2,0,5,0,0
48962,-41.6666666666667,4,2,0,70,0,0
49080,-41.6666666666667,4,2,0,5,0,0
49197,-41.6666666666667,4,2,0,70,0,0
49314,-41.6666666666667,4,2,0,5,0,0
49431,-41.6666666666667,4,2,0,70,0,0
49548,-41.6666666666667,4,2,0,5,0,0
49666,-34.4827586206897,4,2,0,70,0,0
49695,-34.4827586206897,4,2,0,50,0,0
50134,-38.9105058365759,4,2,0,70,0,0
50310,-38.9105058365759,4,2,0,5,0,0
50369,-38.9105058365759,4,2,0,70,0,0
50544,-38.9105058365759,4,2,0,5,0,0
50603,-125,4,2,0,70,0,0
51072,-38.9105058365759,4,2,0,70,0,0
51248,-38.9105058365759,4,2,0,5,0,0
51306,-38.9105058365759,4,2,0,70,0,0
51482,-38.9105058365759,4,2,0,5,0,0
51541,-125,4,2,0,70,0,0
51775,-125,4,2,0,40,0,0
52009,-38.9105058365759,4,2,0,70,0,0
52185,-38.9105058365759,4,2,0,5,0,0
52244,-38.9105058365759,4,2,0,70,0,0
52419,-38.9105058365759,4,2,0,5,0,0
52478,-34.4827586206897,4,2,0,70,0,0
52595,-34.4827586206897,4,2,0,5,0,0
52712,-34.4827586206897,4,2,0,70,0,0
52830,-34.4827586206897,4,2,0,5,0,0
52947,-34.4827586206897,4,2,0,70,0,0
53064,-34.4827586206897,4,2,0,5,0,0
53181,-34.4827586206897,4,2,0,70,0,0
53298,-34.4827586206897,4,2,0,5,0,0
53416,-34.4827586206897,4,2,0,70,0,1
53445,-34.4827586206897,4,2,0,50,0,1
53884,-38.9105058365759,4,2,0,70,0,0
54060,-38.9105058365759,4,2,0,5,0,0
54119,-38.9105058365759,4,2,0,70,0,0
54294,-38.9105058365759,4,2,0,5,0,0
54353,-125,4,2,0,70,0,0
54822,-38.9105058365759,4,2,0,70,0,0
54998,-38.9105058365759,4,2,0,5,0,0
55056,-38.9105058365759,4,2,0,70,0,0
55232,-38.9105058365759,4,2,0,5,0,0
55291,-125,4,2,0,70,0,0
55525,-125,4,2,0,40,0,0
55759,-38.9105058365759,4,2,0,70,0,0
55935,-38.9105058365759,4,2,0,5,0,0
55994,-38.9105058365759,4,2,0,70,0,0
56228,-41.6666666666667,4,2,0,70,0,0
56345,-41.6666666666667,4,2,0,5,0,0
56462,-41.6666666666667,4,2,0,70,0,0
56580,-41.6666666666667,4,2,0,5,0,0
56697,-41.6666666666667,4,2,0,70,0,0
56814,-41.6666666666667,4,2,0,5,0,0
56931,-41.6666666666667,4,2,0,70,0,0
57048,-41.6666666666667,4,2,0,5,0,0
57166,-34.4827586206897,4,2,0,70,0,0
57195,-34.4827586206897,4,2,0,50,0,0
57634,-38.9105058365759,4,2,0,70,0,0
57810,-38.9105058365759,4,2,0,5,0,0
57869,-38.9105058365759,4,2,0,70,0,0
58044,-38.9105058365759,4,2,0,5,0,0
58103,-125,4,2,0,70,0,0
58572,-38.9105058365759,4,2,0,70,0,0
58748,-38.9105058365759,4,2,0,5,0,0
58806,-38.9105058365759,4,2,0,70,0,0
58982,-38.9105058365759,4,2,0,5,0,0
59041,-125,4,2,0,70,0,0
59275,-125,4,2,0,40,0,0
59509,-38.9105058365759,4,2,0,70,0,0
59685,-38.9105058365759,4,2,0,5,0,0
59744,-34.4827586206897,4,2,0,70,0,0
60916,-55.5555555555556,4,2,0,70,0,1
61267,-55.5555555555556,4,2,0,5,0,1
61384,-38.9105058365759,4,2,0,70,0,1
61560,-38.9105058365759,4,2,0,5,0,1
61619,-38.9105058365759,4,2,0,70,0,1
61794,-38.9105058365759,4,2,0,5,0,1
61853,-125,4,2,0,70,0,1
62087,-55.5555555555556,4,2,0,70,0,1
62205,-55.5555555555556,4,2,0,5,0,1
62322,-38.9105058365759,4,2,0,70,0,1
62498,-38.9105058365759,4,2,0,5,0,1
62556,-38.9105058365759,4,2,0,70,0,1
62732,-38.9105058365759,4,2,0,5,0,1
62791,-125,4,2,0,70,0,1
63025,-55.5555555555556,4,2,0,70,0,1
63142,-55.5555555555556,4,2,0,5,0,1
63259,-38.9105058365759,4,2,0,70,0,1
63435,-38.9105058365759,4,2,0,5,0,1
63494,-38.9105058365759,4,2,0,70,0,1
63728,-41.6666666666667,4,2,0,70,0,1
63845,-41.6666666666667,4,2,0,5,0,1
63962,-41.6666666666667,4,2,0,70,0,1
64080,-41.6666666666667,4,2,0,5,0,1
64197,-41.6666666666667,4,2,0,70,0,1
64314,-41.6666666666667,4,2,0,5,0,1
64431,-41.6666666666667,4,2,0,70,0,1
64548,-41.6666666666667,4,2,0,5,0,1
64666,-55.5555555555556,4,2,0,70,0,1
65017,-55.5555555555556,4,2,0,5,0,1
65134,-38.9105058365759,4,2,0,70,0,1
65310,-38.9105058365759,4,2,0,5,0,1
65369,-38.9105058365759,4,2,0,70,0,1
65544,-38.9105058365759,4,2,0,5,0,1
65603,-125,4,2,0,70,0,1
65837,-55.5555555555556,4,2,0,70,0,1
65955,-55.5555555555556,4,2,0,5,0,1
66072,-38.9105058365759,4,2,0,70,0,1
66248,-38.9105058365759,4,2,0,5,0,1
66306,-38.9105058365759,4,2,0,70,0,1
66482,-38.9105058365759,4,2,0,5,0,1
66541,-125,4,2,0,70,0,1
66775,-55.5555555555556,4,2,0,70,0,1
66892,-55.5555555555556,4,2,0,5,0,1
67009,-38.9105058365759,4,2,0,70,0,1
67185,-38.9105058365759,4,2,0,5,0,1
67244,-38.9105058365759,4,2,0,70,0,1
67419,-38.9105058365759,4,2,0,5,0,1
67478,-34.4827586206897,4,2,0,70,0,1
67595,-34.4827586206897,4,2,0,5,0,1
67712,-34.4827586206897,4,2,0,70,0,1
67830,-34.4827586206897,4,2,0,5,0,1
67947,-34.4827586206897,4,2,0,70,0,1
68064,-34.4827586206897,4,2,0,5,0,1
68181,-34.4827586206897,4,2,0,70,0,1
68298,-34.4827586206897,4,2,0,5,0,1
68416,-55.5555555555556,4,2,0,70,0,1
68767,-55.5555555555556,4,2,0,5,0,1
68884,-38.9105058365759,4,2,0,70,0,1
69060,-38.9105058365759,4,2,0,5,0,1
69119,-38.9105058365759,4,2,0,70,0,1
69294,-38.9105058365759,4,2,0,5,0,1
69353,-125,4,2,0,70,0,1
69587,-55.5555555555556,4,2,0,70,0,1
69705,-55.5555555555556,4,2,0,5,0,1
69822,-38.9105058365759,4,2,0,70,0,1
69998,-38.9105058365759,4,2,0,5,0,1
70056,-38.9105058365759,4,2,0,70,0,1
70232,-38.9105058365759,4,2,0,5,0,1
70291,-125,4,2,0,70,0,1
70525,-55.5555555555556,4,2,0,70,0,1
70642,-55.5555555555556,4,2,0,5,0,1
70759,-38.9105058365759,4,2,0,70,0,1
70935,-38.9105058365759,4,2,0,5,0,1
70994,-38.9105058365759,4,2,0,70,0,1
71228,-41.6666666666667,4,2,0,70,0,1
71345,-41.6666666666667,4,2,0,5,0,1
71462,-41.6666666666667,4,2,0,70,0,1
71580,-41.6666666666667,4,2,0,5,0,1
71697,-41.6666666666667,4,2,0,70,0,1
71814,-41.6666666666667,4,2,0,5,0,1
71931,-41.6666666666667,4,2,0,70,0,1
72048,-41.6666666666667,4,2,0,5,0,1
72166,-55.5555555555556,4,2,0,70,0,1
72517,-55.5555555555556,4,2,0,5,0,1
72634,-38.9105058365759,4,2,0,70,0,1
72810,-38.9105058365759,4,2,0,5,0,1
72869,-38.9105058365759,4,2,0,70,0,1
73044,-38.9105058365759,4,2,0,5,0,1
73103,-125,4,2,0,70,0,1
73337,-55.5555555555556,4,2,0,70,0,1
73455,-55.5555555555556,4,2,0,5,0,1
73572,-38.9105058365759,4,2,0,70,0,1
73748,-38.9105058365759,4,2,0,5,0,1
73806,-38.9105058365759,4,2,0,70,0,1
73982,-38.9105058365759,4,2,0,5,0,1
74041,-125,4,2,0,70,0,1
74275,-55.5555555555556,4,2,0,70,0,1
74392,-55.5555555555556,4,2,0,5,0,1
74509,-38.9105058365759,4,2,0,70,0,1
74685,-38.9105058365759,4,2,0,5,0,1
74744,-38.9105058365759,4,2,0,70,0,1
75857,-38.9105058365759,4,2,0,5,0,1
75916,-71.4285714285714,4,2,0,70,0,0
76501,-71.4285714285714,4,2,0,5,0,0
76619,-71.4285714285714,4,2,0,70,0,0
76970,-71.4285714285714,4,2,0,5,0,0
77087,-71.4285714285714,4,2,0,70,0,0
79080,-71.4285714285714,4,2,0,5,0,0
79197,-71.4285714285714,4,2,0,70,0,0
80720,-71.4285714285714,4,2,0,5,0,0
80837,-71.4285714285714,4,2,0,70,0,0
83181,-55.5555555555556,4,2,0,70,0,0
83357,-55.5555555555556,4,2,0,5,0,0
83416,-71.4285714285714,4,2,0,70,0,0
84470,-71.4285714285714,4,2,0,5,0,0
84587,-71.4285714285714,4,2,0,70,0,0
86345,-71.4285714285714,4,2,0,5,0,0
86462,-71.4285714285714,4,2,0,70,0,0
86814,-71.4285714285714,4,2,0,5,0,0
86931,-71.4285714285714,4,2,0,70,0,0
87048,-71.4285714285714,4,2,0,5,0,0
87166,-71.4285714285714,4,2,0,70,0,0
88220,-71.4285714285714,4,2,0,5,0,0
88337,-71.4285714285714,4,2,0,70,0,0
88689,-71.4285714285714,4,2,0,5,0,0
88806,-71.4285714285714,4,2,0,70,0,0
88923,-71.4285714285714,4,2,0,5,0,0
89041,-71.4285714285714,4,2,0,70,0,0
90681,-83.3333333333333,4,2,0,70,0,0
90798,-83.3333333333333,4,2,0,5,0,0
90916,-83.3333333333333,4,2,0,70,0,0
93962,-38.9105058365759,4,2,0,70,0,0
94138,-38.9105058365759,4,2,0,5,0,0
94197,-38.9105058365759,4,2,0,70,0,0
97888,-38.9105058365759,4,2,0,5,0,0
97947,-333.333333333333,4,2,0,70,0,0
98357,-333.333333333333,4,2,0,5,0,0
98416,-333.333333333333,4,2,0,70,0,0
102166,-83.3333333333333,4,2,0,70,0,0
102634,-90.9090909090909,4,2,0,70,0,0
103103,-100,4,2,0,70,0,0
103572,-111.111111111111,4,2,0,70,0,0
104041,-125,4,2,0,70,0,0
104509,-142.857142857143,4,2,0,70,0,0
104978,-333.333333333334,4,2,0,70,0,0
105330,-333.333333333334,4,2,0,5,0,0
105447,-250,4,2,0,70,0,0
105476,-250,4,2,0,40,0,0
105681,-250,4,2,0,50,0,0
105916,-62.5,4,2,0,70,0,1
106326,-62.5,4,2,0,5,0,1
106384,-45.4545454545455,4,2,0,70,0,0
109666,-25,4,2,0,70,0,0
109695,-25,4,2,0,50,0,0
110134,-45.4545454545455,4,2,0,70,0,0
110837,-166.666666666667,4,2,0,70,0,0
111072,-45.4545454545455,4,2,0,70,0,0
112947,-125,4,2,0,70,0,0
113416,-62.5,4,2,0,70,0,1
113826,-62.5,4,2,0,5,0,1
113884,-45.4545454545455,4,2,0,70,0,0
116931,-125,4,2,0,70,0,0
117166,-25,4,2,0,70,0,0
117195,-25,4,2,0,70,0,0
117634,-45.4545454545455,4,2,0,70,0,0
118337,-166.666666666667,4,2,0,70,0,0
118572,-45.4545454545455,4,2,0,70,0,0
120447,-45.4545454545455,4,2,0,70,0,0
120603,-45.4545454545455,4,2,0,5,0,0
120681,-45.4545454545455,4,2,0,70,0,0
120837,-45.4545454545455,4,2,0,5,0,0
120916,-45.4545454545455,4,2,0,70,0,1
124373,-45.4545454545455,4,2,0,5,0,1
124431,-45.4545454545455,4,2,0,70,0,1
125603,-166.666666666667,4,2,0,70,0,1
125759,-166.666666666667,4,2,0,5,0,1
125837,-55.5555555555556,4,2,0,70,0,1
126072,-45.4545454545455,4,2,0,70,0,1
127947,-125,4,2,0,70,0,1
128416,-45.4545454545455,4,2,0,70,0,1
133103,-166.666666666667,4,2,0,70,0,1
133337,-55.5555555555556,4,2,0,70,0,1
133572,-45.4545454545455,4,2,0,70,0,1
134041,-125,4,2,0,70,0,1
135916,-71.4285714285714,4,2,0,70,0,0
136501,-71.4285714285714,4,2,0,5,0,0
136619,-71.4285714285714,4,2,0,70,0,0
136970,-71.4285714285714,4,2,0,5,0,0
137087,-71.4285714285714,4,2,0,70,0,0
139080,-71.4285714285714,4,2,0,5,0,0
139197,-71.4285714285714,4,2,0,70,0,0
140720,-71.4285714285714,4,2,0,5,0,0
140837,-71.4285714285714,4,2,0,70,0,0
143181,-55.5555555555556,4,2,0,70,0,0
143357,-55.5555555555556,4,2,0,5,0,0
143416,-71.4285714285714,4,2,0,70,0,0
144470,-71.4285714285714,4,2,0,5,0,0
144587,-71.4285714285714,4,2,0,70,0,0
146345,-71.4285714285714,4,2,0,5,0,0
146462,-71.4285714285714,4,2,0,70,0,0
146814,-71.4285714285714,4,2,0,5,0,0
146931,-71.4285714285714,4,2,0,70,0,0
147048,-71.4285714285714,4,2,0,5,0,0
147166,-71.4285714285714,4,2,0,70,0,0
148220,-71.4285714285714,4,2,0,5,0,0
148337,-71.4285714285714,4,2,0,70,0,0
148689,-71.4285714285714,4,2,0,5,0,0
148806,-71.4285714285714,4,2,0,70,0,0
148923,-71.4285714285714,4,2,0,5,0,0
149041,-71.4285714285714,4,2,0,70,0,0
150681,-83.3333333333333,4,2,0,70,0,0
150798,-71.4285714285714,4,2,0,5,0,0
150916,-90.9090909090909,4,2,0,40,0,0
151150,-83.3333333333333,4,2,0,45,0,0
151384,-76.9230769230769,4,2,0,50,0,0
151619,-71.4285714285714,4,2,0,55,0,0
151853,-71.4285714285714,4,2,0,60,0,0
152087,-71.4285714285714,4,2,0,65,0,0
152322,-71.4285714285714,4,2,0,70,0,0

[Colours]
Combo1 : 250,88,218
Combo2 : 255,252,111
Combo3 : 108,177,253
Combo4 : 46,252,107

[HitObjects]
478,51,916,6,0,B|367:34|367:34|248:224|248:224|135:206,1,448,4|8,1:0|0:0,0:0:0:0:
0,52,1619,2,0,L|198:34,1,195.999994018555,0|0,1:0|0:0,0:0:0:0:
0,52,2087,6,0,L|13:171,1,112,0|0,1:0|0:0,0:0:0:0:
155,317,2322,1,8,0:0:0:0:
155,317,2556,2,0,L|353:299,1,195.999994018555,0|0,1:0|0:0,0:0:0:0:
155,317,3025,6,0,L|143:204,1,112,0|0,1:0|0:0,0:0:0:0:
241,28,3259,1,8,0:0:0:0:
241,28,3494,2,0,L|439:10,1,195.999994018555,0|0,1:0|0:0,0:0:0:0:
241,28,3962,6,0,P|290:41|311:94,1,112,0|0,1:0|0:0,0:0:0:0:
388,164,4197,2,0,P|386:222|332:261,1,125.999996154785,8|0,1:2|0:0,0:0:0:0:
302,355,4431,2,0,P|237:370|185:327,1,140,4|0,0:2|0:0,0:0:0:0:
43,107,4666,6,0,B|154:92|154:92|254:293|254:293|377:271,1,448,4|8,1:2|0:0,0:0:0:0:
22,345,5369,6,0,P|6:259|94:190,1,195.999994018555,0|0,1:0|0:0,0:0:0:0:
22,345,5837,6,0,P|60:379|124:382,1,112,0|0,1:0|0:0,0:0:0:0:
176,186,6072,1,8,0:0:0:0:
176,186,6306,2,0,P|191:100|103:31,1,195.999994018555,0|0,1:0|0:0,0:0:0:0:
176,186,6775,6,0,P|137:220|73:223,1,112,0|0,1:0|0:0,0:0:0:0:
22,27,7009,1,8,0:0:0:0:
305,86,7244,1,8,1:3:0:0:
381,78,7361,1,4,0:3:0:0:
457,70,7478,6,0,L|443:175,1,97.9999970092774,4|4,1:3|0:3,0:0:0:0:
340,355,7712,2,0,L|327:257,1,97.9999970092774,4|4,1:3|0:3,0:0:0:0:
313,167,7947,1,8,0:2:0:0:
424,259,8064,1,8,0:3:0:0:
253,332,8181,1,4,1:3:0:0:
204,21,8416,6,0,B|231:126|231:126|61:274|61:274|93:382,1,448,4|8,1:0|0:0,0:0:0:0:
84,142,9119,6,0,B|96:42|96:42|8:6,1,195.999994018555,0|0,1:0|0:0,0:0:0:0:
84,142,9587,6,0,B|195:187,1,112,0|0,1:0|0:0,0:0:0:0:
380,256,9822,1,8,0:0:0:0:
380,256,10056,2,0,B|367:156|367:156|455:120,1,195.999994018555,0|0,1:0|0:0,0:0:0:0:
380,256,10525,6,0,B|268:301,1,112,0|0,1:0|0:0,0:0:0:0:
84,370,10759,1,8,0:0:0:0:
84,370,10994,2,0,B|96:270|96:270|8:234,1,195.999994018555,0|0,1:0|0:0,0:0:0:0:
84,370,11462,6,0,P|132:384|177:349,1,112,0|0,1:0|0:0,0:0:0:0:
273,338,11697,2,0,P|301:287|274:226,1,125.999996154785,8|0,1:2|0:0,0:0:0:0:
297,125,11931,2,0,P|249:78|182:88,1,140,4|0,0:2|0:0,0:0:0:0:
0,326,12166,6,0,B|110:343|110:343|229:153|229:153|340:170,1,448,4|8,1:2|0:0,0:0:0:0:
484,82,12869,6,0,B|497:207|418:139|431:269,1,195.999994018555,0|0,1:0|0:0,0:0:0:0:
484,82,13337,6,0,P|455:36|401:30,1,112,0|0,1:0|0:0,0:0:0:0:
252,197,13572,1,8,0:0:0:0:
252,197,13806,2,0,B|239:322|318:254|305:384,1,195.999994018555,0|0,1:0|0:0,0:0:0:0:
252,197,14275,6,0,P|281:151|335:145,1,112,0|0,1:0|0:0,0:0:0:0:
473,241,14509,2,0,P|418:238|386:195,1,112,8|0,0:2|0:0,0:0:0:0:
401,29,14744,2,0,P|426:77|404:126,1,112,0|0,1:2|0:0,0:0:0:0:
148,355,14978,6,0,L|115:76,1,280,4|8,1:2|0:3,0:0:0:0:
6,66,15330,1,8,0:3:0:0:
126,75,15447,6,0,L|159:354,1,279.299988493195,4|0,1:3|0:0,0:0:0:0:
148,355,15916,5,4,1:3:0:0:
224,258,16150,1,2,0:0:0:0:
328,311,16384,1,0,0:0:0:0:
330,316,16462,1,0,0:0:0:0:
332,321,16541,1,0,0:0:0:0:
334,326,16619,1,2,0:0:0:0:
355,175,16853,5,2,0:0:0:0:
389,246,17087,1,0,0:0:0:0:
387,251,17166,1,0,0:0:0:0:
385,256,17244,1,0,0:0:0:0:
383,261,17322,1,2,0:0:0:0:
415,334,17556,1,2,0:0:0:0:
396,106,17791,5,2,0:0:0:0:
312,238,18025,1,2,0:0:0:0:
187,182,18259,1,0,0:0:0:0:
182,184,18337,1,0,0:0:0:0:
177,186,18416,1,0,0:0:0:0:
172,188,18494,1,2,0:0:0:0:
264,166,18728,5,2,0:0:0:0:
213,107,18962,1,0,0:0:0:0:
208,105,19041,1,0,0:0:0:0:
203,103,19119,1,0,0:0:0:0:
198,101,19197,1,2,0:0:0:0:
147,42,19431,1,2,0:0:0:0:
17,197,19666,5,2,0:0:0:0:
121,115,19900,1,2,0:0:0:0:
212,209,20134,1,0,0:0:0:0:
210,204,20212,1,0,0:0:0:0:
208,199,20291,1,0,0:0:0:0:
206,194,20369,1,2,0:0:0:0:
318,109,20603,5,2,0:0:0:0:
295,184,20837,1,0,0:0:0:0:
293,189,20916,1,0,0:0:0:0:
291,194,20994,1,0,0:0:0:0:
289,199,21072,1,2,0:0:0:0:
261,272,21306,1,2,0:0:0:0:
497,328,21541,5,2,0:0:0:0:
338,360,21775,1,2,0:0:0:0:
386,238,22009,1,2,0:0:0:0:
474,255,22244,1,2,0:0:0:0:
432,151,22478,1,2,0:0:0:0:
385,160,22712,1,2,0:0:0:0:
155,43,22947,6,0,L|15:27,1,140,4|0,1:3|0:0,0:0:0:0:
266,57,23181,2,0,L|406:73,1,140,4|0,0:2|0:0,0:0:0:0:
334,242,23416,6,0,B|198:220|269:304|124:290,1,224,4|2,1:2|0:0,0:0:0:0:
113,281,23767,1,0,3:0:0:0:
70,194,23884,1,2,1:3:0:0:
71,189,23963,1,0,0:0:0:0:
71,184,24041,1,0,0:0:0:0:
72,179,24119,2,0,P|125:168|168:209,1,112,2|0,0:0|3:0,0:0:0:0:
211,363,24353,5,2,1:2:0:0:
464,165,24587,1,2,0:0:0:0:
462,170,24666,1,0,0:0:0:0:
460,175,24744,1,0,0:0:0:0:
458,180,24822,2,0,P|405:191|362:150,1,112,2|0,1:3|0:0,0:0:0:0:
246,28,25056,2,0,P|193:16|152:52,1,112,2|0,3:2|0:0,0:0:0:0:
76,164,25291,6,0,B|164:159|164:159|186:121|186:121|283:118,1,224,0|2,1:0|0:2,0:0:0:0:
294,126,25642,1,0,3:0:0:0:
371,63,25759,1,2,1:3:0:0:
376,64,25838,1,0,0:0:0:0:
381,64,25916,1,0,0:0:0:0:
386,65,25994,2,0,B|411:115|411:115|371:161,1,112,2|0,0:0|3:0,0:0:0:0:
333,291,26228,5,2,1:2:0:0:
435,343,26462,1,2,0:2:0:0:
437,338,26541,1,0,0:0:0:0:
439,333,26619,1,0,0:0:0:0:
441,328,26697,2,0,B|460:275|460:275|415:234,1,112,2|0,1:3|0:0,0:0:0:0:
231,262,26931,2,0,B|212:315|212:315|257:356,1,112,2|0,3:2|0:0,0:0:0:0:
388,166,27166,6,0,P|404:114|366:60,1,112,4|0,1:2|0:0,0:0:0:0:
298,39,27400,2,0,P|245:50|217:110,1,112,2|0,1:2|0:0,0:0:0:0:
331,278,27634,1,2,1:3:0:0:
119,356,27869,1,2,1:2:0:0:
83,348,27986,1,0,3:0:0:0:
47,339,28103,6,0,L|37:226,1,112,2|0,1:3|0:0,0:0:0:0:
166,175,28337,2,0,L|175:286,1,112,2|0,1:2|0:0,0:0:0:0:
45,211,28572,2,0,L|35:98,1,112,2|0,1:3|0:0,0:0:0:0:
164,47,28806,2,0,L|173:158,1,112,2|0,1:2|0:0,0:0:0:0:
387,296,29041,6,0,P|418:321|500:321,1,112,2|0,1:3|0:0,0:0:0:0:
381,218,29275,2,0,P|415:197|443:119,1,112,2|0,1:2|0:0,0:0:0:0:
309,196,29509,2,0,P|301:156|237:103,1,112,2|0,1:3|0:0,0:0:0:0:
263,256,29744,2,0,P|223:249|152:291,1,112,2|0,1:2|0:0,0:0:0:0:
501,345,29978,6,0,P|442:339|395:304,1,119.000002269745,2|0,1:3|0:0,0:0:0:0:
464,127,30212,2,0,P|439:180|390:212,1,119.000002269745,8|0,1:3|0:0,0:0:0:0:
248,89,30447,2,0,P|289:130|303:187,1,119.000002269745,4|0,1:3|0:0,0:0:0:0:
136,278,30681,2,0,P|189:253|247:259,1,119.000002269745,4|0,1:3|0:0,0:0:0:0:
296,335,30916,5,6,1:2:0:0:
296,335,31150,1,0,0:3:0:0:
367,371,31384,1,2,0:3:0:0:
367,363,31462,1,0,0:3:0:0:
373,357,31541,1,0,0:3:0:0:
375,350,31619,1,0,0:3:0:0:
296,335,31853,5,2,0:3:0:0:
296,335,32087,1,0,0:3:0:0:
367,371,32322,1,2,0:3:0:0:
366,360,32400,1,0,0:3:0:0:
373,351,32479,1,0,0:3:0:0:
374,340,32557,1,0,0:3:0:0:
296,335,32791,5,2,0:3:0:0:
296,335,33025,1,0,0:3:0:0:
367,371,33259,1,2,0:3:0:0:
364,355,33337,1,0,0:3:0:0:
373,342,33416,1,0,0:3:0:0:
371,326,33494,1,0,0:3:0:0:
296,335,33728,1,2,0:3:0:0:
445,377,33962,6,0,L|427:104,1,269.849990529557,2|0,1:0|0:0,0:0:0:0:
415,99,34197,1,2,0:3:0:0:
512,144,34431,1,0,0:0:0:0:
216,335,34666,5,6,1:2:0:0:
216,335,34900,1,0,0:3:0:0:
145,371,35134,1,2,0:3:0:0:
145,363,35212,1,0,0:3:0:0:
139,357,35291,1,0,0:3:0:0:
137,350,35369,1,0,0:3:0:0:
216,335,35603,5,2,0:3:0:0:
216,335,35837,1,0,0:3:0:0:
145,371,36072,1,2,0:3:0:0:
146,360,36150,1,0,0:3:0:0:
139,351,36229,1,0,0:3:0:0:
138,340,36307,1,0,0:3:0:0:
216,335,36541,5,2,0:3:0:0:
216,335,36775,1,0,0:3:0:0:
145,371,37009,1,2,0:3:0:0:
148,355,37087,1,0,0:3:0:0:
139,342,37166,1,0,0:3:0:0:
141,326,37244,1,0,0:3:0:0:
216,335,37478,1,2,0:3:0:0:
67,377,37712,6,0,L|85:104,1,269.849990529557,2|0,1:0|0:0,0:0:0:0:
97,99,37947,1,2,0:3:0:0:
0,144,38181,1,0,0:0:0:0:
296,335,38416,5,6,1:3:0:0:
296,319,38650,1,0,0:0:0:0:
213,333,38884,1,2,1:3:0:0:
211,308,39119,1,0,0:0:0:0:
296,319,39275,5,0,3:0:0:0:
296,313,39353,1,2,1:3:0:0:
300,264,39587,1,0,0:0:0:0:
211,308,39822,1,2,1:3:0:0:
202,244,40056,1,0,0:0:0:0:
300,264,40212,5,0,3:0:0:0:
300,259,40291,1,2,1:3:0:0:
309,187,40525,1,0,0:0:0:0:
202,244,40759,1,2,1:3:0:0:
183,166,40994,1,0,0:0:0:0:
309,187,41150,5,0,3:0:0:0:
311,180,41228,1,2,1:3:0:0:
362,103,41462,1,2,0:1:0:0:
183,166,41619,1,0,3:0:0:0:
178,159,41697,1,2,1:3:0:0:
168,84,41853,1,0,3:0:0:0:
175,70,41931,1,0,3:0:0:0:
270,32,42087,5,0,3:0:0:0:
292,11,42166,2,0,P|340:-12|401:-8,1,111.999996582031,6|0,1:3|0:0,0:0:0:0:
220,11,42400,2,0,P|171:-12|110:-8,1,111.999996582031,0|0,1:0|0:0,0:0:0:0:
311,48,42634,6,0,P|359:32|408:44,1,102.666669799805,6|0,1:3|0:0,0:0:0:0:
201,48,42869,2,0,P|152:32|103:44,1,102.666669799805,0|0,1:0|0:0,0:0:0:0:
336,84,43103,6,0,P|381:88|425:110,1,93.3333333333333,6|0,1:3|0:0,0:0:0:0:
175,83,43337,2,0,P|129:88|88:109,1,93.3333333333333,0|0,1:0|0:0,0:0:0:0:
377,141,43572,6,0,P|413:160|436:194,1,83.9999974365235,6|0,1:3|0:0,0:0:0:0:
135,141,43806,2,0,P|98:160|75:194,1,83.9999974365235,0|0,1:0|0:0,0:0:0:0:
427,214,44041,6,0,P|443:246|439:283,1,74.6666666666667,6|0,1:3|0:0,0:0:0:0:
85,214,44275,2,0,P|69:246|73:283,1,74.6666666666667,0|0,1:0|0:0,0:0:0:0:
467,309,44509,6,0,P|466:341|447:367,1,65.3333313395183,6|0,1:3|0:0,0:0:0:0:
45,309,44744,2,0,P|46:341|65:367,1,65.3333313395183,0|0,1:0|0:0,0:0:0:0:
254,384,44978,5,2,0:0:0:0:
254,384,45212,1,0,3:0:0:0:
470,34,45447,6,0,B|499:63|499:63|483:102,1,83.9999974365235,2|2,0:1|0:0,0:0:0:0:
355,249,45916,6,0,L|407:257,8,50.7500015487671,0|0|0|0|0|0|0|0|0,1:2|0:0|1:0|0:0|1:0|0:0|1:0|0:0|1:0,0:0:0:0:
238,337,46384,6,2,L|266:59,1,269.849990529557,0|0,1:2|0:0,0:2:0:0:
276,64,46619,2,0,L|248:332,1,269.849990529557,2|0,0:2|0:0,0:0:0:0:
63,280,46853,6,0,L|66:264,4,14,4|0|0|0|0,1:2|0:0|0:0|0:0|0:0,0:0:0:0:
265,68,47322,6,2,L|238:337,1,269.849990529557,0|0,1:2|0:0,0:2:0:0:
248,332,47556,2,0,L|276:64,1,269.849990529557,2|0,0:2|0:0,0:0:0:0:
458,128,47791,6,0,L|456:142,4,14,4|0|0|0|0,1:2|0:0|0:0|0:0|0:0,0:0:0:0:
471,49,48025,1,4,0:3:0:0:
238,337,48259,6,2,L|266:59,1,269.849990529557,0|0,1:0|0:0,0:0:0:0:
276,64,48494,1,2,0:0:0:0:
171,167,48611,1,2,0:0:0:0:
326,248,48728,6,0,L|497:234,1,167.999994873047,2|0,1:0|0:0,0:0:0:0:
497,365,48962,2,2,L|329:378,1,167.999994873047,0|0,0:0|0:0,0:1:0:0:
333,255,49197,6,0,L|504:241,1,167.999994873047,2|0,1:0|0:0,0:0:0:0:
504,372,49431,2,2,L|336:385,1,167.999994873047,0|0,0:0|0:0,0:1:0:0:
67,271,49666,6,0,L|119:279,8,50.7500015487671,4|0|0|0|0|0|0|0|0,1:2|0:0|1:0|0:0|1:0|0:0|1:0|0:0|1:0,0:0:0:0:
323,138,50134,6,2,B|181:108|208:212|59:172,1,269.849990529557,0|0,1:0|0:0,0:2:0:0:
63,162,50369,2,0,B|206:200|179:96|321:126,1,269.849990529557,2|0,0:0|0:0,0:0:0:0:
375,267,50603,6,0,L|372:280,4,14,4|0|0|0|0,1:2|0:0|0:0|0:0|0:0,0:0:0:0:
64,173,51072,6,2,B|208:212|181:108|323:138,1,269.849990529557,0|0,1:0|0:0,0:2:0:0:
321,126,51306,2,0,B|179:96|206:200|63:162,1,269.849990529557,2|0,0:0|0:0,0:0:0:0:
18,13,51541,6,0,L|22:-8,4,14,4|0|0|0|0,1:2|0:0|0:0|0:0|0:0,0:0:0:0:
2,92,51775,1,4,0:3:0:0:
323,138,52009,6,6,B|181:108|208:212|64:173,1,269.849990529557,0|0,1:0|0:0,0:2:0:0:
63,162,52244,2,0,B|206:200|179:96|321:126,1,269.849990529557,2|0,0:0|0:0,0:0:0:0:
497,243,52478,6,0,B|422:250|422:250|392:295|392:295|313:303,1,203.000006195069,2|0,1:0|0:0,0:1:0:0:
193,302,52712,2,0,B|120:295|120:295|90:250|90:250|15:243,1,203.000006195069,2|0,0:1|0:0,0:0:0:0:
501,251,52947,6,0,B|426:258|426:258|396:303|396:303|317:311,1,203.000006195069,2|0,1:0|0:0,0:1:0:0:
189,310,53181,2,0,B|115:302|115:302|85:257|85:257|10:250,1,203.000006195069,2|0,0:1|0:0,0:0:0:0:
2,92,53416,6,0,L|10:40,8,50.7500015487671,4|0|0|0|0|0|0|0|0,1:2|0:0|1:0|0:0|1:0|0:0|1:0|0:0|1:0,0:0:0:0:
125,209,53884,6,2,L|403:181,1,269.849990529557,0|0,1:2|0:0,0:2:0:0:
398,171,54119,2,0,L|130:198,1,269.849990529557,2|0,0:2|0:0,0:0:0:0:
34,355,54353,6,0,L|18:352,4,14,4|0|0|0|0,1:2|0:0|0:0|0:0|0:0,0:0:0:0:
393,181,54822,6,2,L|125:209,1,269.849990529557,0|0,1:2|0:0,0:2:0:0:
130,198,55056,2,0,L|398:171,1,269.849990529557,2|0,0:2|0:0,0:0:0:0:
489,25,55291,6,0,L|505:28,4,14,4|0|0|0|0,1:2|0:0|0:0|0:0|0:0,0:0:0:0:
411,9,55525,1,4,0:3:0:0:
124,208,55759,6,2,L|402:180,1,269.849990529557,0|0,1:0|0:0,0:2:0:0:
398,171,55994,1,2,0:0:0:0:
458,294,56111,1,2,0:0:0:0:
265,370,56228,6,0,L|94:356,1,167.999994873047,2|0,1:0|0:0,0:0:0:0:
124,208,56462,2,2,L|292:221,1,167.999994873047,0|0,0:0|0:0,0:1:0:0:
258,377,56697,6,0,L|87:363,1,167.999994873047,2|0,1:0|0:0,0:0:0:0:
117,215,56931,2,2,L|285:228,1,167.999994873047,0|0,0:0|0:0,0:1:0:0:
458,294,57166,6,0,L|450:343,8,50.7500015487671,4|0|0|0|0|0|0|0|0,1:2|0:0|1:0|0:0|1:0|0:0|1:0|0:0|1:0,0:0:0:0:
229,52,57634,6,2,P|184:177|233:299,1,269.849990529557,0|0,1:0|0:0,0:2:0:0:
244,298,57869,2,0,P|194:175|241:52,1,269.849990529557,2|0,0:0|0:0,0:0:0:0:
444,27,58103,6,0,L|457:30,4,14,4|0|0|0|0,1:2|0:0|0:0|0:0|0:0,0:0:0:0:
233,299,58572,6,2,P|184:177|229:52,1,269.849990529557,0|0,1:0|0:0,0:2:0:0:
240,52,58806,2,0,P|194:176|244:298,1,269.849990529557,2|0,0:0|0:0,0:0:0:0:
42,357,59041,6,0,L|21:353,4,14,4|0|0|0|0,1:2|0:0|0:0|0:0|0:0,0:0:0:0:
119,377,59275,1,4,0:1:0:0:
228,52,59509,6,2,P|183:176|233:299,1,269.849990529557,0|0,1:0|0:0,0:2:0:0:
244,299,59744,1,2,0:0:0:0:
377,276,59861,1,2,0:0:0:0:
322,169,59978,5,0,1:0:0:0:
333,171,60056,1,0,0:0:0:0:
344,173,60134,1,0,0:0:0:0:
355,175,60212,1,0,0:0:0:0:
366,177,60291,1,0,0:0:0:0:
377,179,60369,1,0,0:0:0:0:
395,183,60447,5,4,1:3:0:0:
433,167,60525,1,0,0:0:0:0:
448,118,60603,1,0,0:0:0:0:
423,66,60681,5,4,1:2:0:0:
355,50,60759,1,0,0:0:0:0:
302,97,60837,1,0,0:0:0:0:
322,169,60916,5,4,1:0:0:0:
73,14,61150,2,0,L|90:140,1,125.999996154785,8|0,0:1|0:0,0:0:0:0:
14,234,61384,6,2,B|215:229|215:229|242:165,1,269.849990529557,4|0,1:3|0:0,0:2:0:0:
248,155,61619,2,0,B|47:160|47:160|19:223,1,269.849990529557,8|0,0:1|0:0,0:0:0:0:
26,364,61853,6,0,L|12:366,4,14,4|0|0|0|0,1:2|0:0|0:0|0:0|0:0,0:0:0:0:
189,375,62087,2,0,L|172:249,1,125.999996154785,8|0,0:1|0:0,0:0:0:0:
248,155,62322,6,2,B|47:160|47:160|19:223,1,269.849990529557,4|0,1:3|0:0,0:2:0:0:
14,234,62556,2,0,B|215:229|215:229|242:165,1,269.849990529557,8|0,0:1|0:0,0:0:0:0:
236,25,62791,6,0,L|250:23,4,14,4|0|0|0|0,1:2|0:0|0:0|0:0|0:0,0:0:0:0:
73,14,63025,2,0,L|90:140,1,125.999996154785,8|0,0:1|0:0,0:0:0:0:
14,234,63259,6,2,B|215:229|215:229|242:165,1,269.849990529557,4|0,1:3|0:0,0:2:0:0:
248,155,63494,1,8,0:1:0:0:
384,263,63611,1,2,0:0:0:0:
239,367,63728,6,0,L|54:380,1,167.999994873047,2|0,1:0|0:0,0:0:0:0:
14,234,63962,2,2,L|181:222,1,167.999994873047,8|0,0:1|0:0,0:1:0:0:
246,373,64197,6,0,L|61:386,1,167.999994873047,2|0,1:0|0:0,0:0:0:0:
21,241,64431,2,2,L|188:229,1,167.999994873047,8|0,0:1|0:0,0:1:0:0:
345,357,64666,5,4,1:2:0:0:
502,207,64900,2,0,P|481:158|408:148,1,125.999996154785,8|0,0:1|0:0,0:0:0:0:
365,231,65134,6,2,B|340:307|235:305|227:155|240:115,1,269.849990529557,4|0,1:3|0:0,0:2:0:0:
247,99,65369,2,0,B|272:23|377:25|385:175|372:215,1,269.849990529557,8|0,0:1|0:0,0:0:0:0:
201,302,65603,6,0,L|199:316,4,14,4|0|0|0|0,1:2|0:0|0:0|0:0|0:0,0:0:0:0:
110,124,65837,2,0,P|131:173|204:183,1,125.999996154785,8|0,0:1|0:0,0:0:0:0:
247,99,66072,6,2,B|272:23|377:25|385:175|372:215,1,269.849990529557,4|0,1:3|0:0,0:2:0:0:
365,231,66307,2,0,B|340:307|235:305|227:155|240:115,1,269.849990529557,8|0,0:1|0:0,0:0:0:0:
411,29,66541,6,0,L|413:15,4,14,4|0|0|0|0,1:2|0:0|0:0|0:0|0:0,0:0:0:0:
502,207,66775,2,0,P|481:158|408:148,1,125.999996154785,8|0,0:1|0:0,0:0:0:0:
365,231,67009,6,2,B|340:307|235:305|227:155|240:115,1,269.849990529557,4|0,1:3|0:0,0:2:0:0:
247,99,67244,2,0,B|272:23|377:25|385:175|372:215,1,269.849990529557,8|0,0:1|0:0,0:0:0:0:
201,373,67478,6,0,B|147:336|147:336|167:200,1,203.000006195069,2|0,1:0|0:0,0:0:0:0:
91,170,67712,2,0,B|72:33|72:33|10:13,1,203.000006195069,10|0,0:1|0:0,0:0:0:0:
210,368,67947,6,0,B|156:331|156:331|176:195,1,203.000006195069,10|0,1:0|0:0,0:0:0:0:
82,176,68181,2,0,B|63:39|63:39|1:19,1,203.000006195069,10|0,0:1|0:0,0:0:0:0:
3,291,68416,5,4,1:2:0:0:
405,167,68650,2,0,L|270:176,1,125.999996154785,8|0,0:1|0:0,0:0:0:0:
167,199,68884,6,2,B|199:329|199:329|333:355,1,269.849990529557,4|0,1:3|0:0,0:2:0:0:
346,357,69119,2,0,B|314:227|314:227|180:201,1,269.849990529557,8|0,0:1|0:0,0:0:0:0:
29,157,69353,6,0,L|15:155,4,14,4|0|0|0|0,1:2|0:0|0:0|0:0|0:0,0:0:0:0:
90,369,69587,2,0,L|225:360,1,125.999996154785,8|0,0:1|0:0,0:0:0:0:
346,357,69822,6,2,B|314:227|314:227|180:201,1,269.849990529557,4|0,1:3|0:0,0:2:0:0:
167,199,70056,2,0,B|199:329|199:329|333:355,1,269.849990529557,8|0,0:1|0:0,0:0:0:0:
466,379,70291,6,0,L|480:381,4,14,4|0|0|0|0,1:2|0:0|0:0|0:0|0:0,0:0:0:0:
405,167,70525,2,0,L|270:176,1,125.999996154785,8|0,0:1|0:0,0:0:0:0:
167,199,70759,6,2,B|199:329|199:329|333:355,1,269.849990529557,4|0,1:3|0:0,0:2:0:0:
346,357,70994,1,8,0:1:0:0:
251,237,71111,1,2,0:0:0:0:
329,90,71228,6,0,L|339:257,1,167.999994873047,2|0,1:0|0:0,0:0:0:0:
504,305,71462,2,2,L|495:137,1,167.999994873047,8|0,0:1|0:0,0:1:0:0:
322,83,71697,6,0,L|332:250,1,167.999994873047,2|0,1:0|0:0,0:0:0:0:
497,298,71931,2,2,L|488:130,1,167.999994873047,8|0,0:1|0:0,0:1:0:0:
242,19,72166,5,4,1:2:0:0:
45,162,72400,2,0,P|96:208|144:190,1,125.999996154785,8|0,0:1|0:0,0:0:0:0:
241,126,72634,6,2,P|287:247|174:293,1,269.849990529557,4|0,1:3|0:0,0:2:0:0:
169,290,72869,2,0,P|122:168|235:122,1,269.849990529557,8|0,0:1|0:0,0:0:0:0:
291,351,73103,6,0,L|289:365,4,14,4|0|0|0|0,1:2|0:0|0:0|0:0|0:0,0:0:0:0:
365,253,73337,2,0,P|314:207|266:225,1,125.999996154785,8|0,0:1|0:0,0:0:0:0:
169,290,73572,6,2,P|122:168|235:122,1,269.849990529557,4|0,1:3|0:0,0:2:0:0:
241,126,73806,2,0,P|287:247|174:293,1,269.849990529557,8|0,0:1|0:0,0:0:0:0:
118,63,74041,6,0,L|120:49,4,14,4|0|0|0|0,1:2|0:0|0:0|0:0|0:0,0:0:0:0:
45,162,74275,2,0,P|96:208|144:190,1,125.999996154785,8|0,0:1|0:0,0:0:0:0:
241,126,74509,6,2,P|287:247|174:293,1,269.849990529557,4|0,1:3|0:0,0:2:0:0:
169,290,74744,1,8,0:1:0:0:
327,338,74861,1,2,0:0:0:0:
423,188,74978,5,4,1:3:0:0:
425,199,75056,1,0,0:0:0:0:
427,210,75134,1,0,0:0:0:0:
429,221,75212,1,8,0:1:0:0:
431,232,75291,1,0,0:0:0:0:
433,243,75369,1,0,0:0:0:0:
437,268,75447,5,4,1:3:0:0:
439,244,75525,1,0,0:0:0:0:
441,220,75603,1,0,0:0:0:0:
443,196,75681,1,0,0:0:0:0:
445,172,75759,1,0,0:0:0:0:
447,148,75837,1,0,0:0:0:0:
450,123,75916,5,4,1:0:0:0:
134,196,76150,1,2,0:1:0:0:
23,69,76384,2,0,L|14:166,1,97.9999970092774,8|0,1:0|0:0,0:0:0:0:
3,276,76619,6,2,B|184:226|99:352|282:308,1,293.999991027832,4|0,1:2|0:0,0:1:0:0:
324,197,77087,1,0,1:0:0:0:
306,219,77205,1,2,0:0:0:0:
279,226,77322,1,8,1:0:0:0:
211,200,77439,1,2,0:0:0:0:
191,132,77556,1,2,0:1:0:0:
233,76,77673,1,2,0:0:0:0:
304,75,77790,5,4,1:2:0:0:
505,298,78025,1,2,0:1:0:0:
225,367,78259,1,8,1:0:0:0:
503,290,78494,6,2,L|483:73,1,195.999994018555,4|0,1:2|0:0,0:1:0:0:
418,354,78962,2,0,L|408:245,1,97.9999970092774,0|0,1:0|0:0,0:1:0:0:
391,52,79197,1,10,1:0:0:0:
482,181,79431,1,2,0:1:0:0:
405,166,79548,1,2,0:0:0:0:
328,151,79666,5,4,1:2:0:0:
24,318,79900,1,2,0:1:0:0:
234,380,80134,2,0,L|239:268,1,97.9999970092774,8|0,1:0|0:0,0:0:0:0:
258,166,80369,6,2,B|146:156|146:156|126:93|126:93|10:81,1,293.999991027832,4|0,1:2|0:0,0:1:0:0:
2,90,80837,2,0,P|0:136|43:182,1,97.9999970092774,0|0,1:0|0:0,0:0:0:0:
233,79,81072,1,8,1:0:0:0:
296,44,81190,1,2,0:0:0:0:
367,57,81307,1,2,0:1:0:0:
415,111,81424,1,2,0:0:0:0:
420,183,81541,5,4,1:2:0:0:
92,15,81775,1,2,0:1:0:0:
230,312,82009,1,8,1:0:0:0:
235,273,82126,1,0,0:0:0:0:
239,235,82244,1,2,1:0:0:0:
19,285,82478,5,2,1:1:0:0:
411,229,82712,1,2,1:0:0:0:
335,211,82830,1,4,1:3:0:0:
310,285,82947,2,0,P|316:329|368:363,1,97.9999970092774,8|0,1:0|0:0,0:0:0:0:
508,284,83181,2,2,L|490:93,1,188.999994232178,4|0,0:2|0:0,0:1:0:0:
484,46,83416,5,4,1:0:0:0:
239,235,83650,1,2,0:1:0:0:
439,347,83884,1,8,1:0:0:0:
437,341,83962,1,0,0:0:0:0:
436,335,84041,1,0,0:0:0:0:
435,329,84119,6,2,B|369:379|369:379|158:349,1,293.999991027832,4|0,1:2|0:0,0:1:0:0:
95,228,84587,1,0,1:0:0:0:
108,253,84705,1,0,0:0:0:0:
134,263,84822,1,8,1:0:0:0:
199,234,84939,1,2,0:0:0:0:
213,165,85056,1,2,0:1:0:0:
166,113,85173,1,2,0:0:0:0:
95,121,85290,5,4,1:2:0:0:
490,23,85525,1,2,0:1:0:0:
482,322,85759,2,0,L|462:215,1,97.9999970092774,8|0,1:0|0:0,0:0:0:0:
436,97,85994,2,2,L|142:51,1,293.999991027832,4|0,1:2|0:0,0:1:0:0:
136,50,86462,6,0,P|90:66|59:103,1,97.9999970092774,0|0,1:0|0:0,0:0:0:0:
249,194,86697,2,0,P|257:146|239:101,1,97.9999970092774,8|0,1:0|0:0,0:0:0:0:
69,220,86931,2,0,P|105:251|153:258,1,97.9999970092774,2|0,0:1|0:0,0:0:0:0:
152,154,87166,5,4,1:2:0:0:
473,132,87400,1,2,0:1:0:0:
353,341,87634,1,8,1:0:0:0:
361,303,87751,1,2,0:0:0:0:
369,265,87869,2,2,B|263:247|263:247|207:303|207:303|102:286,1,293.999991027832,4|0,1:2|0:0,0:1:0:0:
92,281,88337,6,0,L|78:175,1,97.9999970092774,0|0,1:0|0:0,0:0:0:0:
257,116,88572,2,0,L|172:181,1,97.9999970092774,8|0,1:0|0:0,0:0:0:0:
31,55,88806,2,0,L|129:95,1,97.9999970092774,2|0,0:1|0:0,0:0:0:0:
302,182,89041,5,6,1:2:0:0:
307,187,89275,2,0,B|417:177,1,97.9999970092774,0|0,0:2|0:0,0:0:0:0:
498,163,89509,1,10,1:0:0:0:
149,229,89743,2,0,B|259:239,1,97.9999970092774,0|0,1:2|0:0,0:0:0:0:
479,256,89978,5,2,1:0:0:0:
60,314,90212,1,2,1:0:0:0:
135,303,90330,1,4,1:3:0:0:
149,229,90447,2,0,P|133:188|69:162,1,97.9999970092774,10|0,1:0|0:0,0:0:0:0:
136,63,90681,2,0,P|92:61|43:110,1,83.9999974365235,2|0,1:0|0:0,0:1:0:0:
12,147,90916,5,6,1:2:0:0:
12,147,91150,1,0,0:3:0:0:
43,84,91384,1,2,0:3:0:0:
42,78,91462,1,0,0:0:0:0:
45,72,91541,1,0,0:0:0:0:
43,66,91619,1,0,0:0:0:0:
12,147,91853,5,2,0:3:0:0:
12,147,92087,1,0,0:3:0:0:
41,77,92322,1,2,0:3:0:0:
36,67,92400,1,0,0:0:0:0:
41,57,92479,1,0,0:0:0:0:
37,47,92557,1,0,0:0:0:0:
12,147,92791,5,2,0:3:0:0:
12,147,93025,1,0,0:3:0:0:
41,77,93259,1,2,0:3:0:0:
31,63,93337,1,0,0:0:0:0:
36,46,93416,1,0,0:0:0:0:
27,31,93494,1,0,0:0:0:0:
12,147,93728,1,2,0:3:0:0:
114,48,93962,6,0,L|96:321,1,269.849990529557,2|0,1:0|0:0,0:0:0:0:
95,329,94197,1,2,0:3:0:0:
12,237,94431,1,0,0:0:0:0:
500,147,94666,5,6,1:2:0:0:
500,147,94900,1,0,0:3:0:0:
469,84,95134,1,2,0:3:0:0:
470,78,95212,1,0,0:0:0:0:
467,72,95291,1,0,0:0:0:0:
469,66,95369,1,0,0:0:0:0:
500,147,95603,5,2,0:3:0:0:
500,147,95837,1,0,0:3:0:0:
471,77,96072,1,2,0:3:0:0:
476,67,96150,1,0,0:0:0:0:
471,57,96229,1,0,0:0:0:0:
475,47,96307,1,0,0:0:0:0:
500,147,96541,5,2,0:3:0:0:
500,147,96775,1,0,0:3:0:0:
471,77,97009,1,2,0:3:0:0:
481,63,97087,1,0,0:0:0:0:
476,46,97166,1,0,0:0:0:0:
485,31,97244,1,0,0:0:0:0:
500,147,97478,1,2,0:3:0:0:
398,48,97712,6,2,L|416:321,1,269.849990529557,0|0,1:0|0:0,0:1:0:0:
418,328,97947,2,2,L|496:336,1,73.4999977569581,0|0,0:0|0:0,0:2:0:0:
500,237,98416,5,6,1:3:0:0:
484,237,98650,1,0,0:0:0:0:
500,147,98884,1,2,1:3:0:0:
475,145,99119,1,0,0:0:0:0:
484,237,99275,5,0,3:0:0:0:
478,237,99353,1,2,1:3:0:0:
429,241,99587,1,0,0:0:0:0:
475,145,99822,1,2,1:3:0:0:
411,136,100056,1,0,0:0:0:0:
429,241,100212,5,0,3:0:0:0:
424,241,100291,1,2,1:3:0:0:
352,250,100525,1,0,0:0:0:0:
411,136,100759,1,2,1:3:0:0:
333,117,100994,1,0,0:0:0:0:
352,250,101150,5,0,3:0:0:0:
345,252,101228,1,2,1:3:0:0:
268,303,101462,1,2,0:1:0:0:
333,117,101619,1,0,3:0:0:0:
326,112,101697,1,2,1:3:0:0:
238,78,101853,1,0,3:0:0:0:
221,77,101931,1,0,3:0:0:0:
120,116,102087,5,0,3:0:0:0:
105,132,102166,2,0,P|54:147|-13:145,1,111.999996582031,6|0,1:3|0:0,0:0:0:0:
103,250,102400,2,0,P|50:235|-5:237,1,111.999996582031,0|0,1:0|0:0,0:0:0:0:
120,116,102634,6,0,P|57:104|15:66,1,102.666669799805,6|0,1:3|0:0,0:0:0:0:
119,268,102869,2,0,P|69:273|27:301,1,102.666669799805,0|0,1:0|0:0,0:0:0:0:
151,113,103103,6,0,P|116:72|119:15,1,93.3333333333333,6|0,1:3|0:0,0:0:0:0:
150,269,103337,2,0,P|118:302|111:348,1,93.3333333333333,0|0,1:0|0:0,0:0:0:0:
205,104,103572,6,0,P|201:58|227:22,1,83.9999974365235,6|0,1:3|0:0,0:0:0:0:
205,280,103806,2,0,P|201:326|227:362,1,83.9999974365235,0|0,1:0|0:0,0:0:0:0:
292,74,104041,6,0,P|311:47|349:24,1,74.6666666666667,6|0,1:3|0:0,0:0:0:0:
292,310,104275,2,0,P|311:337|349:360,1,74.6666666666667,0|0,1:0|0:0,0:0:0:0:
424,32,104509,6,0,P|456:19|499:9,1,65.3333313395183,6|0,1:3|0:0,0:0:0:0:
424,352,104744,2,0,P|456:365|499:375,1,65.3333313395183,0|0,1:0|0:0,0:0:0:0:
512,192,104978,5,2,0:0:0:0:
450,244,105212,2,0,L|412:238,1,20.9999993591309,0|0,3:0|0:0,0:0:0:0:
211,31,105447,6,0,L|209:21,4,7,8|2|2|0|0,0:2|0:0|0:0|0:1|0:1,0:0:0:0:
224,102,105681,1,4,1:3:0:0:
379,182,105916,6,2,B|343:247|316:188|316:188|289:130|258:191|258:191|232:238|204:193|204:193|185:162|167:196|167:196|152:226|133:198|133:198|114:185|92:195,1,392,4|0,1:0|0:0,0:2:0:0:
34,236,106384,6,0,P|24:285|151:358,1,205.33333959961,8|0,1:0|0:0,0:1:0:0:
262,271,106619,2,0,P|272:222|145:149,1,205.33333959961,2|0,0:2|0:0,0:0:0:0:
95,194,106853,6,2,B|113:180|136:194|136:194|155:207|176:190|176:190|197:169|229:187|229:187|260:209|285:184|285:184|328:150|380:183,1,308.000009399414,0|2,1:0|3:2,0:2:0:0:
429,204,107166,1,0,3:0:0:0:
473,178,107244,1,0,3:0:0:0:
475,126,107322,6,0,P|451:81|307:104,1,205.33333959961,8|0,1:0|0:0,0:0:0:0:
275,242,107557,2,0,P|298:286|442:263,1,205.33333959961,2|0,0:2|0:0,0:0:0:0:
378,182,107791,5,0,1:0:0:0:
318,168,107869,1,0,3:0:0:0:
266,196,107947,1,0,3:2:0:0:
207,180,108025,1,2,3:2:0:0:
158,200,108103,1,0,3:0:0:0:
95,195,108181,1,0,3:0:0:0:
33,243,108259,6,0,P|42:339|134:370,1,205.33333959961,8|0,1:0|0:0,0:0:0:0:
262,277,108494,2,0,P|253:181|161:150,1,205.33333959961,2|0,0:2|0:0,0:0:0:0:
33,140,108728,6,0,P|42:44|134:13,1,205.33333959961,0|0,1:0|0:0,0:0:0:0:
262,106,108963,2,0,P|253:202|161:233,1,205.33333959961,2|0,0:2|0:0,0:0:0:0:
95,195,109197,5,8,1:0:0:0:
359,66,109431,1,2,0:3:0:0:
459,333,109666,6,0,P|426:339|401:365,12,70,4|0|0|0|0|0|0|0|0|0|0|0|0,1:2|0:0|1:0|0:0|1:0|0:0|1:0|0:0|1:0|0:0|1:0|0:0|1:0,0:0:0:0:
232,374,110134,6,0,P|142:335|141:238,1,205.33333959961,8|0,1:0|0:0,0:0:0:0:
276,157,110369,2,0,P|365:195|366:292,1,205.33333959961,2|0,0:2|0:0,0:0:0:0:
319,357,110603,5,2,1:0:0:0:
93,110,110837,2,0,P|118:122|147:127,1,55.9999982910157,2|2,0:0|0:0,0:0:0:0:
219,115,111072,6,0,P|182:25|85:22,1,205.33333959961,8|0,1:0|0:0,0:0:0:0:
1,154,111307,2,0,P|37:243|134:246,1,205.33333959961,2|0,0:2|0:0,0:0:0:0:
146,127,111541,5,0,1:0:0:0:
171,186,111619,1,0,3:0:0:0:
223,214,111697,1,0,3:2:0:0:
243,272,111775,1,2,3:2:0:0:
287,301,111853,1,0,3:0:0:0:
319,357,111931,1,0,3:0:0:0:
232,374,112009,6,0,P|142:335|141:238,1,205.33333959961,8|0,1:0|0:0,0:0:0:0:
276,157,112244,2,0,P|365:195|366:292,1,205.33333959961,2|0,0:2|0:0,0:0:0:0:
407,365,112478,6,0,P|496:326|497:229,1,205.33333959961,0|0,1:0|0:0,0:0:0:0:
363,148,112712,2,0,P|273:186|272:283,1,205.33333959961,2|0,0:2|0:0,0:0:0:0:
319,357,112947,6,0,L|309:375,4,14,8|0|0|0|0,1:0|0:0|0:0|0:0|0:0,0:0:0:0:
469,142,113181,1,2,3:0:0:0:
136,239,113416,6,2,B|163:169|197:225|197:225|230:279|254:215|254:215|274:164|307:205|307:205|330:234|344:199|344:199|355:166|377:192|377:192|398:202|419:190,1,392,4|0,1:0|0:0,0:2:0:0:
469,142,113884,6,0,P|472:91|337:34,1,205.33333959961,8|0,1:0|0:0,0:1:0:0:
238,135,114119,2,0,P|233:184|368:241,1,205.33333959961,2|0,0:2|0:0,0:0:0:0:
415,192,114353,6,2,B|396:208|373:196|373:196|350:185|334:205|334:205|313:231|282:214|282:214|252:196|227:224|227:224|184:262|133:238,1,308.000009399414,0|2,1:0|3:2,0:2:0:0:
81,222,114666,1,0,3:0:0:0:
40,253,114744,1,0,3:0:0:0:
44,305,114822,6,0,P|72:346|212:305,1,205.33333959961,8|0,1:0|0:0,0:0:0:0:
229,166,115057,2,0,P|200:124|60:165,1,205.33333959961,2|0,0:2|0:0,0:0:0:0:
134,239,115291,5,0,1:0:0:0:
195,245,115369,1,0,3:0:0:0:
243,210,115447,1,0,3:2:0:0:
304,219,115525,1,2,3:2:0:0:
350,193,115603,1,0,3:0:0:0:
414,191,115681,1,0,3:0:0:0:
469,135,115759,6,0,P|448:39|352:20,1,205.33333959961,8|0,1:0|0:0,0:0:0:0:
237,129,115994,2,0,P|256:223|352:242,1,205.33333959961,2|0,0:2|0:0,0:0:0:0:
482,238,116228,6,0,P|484:333|396:376,1,205.33333959961,0|0,1:0|0:0,0:0:0:0:
259,300,116463,2,0,P|255:203|343:160,1,205.33333959961,2|0,0:2|0:0,0:0:0:0:
414,191,116697,5,8,1:0:0:0:
494,20,116853,1,0,3:0:0:0:
494,20,116931,1,0,3:0:0:0:
6,115,117166,6,0,P|37:129|56:158,12,70,4|0|0|0|0|0|0|0|0|0|0|0|0,1:2|0:0|1:0|0:0|1:0|0:0|1:0|0:0|1:0|0:0|1:0|0:0|1:0,0:0:0:0:
132,305,117634,6,0,P|212:360|295:310,1,205.33333959961,8|0,1:0|0:0,0:0:0:0:
293,152,117869,2,0,P|213:96|130:147,1,205.33333959961,2|0,0:2|0:0,0:0:0:0:
101,222,118103,5,2,1:0:0:0:
388,245,118337,2,0,P|372:268|364:295,1,55.9999982910157,2|2,0:0|0:0,0:0:0:0:
381,375,118572,6,0,P|477:371|513:280,1,205.33333959961,8|0,1:0|0:0,0:0:0:0:
425,148,118806,2,0,P|327:153|293:244,1,205.33333959961,2|2,0:2|0:0,0:0:0:0:
228,345,119041,5,4,1:3:0:0:
228,345,119275,1,2,3:0:0:0:
192,278,119509,1,4,3:0:0:0:
192,271,119587,1,0,0:0:0:0:
197,267,119666,1,0,0:0:0:0:
198,261,119744,1,2,3:0:0:0:
151,348,119978,5,8,3:0:0:0:
303,333,120212,1,0,0:0:0:0:
72,366,120447,6,0,P|57:294|53:161,1,205.33333959961,10|0,1:0|0:0,0:0:0:0:
229,38,120681,2,0,P|227:139|209:240,1,205.33333959961,2|0,1:0|0:0,0:0:0:0:
151,348,120916,5,4,1:0:0:0:
459,327,121150,1,8,1:0:0:0:
337,158,121384,6,0,P|306:197|388:318,1,205.33333959961,0|0,1:0|0:0,0:1:0:0:
459,327,121619,1,8,1:0:0:0:
423,54,121775,5,0,3:0:0:0:
423,54,121853,2,2,B|406:71|382:61|382:61|361:51|343:72|343:72|322:97|292:84|292:84|260:70|237:96|237:96|203:139|143:114,1,308.000009399414,4|8,1:2|1:0,0:2:0:0:
117,77,122166,1,0,3:0:0:0:
142,30,122244,1,0,3:0:0:0:
196,26,122322,5,0,1:0:0:0:
125,229,122478,1,0,3:0:0:0:
125,229,122556,2,0,P|175:230|222:91,1,205.33333959961,8|0,1:0|0:0,0:1:0:0:
196,26,122791,5,0,1:0:0:0:
258,31,122869,1,0,3:0:0:0:
297,75,122947,1,0,3:2:0:0:
358,80,123025,1,8,1:0:0:0:
397,114,123103,1,0,3:0:0:0:
458,130,123181,1,0,3:0:0:0:
509,191,123259,6,0,P|456:272|360:259,1,205.33333959961,0|0,1:0|0:0,0:1:0:0:
342,180,123494,1,8,1:0:0:0:
268,30,123650,5,0,3:0:0:0:
268,30,123728,2,0,P|365:34|401:124,1,205.33333959961,0|0,1:0|0:0,0:1:0:0:
342,180,123963,1,8,1:0:0:0:
249,337,124119,5,0,3:0:0:0:
249,337,124197,2,0,B|159:320|159:320|113:354|113:354|32:336,1,231.000007049561,0|0,1:0|0:0,0:1:0:0:
5,265,124432,1,8,1:0:0:0:
414,255,124666,5,4,1:1:0:0:
163,28,124900,1,8,1:0:0:0:
98,225,125134,6,0,P|147:227|197:89,1,205.33333959961,0|0,1:0|0:0,0:1:0:0:
163,28,125369,1,8,1:0:0:0:
426,129,125525,5,0,3:0:0:0:
426,129,125603,2,0,L|429:72,1,55.9999982910157,2|0,1:0|0:0,0:0:0:0:
328,3,125837,2,0,L|316:170,1,167.999994873047,8|2,1:0|0:0,0:0:0:0:
303,314,126072,5,0,1:0:0:0:
500,379,126228,1,0,3:0:0:0:
500,379,126306,2,0,P|502:329|364:279,1,205.33333959961,8|0,1:0|0:0,0:1:0:0:
303,314,126541,5,0,1:0:0:0:
300,251,126619,1,0,3:0:0:0:
257,211,126697,1,0,3:2:0:0:
254,150,126775,1,8,1:0:0:0:
222,110,126853,1,0,3:0:0:0:
208,48,126931,1,0,3:0:0:0:
144,0,127009,6,2,P|101:27|142:166,1,205.33333959961,0|0,1:0|0:0,0:1:0:0:
334,277,127244,2,2,P|335:226|196:179,1,205.33333959961,8|0,1:0|0:0,0:1:0:0:
44,352,127478,6,0,P|93:357|152:223,1,205.33333959961,2|0,1:0|0:0,0:1:0:0:
48,17,127713,2,0,P|39:113|125:159,1,205.33333959961,10|0,1:0|0:0,0:1:0:0:
222,50,127947,6,0,L|199:46,4,14,4|0|0|0|0,1:3|0:0|0:0|0:0|0:0,0:0:0:0:
482,102,128181,1,12,1:2:0:0:
77,268,128416,5,4,1:0:0:0:
394,219,128650,1,8,1:0:0:0:
225,341,128884,6,0,P|264:372|385:290,1,205.33333959961,0|0,1:0|0:0,0:1:0:0:
394,219,129119,1,8,1:0:0:0:
83,61,129275,5,0,3:0:0:0:
83,61,129353,2,2,B|100:78|123:68|123:68|145:59|162:80|162:80|181:104|213:93|213:93|247:77|268:106|268:106|303:150|361:125,1,308.000009399414,4|8,1:2|1:0,0:2:0:0:
388,88,129666,1,0,3:0:0:0:
364,42,129744,1,0,3:0:0:0:
310,36,129822,5,0,1:0:0:0:
375,236,129978,1,0,3:0:0:0:
375,236,130056,2,0,P|324:236|280:96,1,205.33333959961,8|0,1:0|0:0,0:1:0:0:
310,36,130291,5,0,1:0:0:0:
247,39,130369,1,0,3:0:0:0:
209,83,130447,1,0,3:2:0:0:
147,86,130525,1,8,1:0:0:0:
108,120,130603,1,0,3:0:0:0:
46,135,130681,1,0,3:0:0:0:
0,198,130759,6,0,P|53:279|149:266,1,205.33333959961,0|0,1:0|0:0,0:1:0:0:
167,187,130994,1,8,1:0:0:0:
207,350,131150,5,0,3:0:0:0:
207,350,131228,2,0,P|278:284|248:192,1,205.33333959961,0|0,1:0|0:0,0:1:0:0:
167,187,131463,1,8,1:0:0:0:
66,361,131619,5,0,3:0:0:0:
66,361,131697,1,0,1:0:0:0:
360,345,131853,1,0,3:0:0:0:
360,345,131932,1,8,1:0:0:0:
171,39,132166,5,4,1:0:0:0:
505,74,132400,1,8,1:0:0:0:
304,27,132634,6,0,P|306:75|448:113,1,205.33333959961,0|0,1:0|0:0,0:1:0:0:
505,74,132869,1,8,1:0:0:0:
284,323,133025,5,0,3:0:0:0:
284,323,133103,2,0,L|341:326,1,55.9999982910157,2|0,1:0|0:0,0:0:0:0:
408,224,133337,2,0,L|241:212,1,167.999994873047,8|2,1:0|0:0,0:0:0:0:
75,201,133572,5,0,1:0:0:0:
27,15,133728,1,0,3:0:0:0:
27,15,133806,2,0,P|77:13|127:151,1,205.33333959961,8|2,1:0|0:0,0:1:0:0:
75,201,134041,6,0,L|54:191,4,14,4|0|0|0|0,1:3|0:0|0:0|0:0|0:0,0:0:0:0:
349,356,134275,1,8,1:0:0:0:
333,89,134509,6,0,L|342:67,4,14,4|0|0|0|0,1:3|0:0|0:0|0:0|0:0,0:0:0:0:
187,368,134743,1,8,1:0:0:0:
85,312,134861,1,0,0:0:0:0:
246,269,134978,5,4,1:3:0:0:
257,271,135056,1,0,0:0:0:0:
268,273,135134,1,0,0:0:0:0:
279,275,135212,1,8,0:1:0:0:
290,277,135291,1,0,0:0:0:0:
301,279,135369,1,0,0:0:0:0:
325,282,135447,5,4,1:3:0:0:
339,262,135525,1,0,0:0:0:0:
354,243,135603,1,0,0:0:0:0:
369,224,135681,1,0,0:0:0:0:
383,205,135759,1,0,0:0:0:0:
398,186,135837,1,0,0:0:0:0:
414,167,135916,5,4,1:0:0:0:
58,48,136150,1,2,0:1:0:0:
150,289,136384,2,0,L|168:182,1,97.9999970092774,8|0,1:0|0:0,0:0:0:0:
186,85,136619,6,2,B|315:44|315:44|414:168,1,293.999991027832,4|0,1:2|0:0,0:1:0:0:
497,245,137087,5,0,1:0:0:0:
469,238,137205,1,2,0:0:0:0:
444,251,137322,1,8,1:0:0:0:
416,317,137439,1,2,0:0:0:0:
348,334,137556,1,2,0:1:0:0:
293,291,137673,1,2,0:0:0:0:
295,219,137791,5,4,1:2:0:0:
9,339,138025,1,2,0:1:0:0:
48,32,138259,1,8,1:0:0:0:
269,137,138494,6,2,L|65:121,1,195.999994018555,4|0,1:2|0:0,0:1:0:0:
318,54,138962,2,0,L|215:46,1,97.9999970092774,0|0,1:0|0:0,0:0:0:0:
42,31,139197,1,10,1:0:0:0:
10,253,139431,1,2,0:1:0:0:
87,238,139548,1,2,0:0:0:0:
164,223,139666,5,4,1:2:0:0:
495,312,139900,1,2,0:1:0:0:
141,322,140134,2,0,L|244:311,1,97.9999970092774,8|0,1:0|0:0,0:0:0:0:
349,290,140369,6,2,B|335:177|335:177|271:152|271:152|253:41,1,293.999991027832,4|0,1:2|0:0,0:1:0:0:
256,34,140837,2,0,P|299:13|358:36,1,97.9999970092774,0|0,1:0|0:0,0:0:0:0:
437,221,141072,1,8,1:0:0:0:
450,291,141190,1,2,0:0:0:0:
417,355,141307,1,2,0:1:0:0:
351,384,141424,1,2,0:0:0:0:
281,366,141541,5,4,1:2:0:0:
495,159,141775,1,2,0:1:0:0:
255,142,142009,1,8,1:0:0:0:
260,181,142126,1,0,0:0:0:0:
264,219,142244,1,2,1:0:0:0:
504,155,142478,5,2,1:1:0:0:
159,272,142712,1,2,1:0:0:0:
175,195,142830,1,4,1:3:0:0:
101,170,142947,2,0,P|57:176|23:228,1,97.9999970092774,8|0,1:0|0:0,0:0:0:0:
134,361,143181,2,2,L|325:343,1,188.999994232178,4|0,0:2|0:0,0:1:0:0:
372,337,143416,5,4,1:0:0:0:
220,83,143650,1,2,0:1:0:0:
474,188,143884,1,8,1:0:0:0:
468,190,143962,1,0,0:0:0:0:
462,191,144041,1,0,0:0:0:0:
456,193,144119,6,2,B|403:259|403:259|185:235,1,293.999991027832,4|0,1:2|0:0,0:1:0:0:
103,155,144587,5,0,1:0:0:0:
126,171,144705,1,2,0:0:0:0:
153,164,144822,1,8,1:0:0:0:
134,95,144939,1,2,0:0:0:0:
69,69,145056,1,2,0:1:0:0:
9,103,145173,1,2,0:0:0:0:
0,175,145290,5,4,1:2:0:0:
429,150,145525,1,2,0:1:0:0:
300,49,145759,2,0,L|308:155,1,97.9999970092774,8|0,1:0|0:0,0:0:0:0:
318,264,145994,6,2,B|139:211|222:340|39:296,1,293.999991027832,4|0,1:2|0:0,0:1:0:0:
34,293,146462,6,0,P|17:248|33:189,1,97.9999970092774,0|0,1:0|0:0,0:0:0:0:
217,288,146697,2,0,P|186:325|127:340,1,97.9999970092774,8|0,1:0|0:0,0:0:0:0:
121,132,146931,2,0,P|168:139|211:183,1,97.9999970092774,2|0,0:1|0:0,0:0:0:0:
124,238,147166,5,4,1:2:0:0:
431,285,147400,1,2,0:1:0:0:
280,108,147634,1,8,1:0:0:0:
317,97,147751,1,2,0:0:0:0:
354,86,147869,2,2,B|379:190|379:190|327:250|327:250|351:353,1,293.999991027832,4|0,1:2|0:0,0:1:0:0:
355,359,148337,6,0,L|254:323,1,97.9999970092774,0|0,1:0|0:0,0:0:0:0:
117,325,148572,2,0,L|106:218,1,97.9999970092774,8|0,1:0|0:0,0:0:0:0:
47,94,148806,2,0,L|139:39,1,97.9999970092774,2|0,0:1|0:0,0:0:0:0:
343,84,149041,5,4,1:2:0:0:
347,91,149275,2,0,L|338:201,1,97.9999970092774
327,293,149509,1,10,1:0:0:0:
443,28,149744,2,0,L|452:138,1,97.9999970092774,0|0,1:0|0:0,0:0:0:0:
471,336,149978,5,2,1:0:0:0:
193,237,150212,1,2,1:0:0:0:
177,314,150330,1,4,1:3:0:0:
251,339,150447,2,0,P|295:333|329:281,1,97.9999970092774,8|0,1:0|0:0,0:0:0:0:
310,134,150681,2,0,P|293:175|321:230,1,83.9999974365235,2|0,0:1|0:0,0:0:0:0:
468,112,150916,6,2,P|437:72|369:69,1,77.0000023498536,4|0,0:2|0:0,0:1:0:0:
294,13,151150,6,2,P|244:14|202:66,1,83.9999974365235,4|0,0:2|0:0,0:1:0:0:
111,94,151384,6,2,P|83:133|100:198,1,90.9999958343508,4|0,0:2|0:0,0:1:0:0:
66,288,151619,6,2,P|82:332|144:357,1,97.9999970092774,4|0,0:2|0:0,0:1:0:0:
264,305,151853,5,4,0:0:0:0:
264,305,152087,5,4,0:0:0:0:
264,305,152322,5,4,3:2:0:0:
416,215,152439,1,0,3:0:0:0:
242,196,152556,5,4,3:2:0:0:
372,314,152673,1,0,3:0:0:0:
334,142,152791,5,4,1:1:0:0:
