osu file format v14

[General]
AudioFilename: audio.mp3
AudioLeadIn: 0
PreviewTime: 0
Countdown: 0
SampleSet: Soft
StackLeniency: 1
Mode: 0
LetterboxInBreaks: 0
WidescreenStoryboard: 1

[Editor]
Bookmarks: 15916,23416,30916,45916,60916,75916,90916,105916,120916,135916
DistanceSpacing: 1
BeatDivisor: 2
GridSize: 16
TimelineZoom: 0.9000016

[Metadata]
Title:HAPPY
TitleUnicode:HAPPY
Artist:Nardis
ArtistUnicode:Nardis
Creator:-PC
Version:Easy: PLEASED
Source:
Tags:call diverse system nardis0404 m3-40 electro yokespai striderin pennek
BeatmapID:2183455
BeatmapSetID:790841

[Difficulty]
HPDrainRate:3
CircleSize:3
OverallDifficulty:3
ApproachRate:3
SliderMultiplier:1.1
SliderTickRate:1

[Events]
//Background and Video events
0,0,"hjapp.jpg",0,0
//Break Periods
2,16116,21507
2,31116,32522
2,34866,36272
2,91116,92522
2,94866,96272
//Storyboard Layer 0 (Background)
//Storyboard Layer 1 (Fail)
//Storyboard Layer 2 (Pass)
//Storyboard Layer 3 (Foreground)
//Storyboard Layer 4 (Overlay)
//Storyboard Sound Samples

[TimingPoints]
916,468.75,4,2,0,70,1,0
60916,-100,4,2,0,70,0,1
75916,-100,4,2,0,70,0,0
105916,-100,4,2,0,70,0,0
120916,-100,4,2,0,70,0,1
135916,-100,4,2,0,70,0,0

[Colours]
Combo1 : 250,88,218
Combo2 : 255,252,111
Combo3 : 108,177,253
Combo4 : 46,252,107

[HitObjects]
54,222,916,6,0,B|97:229|97:229|118:302|118:302|162:313,1,165,4|0,1:0|1:0,0:0:0:0:
271,325,2087,2,0,P|308:316|353:250,2,110,0|0|0,1:0|1:0|1:0,0:0:0:0:
162,313,3494,2,0,P|131:289|118:209,1,110,0|0,1:0|1:0,0:0:0:0:
84,61,4666,6,0,B|130:68|130:68|197:35|197:35|241:41,1,165,4|0,1:2|1:0,0:0:0:0:
317,118,5837,2,0,L|299:238,2,110,0|0|0,1:0|1:0|1:0,0:0:0:0:
477,76,7478,2,0,L|464:15,2,55,4|4|8,1:3|1:3|0:2,0:0:0:0:
490,185,8416,6,0,B|447:192|447:192|426:265|426:265|382:276,1,165,4|0,1:0|1:0,0:0:0:0:
274,297,9587,2,0,P|239:314|210:388,2,110,0|0|0,1:0|1:0|1:0,0:0:0:0:
313,194,10994,2,0,P|289:163|209:150,1,110,0|0,1:0|1:0,0:0:0:0:
64,97,12166,6,0,B|71:143|71:143|38:210|38:210|44:254,1,165,4|0,1:2|1:0,0:0:0:0:
122,329,13337,2,0,L|241:339,1,110,0|0,1:0|1:0,0:0:0:0:
319,271,14275,2,0,L|382:259,1,55,0|8,1:0|0:2,0:0:0:0:
430,166,14978,2,0,P|430:122|387:72,1,110,4|4,1:2|1:3,0:0:0:0:
278,73,15916,1,4,1:3:0:0:
43,172,22947,5,4,1:3:0:0:
86,273,23416,2,0,B|190:279|124:343|226:345,1,165,4|2,1:2|0:0,0:0:0:0:
333,340,24587,2,0,P|368:316|381:246,1,110,2|2,0:0|3:2,0:0:0:0:
368,229,25291,6,0,B|321:222|321:222|268:254|268:254|213:244,1,165,0|2,1:0|0:0,0:0:0:0:
107,214,26462,2,0,P|83:186|88:116,1,110,2|2,0:2|3:2,0:0:0:0:
106,96,27166,5,4,1:2:0:0:
214,81,27634,1,2,1:3:0:0:
315,124,28103,2,0,L|372:117,2,55,2|2|2,1:3|1:2|1:3,0:0:0:0:
242,207,29041,5,2,1:3:0:0:
199,308,29509,1,2,1:3:0:0:
277,379,29978,1,2,1:3:0:0:
373,330,30447,1,4,1:3:0:0:
349,223,30916,1,6,1:2:0:0:
157,194,33962,5,2,1:0:0:0:
2,252,34666,1,6,1:3:0:0:
355,194,37712,5,2,1:0:0:0:
508,252,38416,2,0,P|453:343|347:354,1,220,6|2,1:3|1:3,2:0:0:0:
256,299,39822,1,2,1:3:0:0:
162,354,40291,2,0,P|56:343|7:196,1,275,6|2,1:3|0:1,2:0:0:0:
118,78,42166,6,0,P|150:121|204:140,1,110,6|6,1:3|1:3,0:0:0:0:
310,139,43103,2,0,P|361:121|394:78,1,110,6|6,1:3|1:3,0:0:0:0:
309,6,44041,2,0,B|256:-10|256:-10|204:6,2,110,6|6|2,1:3|1:3|0:0,0:0:0:0:
256,192,45916,5,0,1:2:0:0:
355,145,46384,2,0,L|470:135,1,110,0|4,1:2|1:2,0:0:0:0:
511,235,47322,2,0,L|401:244,1,110,0|4,1:2|1:2,0:0:0:0:
346,148,48259,2,0,L|398:131,2,55,0|2|2,1:0|0:0|1:0,0:0:0:0:
247,198,49197,1,2,1:0:0:0:
192,102,49666,5,4,1:2:0:0:
101,164,50134,2,0,L|80:285,1,110,0|4,1:0|1:2,0:0:0:0:
178,325,51072,2,0,L|196:216,1,110,0|4,1:0|1:2,0:0:0:0:
104,155,52009,2,0,B|87:200|87:200|78:206|78:206|58:266,1,110,0|2,1:0|1:0,0:0:0:0:
133,338,52947,2,0,L|106:390,2,55,2|2|4,1:0|0:1|1:2,0:0:0:0:
240,316,53884,6,0,L|355:326,1,110,0|4,1:2|1:2,0:0:0:0:
396,226,54822,2,0,L|286:217,1,110,0|4,1:2|1:2,0:0:0:0:
231,313,55759,2,0,L|283:330,2,55,0|2|2,1:0|0:0|1:0,0:0:0:0:
122,296,56697,1,2,1:0:0:0:
97,188,57166,5,4,1:2:0:0:
200,150,57634,2,0,L|223:29,1,110,0|4,1:0|1:2,0:0:0:0:
118,1,58572,2,0,L|96:108,1,110,0|4,1:0|1:2,0:0:0:0:
194,158,59509,2,0,B|211:112|211:112|207:102|207:102|232:44,1,110,0|0,1:0|1:0,0:0:0:0:
330,18,60447,2,0,L|392:27,1,55,4|4,1:3|1:2,0:0:0:0:
411,30,60916,5,4,1:0:0:0:
457,129,61384,2,0,L|520:125,2,55,4|8|4,1:3|0:1|1:2,0:0:0:0:
384,212,62322,2,0,L|321:216,2,55,4|8|4,1:3|0:1|1:2,0:0:0:0:
474,275,63259,1,4,1:3:0:0:
401,358,63728,1,2,1:0:0:0:
295,326,64197,1,2,1:0:0:0:
189,294,64666,5,4,1:2:0:0:
116,377,65134,2,0,L|56:385,2,55,4|8|4,1:3|0:1|1:2,0:0:0:0:
179,287,66072,2,0,L|238:278,2,55,4|8|4,1:3|0:1|1:2,0:0:0:0:
80,238,67009,1,4,1:3:0:0:
47,132,67478,1,2,1:0:0:0:
96,33,67947,2,0,L|151:23,1,55,10|10,1:0|0:1,0:0:0:0:
176,18,68416,5,4,1:2:0:0:
239,107,68884,2,0,L|232:170,2,55,4|8|4,1:3|0:1|1:2,0:0:0:0:
335,54,69822,2,0,L|342:-9,2,55,4|8|4,1:3|0:1|1:2,0:0:0:0:
434,106,70759,1,4,1:3:0:0:
507,188,71228,1,2,1:0:0:0:
410,241,71697,1,2,1:0:0:0:
313,294,72166,5,4,1:2:0:0:
388,373,72634,2,0,L|450:366,2,55,4|8|4,1:3|0:1|1:2,0:0:0:0:
303,302,73572,2,0,L|240:308,2,55,4|8|4,1:3|0:1|1:2,0:0:0:0:
369,214,74509,1,4,1:3:0:0:
275,156,74978,2,0,B|215:166|234:123|171:136,1,110,4|4,1:3|1:3,0:0:0:0:
64,172,75916,5,4,1:0:0:0:
159,306,76619,2,2,B|215:297|215:297|250:325|250:325|314:314,1,165,4|8,1:2|1:0,0:1:0:0:
422,299,77791,1,4,1:2:0:0:
496,151,78494,1,4,1:2:0:0:
408,84,78962,2,2,P|351:94|314:136,1,110,0|2,1:0|0:1,0:1:0:0:
312,157,79666,5,4,1:2:0:0:
201,279,80369,2,2,B|149:272|149:272|103:308|103:308|49:301,1,165,4|8,1:2|1:0,0:1:0:0:
0,202,81541,1,4,1:2:0:0:
91,141,82009,1,8,1:0:0:0:
191,186,82478,2,0,L|250:177,2,55,2|2|8,1:1|1:0|1:0,0:0:0:0:
99,247,83416,5,4,1:0:0:0:
235,339,84119,2,2,B|286:330|286:330|320:282|320:282|373:273,1,165,4|8,1:2|1:0,0:1:0:0:
471,322,85291,1,4,1:2:0:0:
509,161,85994,2,2,P|505:65|461:14,1,165,4|8,1:2|1:0,0:1:0:0:
352,20,87166,5,4,1:2:0:0:
222,122,87869,2,2,B|231:175|231:175|277:209|277:209|284:262,1,165,4|8,1:2|1:0,0:1:0:0:
290,370,89041,1,6,1:2:0:0:
181,354,89509,1,10,1:0:0:0:
143,250,89978,2,0,L|152:190,2,55,2|2|10,1:0|1:0|1:0,0:0:0:0:
51,311,90916,5,6,1:2:0:0:
469,102,93962,5,2,1:0:0:0:
511,260,94666,1,6,1:2:0:0:
20,122,97712,6,0,L|5:235,1,110,0|0,1:0|0:0,0:0:0:0:
1,260,98416,2,0,P|55:351|161:362,1,220,6|2,1:3|1:3,2:0:0:0:
256,307,99822,1,2,1:3:0:0:
349,362,100291,2,0,P|454:350|504:203,1,275,6|2,1:3|0:1,2:0:0:0:
398,83,102166,6,0,P|364:41|310:29,1,110,6|6,1:3|1:3,0:0:0:0:
199,28,103103,2,0,P|147:41|113:83,1,110,6|6,1:3|1:3,0:0:0:0:
204,145,104041,2,0,B|231:144|256:159|256:159|282:143|308:143,2,110,6|6|2,1:3|1:3|0:0,0:0:0:0:
258,358,105916,6,0,B|280:376|307:376|330:358|330:358|354:340|380:340|410:360,1,165,4|2,1:0|0:2,0:0:0:0:
430,378,106853,2,0,P|491:367|518:326,1,110,0|8,1:0|1:0,0:0:0:0:
489,223,107791,1,0,1:0:0:0:
395,165,108259,2,0,L|331:175,2,55,8|2|0,1:0|0:2|1:0,0:0:0:0:
466,80,109197,1,8,1:0:0:0:
385,5,109666,6,0,B|335:11|335:11|289:57|289:57|232:66,1,165,4|2,1:2|0:2,0:0:0:0:
213,70,110603,1,2,1:0:0:0:
109,32,111072,1,8,1:0:0:0:
72,135,111541,2,0,L|11:144,2,55,0|2|8,1:0|3:2|1:0,0:0:0:0:
172,180,112478,2,0,P|221:205|259:258,1,110,0|8,1:0|1:0,0:0:0:0:
254,358,113416,6,0,B|232:376|205:376|182:358|182:358|158:340|132:340|102:360,1,165,4|2,1:0|0:2,0:0:0:0:
82,378,114353,2,0,P|21:367|-6:326,1,110,0|8,1:0|1:0,0:0:0:0:
23,223,115291,1,0,1:0:0:0:
121,174,115759,2,0,L|115:116,2,55,8|2|0,1:0|0:2|1:0,0:0:0:0:
205,244,116697,1,8,1:0:0:0:
296,183,117166,6,0,B|302:133|302:133|349:87|349:87|359:31,1,165,4|2,1:2|0:2,0:0:0:0:
363,12,118103,1,2,1:0:0:0:
472,6,118572,1,8,1:0:0:0:
512,107,119041,1,4,1:3:0:0:
315,371,120447,6,0,L|252:379,1,55,10|2,1:0|1:0,0:0:0:0:
233,383,120916,6,0,P|178:368|144:312,1,110,4|8,1:0|1:0,0:0:0:0:
207,234,121853,2,0,P|262:219|296:163,1,110,4|8,1:2|1:0,0:0:0:0:
247,77,122791,1,0,1:0:0:0:
349,38,123259,2,0,L|358:-16,2,55,8|0|0,1:0|1:0|1:0,0:0:0:0:
405,133,124197,1,8,1:0:0:0:
315,197,124666,6,0,P|258:188|231:139,1,110,4|8,1:1|1:0,0:0:0:0:
144,79,125603,2,0,P|87:87|60:136,1,110,2|8,1:0|1:0,0:0:0:0:
54,239,126541,1,0,1:0:0:0:
149,293,127009,1,8,1:0:0:0:
243,235,127478,1,0,1:0:0:0:
254,125,127947,2,0,L|247:63,1,55,4|12,1:3|1:2,0:0:0:0:
247,42,128416,6,0,P|303:49|343:94,1,110,4|8,1:0|1:0,0:0:0:0:
296,187,129353,2,0,P|240:194|200:239,1,110,4|8,1:2|1:0,0:0:0:0:
245,332,130291,1,0,1:0:0:0:
353,316,130759,2,0,L|347:260,2,55,8|0|0,1:0|0:0|1:0,0:0:0:0:
448,372,131697,1,8,1:0:0:0:
505,278,132166,6,0,P|481:225|431:207,1,110,4|8,1:0|1:0,0:0:0:0:
349,276,133103,2,0,P|325:329|275:347,1,110,2|8,1:0|1:0,0:0:0:0:
170,331,134041,1,4,1:3:0:0:
125,230,134509,1,4,1:3:0:0:
82,128,134978,2,0,B|66:69|35:103|21:41,1,110,4|4,1:3|1:3,0:0:0:0:
123,0,135916,5,4,1:0:0:0:
253,100,136619,2,2,B|307:92|307:92|343:133|343:133|399:127,1,165,4|8,1:2|1:0,0:1:0:0:
507,109,137791,1,4,1:2:0:0:
487,272,138494,1,4,1:2:0:0:
380,245,138962,2,2,P|315:253|269:300,1,110,0|2,1:0|0:1,0:1:0:0:
273,306,139666,5,4,1:2:0:0:
153,192,140369,2,2,B|145:138|145:138|186:102|186:102|180:46,1,165,4|8,1:2|1:0,0:1:0:0:
80,0,141541,1,4,1:2:0:0:
2,77,142009,1,8,1:0:0:0:
50,175,142478,2,0,L|42:231,2,55,2|2|8,1:1|1:0|1:0,0:0:0:0:
126,95,143416,5,4,1:0:0:0:
287,128,144119,2,2,B|291:182|291:182|339:208|339:208|346:264,1,165,4|8,1:2|1:0,0:1:0:0:
407,355,145291,1,4,1:2:0:0:
243,380,145994,2,2,P|162:370|103:315,1,165,4|8,1:2|1:0,0:1:0:0:
83,206,147166,5,4,1:2:0:0:
226,123,147869,2,2,B|281:116|281:116|307:68|307:68|362:63,1,165,4|8,1:2|1:0,0:1:0:0:
471,54,149041,1,4,1:2:0:0:
503,159,149509,1,10,1:0:0:0:
396,184,149978,2,0,L|334:171,2,55,2|2|8,1:0|1:0|1:0,0:0:0:0:
474,263,150916,6,0,L|488:375,1,110,4|4,0:2|0:2,0:0:0:0:
377,370,151853,2,0,L|363:260,1,110,4|4,0:0|3:2,0:0:0:0:
426,170,152791,1,4,1:1:0:0:
