osu file format v14

[General]
AudioFilename: audio.mp3
AudioLeadIn: 0
PreviewTime: 93100
Countdown: 1
SampleSet: Normal
StackLeniency: 0.2
Mode: 0
LetterboxInBreaks: 0
WidescreenStoryboard: 0

[Editor]
Bookmarks: 106986
DistanceSpacing: 0.8
BeatDivisor: 4
GridSize: 32
TimelineZoom: 1.5

[Metadata]
Title:Cosmo Memory
TitleUnicode:Cosmo Memory
Artist:Nardis
ArtistUnicode:Nardis
Creator:YokesPai
Version:Forgotten
Source:BMS
Tags:BMS of fighters ultimate bofu 2016 final fantasy alpha complex big crunch frenz2016
BeatmapID:2075064
BeatmapSetID:992232

[Difficulty]
HPDrainRate:7.2
CircleSize:4.2
OverallDifficulty:8
ApproachRate:8
SliderMultiplier:1.5
SliderTickRate:2

[Events]
//Background and Video events
0,0,"cosmo memory bg.jpg",0,0
//Break Periods
2,24900,26693
2,68786,70236
2,71528,72807
//Storyboard Layer 0 (Background)
//Storyboard Layer 1 (Fail)
//Storyboard Layer 2 (Pass)
//Storyboard Layer 3 (Foreground)
//Storyboard Layer 4 (Overlay)
//Storyboard Sound Samples

[TimingPoints]
15,342.857142857143,4,2,0,40,1,0
2415,-200,4,2,0,40,0,0
19215,-200,4,2,0,60,0,0
33615,-100,4,2,0,50,0,0
35672,-133.333333333333,4,2,0,70,0,0
36015,-133.333333333333,4,2,0,40,0,0
36700,-133.333333333333,4,2,0,70,0,0
37043,-133.333333333333,4,2,0,40,0,0
37900,-133.333333333333,4,2,0,70,0,0
38757,-133.333333333333,4,2,0,50,0,0
39443,-133.333333333333,4,2,0,70,0,0
39786,-133.333333333333,4,2,0,50,0,0
40643,-133.333333333333,4,2,0,70,0,0
41500,-133.333333333333,4,2,0,60,0,0
42186,-133.333333333333,4,2,0,70,0,0
42529,-133.333333333333,4,2,0,60,0,0
43386,-133.333333333333,4,2,0,70,0,0
45957,-400,4,2,0,50,0,0
46300,-66.6666666666667,4,2,0,70,0,0
49557,-133.333333333333,4,2,0,50,0,0
49729,-66.6666666666667,4,2,0,70,0,0
52300,-133.333333333333,4,2,0,50,0,0
52472,-66.6666666666667,4,2,0,70,0,0
55043,-133.333333333333,4,2,0,50,0,0
55215,-66.6666666666667,4,2,0,70,0,0
60357,-133.333333333333,4,2,0,50,0,0
60700,-133.333333333333,4,2,0,70,0,0
63100,-133.333333333333,4,2,0,50,0,0
63443,-133.333333333333,4,2,0,70,0,0
65843,-133.333333333333,4,2,0,50,0,0
66186,-133.333333333333,4,2,0,70,0,0
68586,-133.333333333333,4,2,0,40,0,0
86415,-111.111111111111,4,2,0,50,0,0
87786,-133.333333333333,4,2,0,60,0,0
89157,-86.9565217391304,4,2,0,70,0,0
89500,-80,4,2,0,70,0,0
89843,-74.0740740740741,4,2,0,70,0,0
90186,-68.9655172413793,4,2,0,70,0,0
96357,-50,4,2,0,70,0,0
98929,-200,4,2,0,70,0,0
99100,-50,4,2,0,70,0,0
101672,-200,4,2,0,70,0,0
101843,-50,4,2,0,70,0,0
104415,-200,4,2,0,70,0,0
104586,-50,4,2,0,70,0,0
109729,-200,4,2,0,70,0,0
117957,-200,4,2,0,50,0,0
134415,-400,4,1,0,50,0,0
137157,-400,4,1,0,40,0,0

[Colours]
Combo1 : 215,0,0
Combo2 : 74,165,255
Combo3 : 0,128,192
Combo4 : 0,64,128
Combo5 : 0,0,160
Combo6 : 255,74,74

[HitObjects]
12,304,2415,38,0,L|17:359,1,56.25
51,370,2757,53,2,0:0:0:0:
82,307,2929,1,0,0:0:0:0:
144,274,3100,1,0,0:0:0:0:
213,283,3272,1,2,0:0:0:0:
253,191,3615,38,0,L|256:244,2,37.5
294,134,4129,53,2,0:0:0:0:
323,199,4300,1,0,0:0:0:0:
308,268,4472,1,0,0:0:0:0:
355,320,4643,1,2,0:0:0:0:
437,345,4986,6,0,L|425:310,2,37.5
488,278,5501,53,2,0:0:0:0:
494,209,5672,1,0,0:0:0:0:
440,163,5844,1,0,0:0:0:0:
425,95,6015,1,2,0:0:0:0:
425,95,6529,1,0,0:0:0:0:
327,64,6872,38,0,L|366:59,3,37.5,2|0|0|0,0:0|0:0|0:0|0:0,0:0:0:0:
278,114,7557,2,0,L|239:109,3,37.5,2|0|0|0,0:0|0:0|0:0|0:0,0:0:0:0:
171,119,8243,37,2,0:0:0:0:
104,140,8415,1,0,0:0:0:0:
41,107,8586,1,0,0:0:0:0:
19,40,8757,1,2,0:0:0:0:
27,177,9100,21,0,0:0:0:0:
27,177,9272,1,2,0:0:0:0:
27,177,9443,1,0,0:0:0:0:
51,307,9615,69,2,0:0:0:0:
65,237,9786,1,0,0:0:0:0:
132,214,9957,1,0,0:0:0:0:
163,150,10129,1,2,0:0:0:0:
172,273,10472,21,0,0:0:0:0:
172,273,10643,1,2,0:0:0:0:
172,273,10815,1,0,0:0:0:0:
194,86,10986,37,2,0:0:0:0:
253,291,11500,5,0,0:0:0:0:
245,154,11672,1,2,0:0:0:0:
329,327,12357,5,2,0:0:0:0:
172,273,12700,1,0,0:0:0:0:
253,291,13043,1,2,0:0:0:0:
397,378,13386,1,0,0:0:0:0:
504,148,13729,21,2,0:0:0:0:
465,212,13900,1,0,0:0:0:0:
385,233,14072,1,0,0:0:0:0:
302,199,14243,1,2,0:0:0:0:
259,111,14586,5,0,0:0:0:0:
206,58,14757,1,2,0:0:0:0:
149,39,14929,1,0,0:0:0:0:
67,47,15100,69,2,0:0:0:0:
53,121,15272,1,0,0:0:0:0:
79,199,15443,1,0,0:0:0:0:
0,243,15615,1,2,0:0:0:0:
9,340,15957,5,2,0:0:0:0:
106,353,16129,1,0,0:0:0:0:
195,364,16300,1,0,0:0:0:0:
277,374,16472,1,2,0:0:0:0:
235,10,16986,5,2,0:0:0:0:
328,317,17500,1,2,0:0:0:0:
184,67,17843,5,2,0:0:0:0:
351,244,18186,1,0,0:0:0:0:
161,140,18529,1,2,0:0:0:0:
256,192,18872,1,0,0:0:0:0:
351,140,19215,5,0,1:0:0:0:
250,195,19386,1,0,0:0:0:0:
356,246,19557,5,0,1:0:0:0:
244,186,19728,1,0,0:0:0:0:
361,134,19900,5,0,1:0:0:0:
239,200,20071,1,0,0:0:0:0:
367,253,20243,5,0,1:0:0:0:
233,179,20414,1,0,0:0:0:0:
92,256,20586,37,0,1:0:0:0:
239,175,20757,1,0,0:0:0:0:
84,123,20929,5,0,1:0:0:0:
247,212,21100,1,0,0:0:0:0:
76,265,21272,5,0,1:0:0:0:
255,166,21443,1,0,0:0:0:0:
67,113,21615,5,0,1:0:0:0:
264,222,21786,1,0,0:0:0:0:
369,46,21957,37,0,1:0:0:0:
260,242,22128,1,0,0:0:0:0:
147,47,22300,5,0,1:0:0:0:
266,262,22471,1,0,0:0:0:0:
369,46,22643,5,0,1:0:0:0:
261,280,22814,1,0,0:0:0:0:
147,47,22986,5,0,1:0:0:0:
266,301,23157,1,0,0:0:0:0:
295,18,23329,37,0,1:0:0:0:
205,351,23500,1,0,1:0:0:0:
369,46,23672,5,0,1:0:0:0:
132,331,23843,1,0,1:0:0:0:
237,142,24015,5,0,1:0:0:0:
260,134,24100,1,0,1:0:0:0:
283,133,24186,1,0,1:0:0:0:
307,136,24272,1,0,1:0:0:0:
330,145,24357,1,0,1:0:0:0:
353,152,24443,1,0,1:0:0:0:
377,152,24529,1,0,1:0:0:0:
400,147,24615,1,0,1:0:0:0:
419,106,24700,5,0,1:0:0:0:
93,278,27443,5,0,1:0:0:0:
419,106,27615,1,0,1:0:0:0:
253,189,28815,5,2,0:0:0:0:
258,194,29157,1,2,0:0:0:0:
259,185,29500,1,2,0:0:0:0:
253,199,29843,1,2,0:0:0:0:
0,0,30186,5,0,1:0:0:0:
23,379,31215,5,0,1:0:0:0:
96,363,32757,1,0,1:0:0:0:
120,46,32929,53,0,1:0:0:0:
176,95,33615,2,0,L|179:137,3,37.5,0|0|0|0,1:0|0:0|0:0|0:0,0:0:0:0:
229,184,33957,2,0,L|226:226,3,37.5,0|0|0|0,1:0|0:0|0:0|0:0,0:0:0:0:
236,371,34300,5,0,1:0:0:0:
244,334,34385,1,0,1:0:0:0:
259,300,34471,1,0,1:0:0:0:
280,269,34557,1,0,1:0:0:0:
306,242,34642,1,0,1:0:0:0:
337,221,34728,1,0,1:0:0:0:
371,205,34814,1,0,1:0:0:0:
407,197,34899,1,0,1:0:0:0:
452,234,34986,5,0,1:0:0:0:
445,206,35071,1,0,1:0:0:0:
442,178,35157,1,0,1:0:0:0:
442,150,35243,1,0,1:0:0:0:
445,122,35329,2,0,B|448:105|455:90|455:90|451:80|451:80|466:72|477:62,1,75,0|0,1:0|0:0,0:0:0:0:
512,0,35672,69,0,1:0:0:0:
512,0,35843,1,0,1:0:0:0:
488,354,36015,38,0,L|481:298,1,56.2500021457673,2|0,0:0|0:0,0:0:0:0:
472,291,36357,2,0,L|478:346,1,56.2500021457673,2|0,0:0|0:0,0:0:0:0:
425,12,36700,53,0,1:0:0:0:
425,12,36871,1,0,1:0:0:0:
407,362,37043,22,0,L|400:306,1,56.2500021457673,2|0,0:0|0:0,0:0:0:0:
391,299,37386,2,0,L|397:354,1,56.2500021457673,2|0,0:0|0:0,0:0:0:0:
407,362,37729,2,0,L|403:334,1,28.1250010728836,2|0,0:0|0:0,0:0:0:0:
338,24,37900,53,0,1:0:0:0:
338,12,38415,1,0,1:0:0:0:
338,12,38586,1,0,1:0:0:0:
326,358,38757,22,0,L|319:302,1,56.2500021457673,2|0,0:0|0:0,0:0:0:0:
310,295,39101,2,0,L|316:350,1,56.2500021457673,2|0,0:0|0:0,0:0:0:0:
251,24,39443,53,0,1:0:0:0:
251,24,39615,1,0,1:0:0:0:
245,366,39787,22,0,L|238:310,1,56.2500021457673,2|0,0:0|0:0,0:0:0:0:
229,303,40129,2,0,L|235:358,1,56.2500021457673,2|0,0:0|0:0,0:0:0:0:
245,366,40472,2,0,L|241:338,1,28.1250010728836,2|0,0:0|0:0,0:0:0:0:
164,36,40643,53,0,1:0:0:0:
164,24,41157,1,0,1:0:0:0:
164,24,41328,1,0,1:0:0:0:
164,362,41500,22,0,L|157:306,1,56.2500021457673,2|0,0:0|0:0,0:0:0:0:
148,299,41843,2,0,L|154:354,1,56.2500021457673,2|0,0:0|0:0,0:0:0:0:
77,36,42186,53,0,1:0:0:0:
77,36,42357,1,0,1:0:0:0:
83,370,42530,22,0,L|76:314,1,56.2500021457673,2|0,0:0|0:0,0:0:0:0:
67,307,42872,2,0,L|73:362,1,56.2500021457673,2|0,0:0|0:0,0:0:0:0:
83,370,43215,2,0,L|79:342,1,28.1250010728836,2|0,0:0|0:0,0:0:0:0:
0,0,43386,53,0,1:0:0:0:
13,72,43557,2,0,L|9:110,3,28.1250010728836,0|0|0|0,1:0|0:0|0:0|0:0,0:0:0:0:
14,106,43900,37,0,1:0:0:0:
263,158,44072,1,0,1:0:0:0:
44,201,44243,5,0,1:0:0:0:
293,149,44415,1,0,1:0:0:0:
173,99,44586,5,0,1:0:0:0:
320,163,44757,1,0,1:0:0:0:
199,218,44929,5,0,1:0:0:0:
350,154,45100,1,0,1:0:0:0:
94,103,45272,5,0,1:0:0:0:
377,168,45443,1,0,1:0:0:0:
122,210,45615,5,0,1:0:0:0:
407,159,45786,1,0,1:0:0:0:
412,167,45957,6,0,L|410:183,2,9.375
466,61,46300,70,0,L|469:138,1,56.2500021457673,0|0,1:0|0:0,0:0:0:0:
443,239,46472,1,0,0:0:0:0:
449,246,46643,53,0,1:0:0:0:
467,349,46986,38,0,B|382:311|291:310|291:310|346:328|389:354,1,281.250010728836,0|0,1:0|0:0,1:0:0:0:
382,349,47500,1,0,1:0:0:0:
45,35,47672,6,0,B|130:73|221:74|221:74|166:56|123:30,1,281.250010728836,0|0,1:0|0:0,1:0:0:0:
130,35,48186,1,0,1:0:0:0:
507,267,48357,6,0,B|415:260|329:290|329:290|387:289|436:298,1,281.250010728836,0|0,1:0|0:0,1:0:0:0:
428,296,48871,1,0,0:0:0:0:
4,116,49043,22,0,P|96:123|182:93,1,168.750006437302,0|0,0:0|0:0,1:0:0:0:
171,98,49386,1,2,0:0:0:0:
59,363,49557,6,0,L|57:345,3,14.0625005364418,0|0|0|0,1:0|0:0|0:0|0:0,0:0:0:0:
51,344,49729,6,0,B|24:283|60:210|113:201|113:201|108:253|145:298,1,281.250010728836,0|0,1:0|0:0,1:0:0:0:
151,297,50243,1,0,1:0:0:0:
461,40,50415,6,0,B|488:101|452:174|399:183|399:183|404:131|367:86,1,281.250010728836,0|0,1:0|0:0,1:0:0:0:
361,87,50929,1,0,1:0:0:0:
11,264,51100,6,0,B|6:198|65:141|118:151|118:151|96:198|115:253,1,281.250010728836,0|0,1:0|0:0,1:0:0:0:
121,254,51614,1,0,1:0:0:0:
500,119,51786,22,0,P|488:179|395:239,1,168.750006437302,0|0,1:0|0:0,1:0:0:0:
397,234,52129,1,2,0:0:0:0:
387,200,52300,6,0,L|391:228,1,28.1250010728836,2|0,0:0|0:0,0:0:0:0:
156,340,52472,6,0,B|266:360|347:299|347:299|329:339|342:379,1,281.250010728836,0|0,1:0|0:0,1:0:0:0:
346,382,52986,1,0,1:0:0:0:
356,44,53157,6,0,B|246:24|165:85|165:85|183:45|170:5,1,281.250010728836,0|0,1:0|0:0,1:0:0:0:
166,2,53671,1,0,1:0:0:0:
212,365,53843,6,0,B|322:346|378:261|378:261|374:305|400:338,1,281.250010728836,0|0,1:0|0:0,1:0:0:0:
405,339,54357,1,0,1:0:0:0:
298,18,54528,22,0,P|200:56|148:102,1,168.750006437302,0|0,1:0|0:0,1:0:0:0:
149,103,54872,1,2,0:0:0:0:
149,109,54957,1,2,0:0:0:0:
149,115,55043,6,0,L|147:81,1,28.1250010728836,0|0,1:0|0:0,0:0:0:0:
41,294,55215,6,0,B|68:228|35:154|38:187|-8:91|36:20,1,281.250010728836,0|0,1:0|0:0,1:0:0:0:
40,18,55729,1,0,1:0:0:0:
471,90,55900,6,0,B|443:155|476:229|473:196|520:292|475:363,1,281.250010728836,0|0,1:0|0:0,1:0:0:0:
472,366,56414,1,0,1:0:0:0:
88,361,56586,5,0,1:0:0:0:
175,43,56929,5,0,1:0:0:0:
85,368,57100,1,0,1:0:0:0:
107,124,57272,21,0,1:0:0:0:
130,205,57357,1,0,1:0:0:0:
152,286,57443,1,0,1:0:0:0:
189,146,57615,69,2,0:0:0:0:
159,175,57700,1,2,0:0:0:0:
130,205,57786,1,2,0:0:0:0:
452,148,57957,21,0,1:0:0:0:
464,142,58472,1,0,1:0:0:0:
71,264,58643,5,0,1:0:0:0:
59,258,59157,1,0,1:0:0:0:
377,313,59329,5,0,1:0:0:0:
383,324,59843,1,0,1:0:0:0:
159,8,60015,5,0,1:0:0:0:
388,355,60357,6,0,L|385:320,1,28.1250010728836,2|0,0:0|0:0,0:0:0:0:
383,324,60529,6,0,L|381:306,3,14.0625005364418,0|0|0|0,1:0|0:0|0:0|0:0,0:0:0:0:
380,306,60700,5,0,1:0:0:0:
392,312,61215,1,0,1:0:0:0:
67,116,61386,5,0,1:0:0:0:
55,122,61900,1,0,1:0:0:0:
321,25,62072,5,0,1:0:0:0:
327,13,62586,1,0,1:0:0:0:
128,368,62757,5,0,1:0:0:0:
125,374,63100,5,2,0:0:0:0:
128,368,63272,6,0,L|131:337,1,28.1250010728836,0|0,1:0|0:0,0:0:0:0:
82,39,63443,5,0,1:0:0:0:
70,33,63957,1,0,1:0:0:0:
434,259,64129,5,0,1:0:0:0:
446,253,64643,1,0,1:0:0:0:
209,350,64815,5,0,1:0:0:0:
203,362,65329,1,0,1:0:0:0:
357,44,65500,5,0,1:0:0:0:
209,350,65843,5,2,0:0:0:0:
203,362,65929,1,2,0:0:0:0:
206,356,66015,6,0,L|225:320,1,28.1250010728836,0|0,1:0|0:0,0:0:0:0:
357,44,66186,5,0,1:0:0:0:
369,38,66700,1,0,1:0:0:0:
49,248,66872,5,0,1:0:0:0:
46,254,67215,1,0,1:0:0:0:
334,153,67557,5,0,1:0:0:0:
43,260,67729,1,0,1:0:0:0:
394,212,67900,5,0,1:0:0:0:
81,170,68072,1,0,1:0:0:0:
454,271,68243,5,0,1:0:0:0:
456,276,68329,2,0,L|459:304,1,28.1250010728836,0|0,1:0|1:0,0:0:0:0:
512,384,68586,5,0,1:0:0:0:
512,384,70986,6,2,L|509:356,4,28.1250010728836
0,384,73557,5,0,0:0:0:0:
38,360,73729,1,0,0:0:0:0:
50,305,73900,1,0,0:0:0:0:
25,236,74072,6,0,P|19:186|313:54,1,450.000017166138,2|0,0:0|0:0,0:0:0:0:
357,155,76129,1,0,0:0:0:0:
331,241,76815,1,0,1:0:0:0:
310,52,76986,5,0,1:0:0:0:
259,266,77500,2,0,B|203:284|147:286|147:286|208:297|241:354,1,225.000008583069
238,351,78700,1,0,0:0:0:0:
357,384,79043,1,0,0:0:0:0:
412,328,79215,5,0,0:0:0:0:
407,311,79300,1,0,0:0:0:0:
402,287,79386,1,0,0:0:0:0:
401,255,79472,1,0,0:0:0:0:
408,211,79557,1,0,1:0:0:0:
408,211,80929,22,0,B|442:137|508:98|508:98|471:97|435:66,2,225.000008583069
408,215,82472,1,0,0:0:0:0:
440,69,82815,1,0,0:0:0:0:
440,69,83672,5,0,0:0:0:0:
408,215,84357,1,4,0:1:0:0:
362,317,85043,70,0,P|345:285|346:261,1,56.2500021457673,2|0,0:0|0:0,0:0:0:0:
296,283,85386,2,0,P|297:246|310:226,1,56.2500021457673,2|0,0:0|0:0,0:0:0:0:
255,220,85729,2,0,P|274:189|295:178,1,56.2500021457673,2|0,0:0|0:0,0:0:0:0:
251,145,86072,2,0,P|283:128|307:129,1,56.2500021457673,2|0,0:0|0:0,0:0:0:0:
350,84,86415,6,0,P|313:107|299:132,1,67.4999979400635,2|0,0:0|0:0,0:0:0:0:
260,79,86758,2,0,P|239:117|240:146,1,67.4999979400635,2|0,0:0|0:0,0:0:0:0:
179,120,87101,2,0,P|180:163|195:187,1,67.4999979400635,2|0,0:0|0:0,0:0:0:0:
130,195,87444,2,0,P|153:231|178:245,1,67.4999979400635,2|0,0:0|0:0,0:0:0:0:
224,226,87786,6,0,P|192:243|168:242,1,56.2500021457673,2|0,0:0|0:0,0:0:0:0:
190,292,88129,2,0,P|153:290|133:277,1,56.2500021457673,2|0,0:0|0:0,0:0:0:0:
127,333,88472,2,0,P|96:313|85:292,1,56.2500021457673,2|0,0:0|0:0,0:0:0:0:
52,337,88815,2,0,P|35:305|36:281,1,56.2500021457673,2|0,0:0|0:0,0:0:0:0:
56,202,89157,6,0,L|34:285,1,86.2500016450882,2|0,0:0|0:0,0:0:0:0:
97,115,89500,2,0,L|31:182,1,93.75,2|0,0:0|0:0,0:0:0:0:
187,54,89843,2,0,L|89:81,1,101.250000386238,2|0,0:0|0:0,0:0:0:0:
303,52,90186,2,0,L|197:25,1,108.750003318787,2|0,0:0|0:0,0:0:0:0:
348,226,90529,69,0,1:0:0:0:
306,58,90700,1,0,0:0:0:0:
263,249,90872,5,0,1:0:0:0:
309,64,91043,1,0,0:0:0:0:
362,274,91215,69,0,1:0:0:0:
312,70,91386,1,0,0:0:0:0:
260,301,91557,5,0,1:0:0:0:
315,76,91729,1,0,0:0:0:0:
159,281,91900,69,0,1:0:0:0:
318,82,92072,1,0,0:0:0:0:
82,234,92243,5,0,1:0:0:0:
321,88,92415,1,0,0:0:0:0:
150,313,92586,69,0,1:0:0:0:
324,94,92758,1,0,0:0:0:0:
64,256,92929,5,0,1:0:0:0:
327,100,93101,1,0,0:0:0:0:
362,274,93271,5,0,1:0:0:0:
327,100,93443,1,0,1:0:0:0:
260,301,93615,5,0,1:0:0:0:
324,94,93786,1,0,1:0:0:0:
376,322,93957,69,0,1:0:0:0:
321,88,94129,1,0,1:0:0:0:
257,353,94300,5,0,1:0:0:0:
318,82,94472,1,0,1:0:0:0:
150,313,94643,69,0,1:0:0:0:
315,76,94815,1,0,1:0:0:0:
64,256,94986,5,0,1:0:0:0:
312,70,95158,1,0,1:0:0:0:
141,345,95329,69,0,1:0:0:0:
309,64,95501,1,0,1:0:0:0:
46,278,95672,5,0,1:0:0:0:
306,58,95844,1,0,1:0:0:0:
303,52,96015,1,2,1:0:0:0:
474,75,96357,6,2,B|405:9|267:26|329:64|219:121|91:71,1,375,0|0,1:0|0:0,1:0:0:0:
61,29,96872,1,0,1:0:0:0:
403,39,97043,6,2,B|345:29|293:46|305:56|256:86|188:88,1,225,0|0,1:0|0:0,1:0:0:0:
61,29,97386,1,0,1:0:0:0:
58,23,97557,1,0,1:0:0:0:
109,345,97729,6,2,B|167:355|219:338|207:328|256:298|324:296,1,225,0|0,1:0|0:0,1:0:0:0:
451,355,98072,1,0,1:0:0:0:
454,361,98243,1,0,1:0:0:0:
109,345,98415,6,0,B|167:355|219:338|207:328|256:298|324:296,1,225,0|0,1:0|0:0,1:0:0:0:
451,355,98758,1,0,1:0:0:0:
476,43,98929,22,0,L|478:54,1,9.375,0|0,1:0|0:0,0:0:0:0:
475,59,99015,2,0,L|477:70,1,9.375,0|0,1:0|0:0,0:0:0:0:
474,75,99100,6,2,B|457:194|365:128|346:249|368:299|441:324|507:306|528:235|501:198,1,375,0|0,1:0|0:0,1:0:0:0:
448,226,99615,1,0,1:0:0:0:
38,309,99786,6,2,B|55:190|147:256|166:135|144:85|71:60|5:78|-16:149|11:186,1,375,0|0,1:0|0:0,1:0:0:0:
64,158,100301,1,0,1:0:0:0:
459,347,100472,6,2,P|345:331|403:255,1,225,0|0,1:0|0:0,1:0:0:0:
405,316,100815,1,0,1:0:0:0:
177,362,100986,21,0,1:0:0:0:
405,316,101157,5,0,1:0:0:0:
64,158,101329,69,0,1:0:0:0:
432,85,101500,5,0,1:0:0:0:
438,82,101672,2,0,L|440:109,1,18.75,2|0,0:0|0:0,0:0:0:0:
405,316,101843,6,2,B|339:279|266:322|266:322|267:304|267:304|191:405|65:343,1,375,0|0,1:0|0:0,1:0:0:0:
40,286,102357,1,0,1:0:0:0:
350,299,102529,6,2,B|303:298|266:323|266:323|267:304|267:304|227:357|172:366,1,225,0|0,1:0|0:0,1:0:0:0:
40,286,102872,1,0,1:0:0:0:
43,292,103043,1,0,1:0:0:0:
162,85,103215,6,2,B|209:86|246:61|246:61|245:80|245:80|285:27|340:18,1,225,0|0,1:0|0:0,1:0:0:0:
472,98,103558,1,0,1:0:0:0:
469,92,103729,1,0,1:0:0:0:
162,85,103900,6,2,B|209:86|246:61|246:61|245:80|245:80|285:27|340:18,1,225,0|0,1:0|0:0,1:0:0:0:
472,98,104243,5,2,0:0:0:0:
466,86,104329,1,2,0:0:0:0:
469,92,104415,6,0,L|476:109,1,18.75,0|0,1:0|0:0,0:0:0:0:
402,353,104586,6,2,B|429:369|461:375|500:340|502:305|469:260|429:270|429:270|387:279|351:235|359:177|413:156|459:188,1,375,0|0,1:0|0:0,1:0:0:0:
336,312,105100,1,0,1:0:0:0:
110,31,105272,6,2,B|82:14|50:8|11:43|9:78|42:123|83:114|83:114|107:111|128:125,1,225,0|0,1:0|0:0,1:0:0:0:
176,72,105615,5,4,1:2:0:0:
117,255,105786,1,0,1:0:0:0:
254,82,105957,5,4,1:2:0:0:
227,284,106129,1,0,1:0:0:0:
328,58,106300,5,4,1:2:0:0:
336,312,106472,1,0,1:0:0:0:
176,72,106643,5,0,1:0:0:0:
254,82,106729,1,0,1:0:0:0:
328,58,106815,1,0,1:0:0:0:
334,55,106986,1,0,1:0:0:0:
445,340,107329,5,0,1:0:0:0:
457,346,107843,1,0,1:0:0:0:
17,184,108015,5,0,1:0:0:0:
35,76,108357,37,2,1:2:0:0:
5,190,108529,37,0,1:0:0:0:
372,19,108700,5,0,1:0:0:0:
378,7,109215,1,0,1:0:0:0:
211,357,109386,5,2,1:2:0:0:
344,292,109557,5,2,1:2:0:0:
378,7,109729,6,0,L|376:28,1,18.75,2|0,1:2|0:0,0:0:0:0:
371,28,109900,2,0,L|370:38,3,9.375,2|0|0|0,1:2|0:0|0:0|0:0,0:0:0:0:
366,46,110072,5,2,1:2:0:0:
344,292,110243,53,2,1:2:0:0:
378,40,110586,21,0,1:0:0:0:
75,218,110757,5,0,1:0:0:0:
63,212,111272,1,0,1:0:0:0:
381,359,111443,5,0,1:0:0:0:
481,316,111786,21,2,1:2:0:0:
387,371,111957,53,0,1:0:0:0:
185,5,112129,5,0,1:0:0:0:
191,2,112472,5,2,1:2:0:0:
185,5,112643,6,0,L|211:8,1,18.75,0|0,1:0|0:0,0:0:0:0:
486,113,112815,5,0,1:0:0:0:
498,107,113329,1,0,1:0:0:0:
97,361,113500,5,2,1:2:0:0:
0,330,113672,37,2,1:2:0:0:
0,330,113843,1,2,1:2:0:0:
103,373,114015,37,0,1:0:0:0:
12,52,114186,5,0,1:0:0:0:
0,46,114700,1,0,1:0:0:0:
361,241,114872,5,2,1:2:0:0:
12,52,115215,5,2,1:2:0:0:
0,46,115300,1,0,1:0:0:0:
6,49,115386,6,0,L|22:57,1,18.75,0|0,1:0|0:0,0:0:0:0:
361,241,115557,5,0,1:0:0:0:
373,247,116072,1,0,1:0:0:0:
114,62,116243,5,0,1:0:0:0:
111,56,116586,1,4,1:2:0:0:
108,50,116757,1,0,1:0:0:0:
170,236,116929,5,4,1:2:0:0:
105,44,117100,1,0,1:0:0:0:
88,279,117272,5,4,1:2:0:0:
187,1,117443,1,0,1:0:0:0:
198,16,117529,1,0,1:0:0:0:
212,45,117615,1,0,1:0:0:0:
224,88,117700,1,0,1:0:0:0:
218,157,117786,1,0,1:0:0:0:
174,231,117872,1,0,1:0:0:0:
94,277,117957,38,0,P|179:228|355:301,1,300,0|0,1:0|0:0,0:0:0:0:
352,374,120015,1,0,0:0:0:0:
216,384,120357,53,2,0:0:0:0:
231,367,120443,1,2,0:0:0:0:
261,355,120529,1,2,0:0:0:0:
301,357,120615,1,2,0:0:0:0:
346,377,120700,21,0,1:0:0:0:
356,253,120872,53,2,0:0:0:0:
357,312,120957,1,2,0:0:0:0:
358,371,121043,1,0,1:0:0:0:
362,250,121215,38,0,B|374:194|363:140|352:171|341:112|362:62,1,187.5,4|0,1:0|0:0,0:0:0:0:
422,16,122757,1,0,0:0:0:0:
470,115,122929,37,2,0:0:0:0:
360,65,123100,1,2,0:0:0:0:
208,210,123272,1,2,0:0:0:0:
68,3,123443,21,0,1:0:0:0:
65,9,123615,1,0,1:0:0:0:
70,7,123786,1,0,1:0:0:0:
62,4,123958,1,0,1:0:0:0:
131,372,124815,5,2,0:0:0:0:
54,257,125500,1,2,0:0:0:0:
138,42,126186,1,2,0:0:0:0:
144,45,126529,2,0,L|143:61,8,9.375
150,48,127386,37,0,1:0:0:0:
265,125,127557,1,0,1:0:0:0:
480,41,127729,1,0,1:0:0:0:
483,35,128072,21,2,0:0:0:0:
486,29,128415,53,0,1:0:0:0:
449,156,128586,1,0,1:0:0:0:
282,265,128757,1,0,1:0:0:0:
49,254,128929,38,0,P|115:249|277:263,1,225,4|0,1:0|0:0,0:0:0:0:
282,265,130300,2,0,P|170:250|58:252,1,225,2|0,0:0|0:0,0:0:0:0:
0,300,131500,1,2,0:0:0:0:
47,178,131672,37,0,1:0:0:0:
151,129,131843,1,0,1:0:0:0:
251,137,132015,1,0,1:0:0:0:
318,186,132186,22,0,B|333:232|334:273|334:273|333:309|381:328|419:277|395:245|395:245|362:196|373:131,1,337.5,2|0,0:0|0:0,0:0:0:0:
376,125,134415,6,2,B|315:116|251:140|288:149|231:176|160:164,1,225,6|2,2:0|2:0,0:0:0:0:
420,137,137157,6,2,B|330:99|251:140|288:149|224:186|132:157,1,300,2|2,2:0|2:0,0:0:0:0:
