osu file format v14

[General]
AudioFilename: audio.mp3
AudioLeadIn: 0
PreviewTime: 95329
Countdown: 0
SampleSet: Soft
StackLeniency: 0.6
Mode: 0
LetterboxInBreaks: 0
WidescreenStoryboard: 0

[Editor]
DistanceSpacing: 2.5
BeatDivisor: 4
GridSize: 32
TimelineZoom: 1.7

[Metadata]
Title:Cosmo Memory
TitleUnicode:Cosmo Memory
Artist:Nardis
ArtistUnicode:Nardis
Creator:Stjpa
Version:Hyper
Source:BMS
Tags:hootowlstar feb thievley BMS of fighters ultimate bofu 2016 final fantasy alpha complex big crunch frenz2016
BeatmapID:1148949
BeatmapSetID:533678

[Difficulty]
HPDrainRate:6
CircleSize:4
OverallDifficulty:7
ApproachRate:8.5
SliderMultiplier:1.3
SliderTickRate:1

[Events]
//Background and Video events
Video,-120,"cosmo.avi"
0,0,"cosmo (2).png",0,0
//Break Periods
2,24900,26618
2,68786,70311
//Storyboard Layer 0 (Background)
//Storyboard Layer 1 (Fail)
//Storyboard Layer 2 (Pass)
//Storyboard Layer 3 (Foreground)
//Storyboard Sound Samples

[TimingPoints]
15,342.857142857143,4,2,1,50,1,0
2415,-100,4,2,2,50,0,0
2672,-100,4,2,1,5,0,0
2757,-100,4,2,2,50,0,0
10986,-100,4,2,2,50,0,0
11672,-100,4,2,2,50,0,0
12357,-100,4,2,2,50,0,0
13043,-100,4,2,2,50,0,0
13729,-100,4,2,1,50,0,0
14243,-100,4,2,2,50,0,0
15100,-100,4,2,1,50,0,0
15615,-100,4,2,2,50,0,0
16129,-100,4,2,1,50,0,0
16986,-100,4,2,2,50,0,0
17843,-100,4,2,1,50,0,0
19215,-100,4,2,1,30,0,0
19557,-100,4,2,1,30,0,0
20586,-100,4,2,1,40,0,0
21957,-100,4,2,1,50,0,0
23329,-100,4,2,1,60,0,0
28815,-100,4,2,2,60,0,0
29843,-100,4,2,1,60,0,0
35329,-100,4,2,1,60,0,0
43557,-100,4,2,1,50,0,0
46643,-100,4,2,1,50,0,0
46986,-166.666666666667,4,2,1,75,0,1
49043,-166.666666666667,4,2,1,75,0,1
49386,-166.666666666667,4,2,1,75,0,1
49729,-166.666666666667,4,2,1,75,0,1
51786,-166.666666666667,4,2,1,75,0,1
52129,-100,4,2,1,75,0,1
52472,-166.666666666667,4,2,1,75,0,1
54529,-166.666666666667,4,2,1,75,0,1
54872,-166.666666666667,4,2,1,75,0,1
55215,-166.666666666667,4,2,1,75,0,1
56843,-166.666666666667,4,2,1,5,0,1
56929,-166.666666666667,4,2,1,75,0,1
57615,-166.666666666667,4,2,2,75,0,1
57957,-166.666666666667,4,2,1,75,0,1
60015,-166.666666666667,4,2,1,75,0,1
60357,-166.666666666667,4,2,1,75,0,1
60700,-166.666666666667,4,2,1,75,0,1
62757,-166.666666666667,4,2,1,75,0,1
63100,-100,4,2,1,75,0,1
63443,-166.666666666667,4,2,1,75,0,1
65500,-166.666666666667,4,2,1,75,0,1
65843,-166.666666666667,4,2,1,75,0,1
66186,-166.666666666667,4,2,1,75,0,1
68586,-100,4,2,1,50,0,0
77500,-100,4,2,2,50,0,0
79215,-100,4,2,1,50,0,0
80929,-100,4,2,2,50,0,0
82300,-100,4,2,1,50,0,0
85043,-100,4,2,1,50,0,0
85215,-100,4,2,1,20,0,0
85386,-100,4,2,1,50,0,0
85557,-100,4,2,1,20,0,0
85729,-100,4,2,1,50,0,0
85900,-100,4,2,1,20,0,0
86072,-100,4,2,1,50,0,0
86243,-100,4,2,1,20,0,0
86415,-100,4,2,1,55,0,0
86586,-100,4,2,1,25,0,0
86757,-100,4,2,1,55,0,0
86929,-100,4,2,1,25,0,0
87100,-100,4,2,1,55,0,0
87272,-100,4,2,1,25,0,0
87443,-100,4,2,1,55,0,0
88643,-100,4,2,1,25,0,0
88815,-100,4,2,1,55,0,0
88986,-100,4,2,1,25,0,0
89157,-100,4,2,1,60,0,0
89329,-100,4,2,1,30,0,0
89500,-100,4,2,1,60,0,0
89672,-100,4,2,1,30,0,0
89843,-100,4,2,1,60,0,0
90015,-100,4,2,1,30,0,0
90186,-100,4,2,1,60,0,0
90357,-100,4,2,1,30,0,0
90529,-100,4,2,1,65,0,0
91900,-100,4,2,1,65,0,0
93272,-100,4,2,1,70,0,0
94643,-100,4,2,1,70,0,0
96357,-166.666666666667,4,2,1,75,0,1
96786,-166.666666666667,4,2,1,5,0,1
96872,-166.666666666667,4,2,1,75,0,1
96957,-166.666666666667,4,2,1,5,0,1
97043,-166.666666666667,4,2,1,75,0,1
97300,-166.666666666667,4,2,1,5,0,1
97386,-166.666666666667,4,2,1,75,0,1
97472,-166.666666666667,4,2,1,5,0,1
97557,-166.666666666667,4,2,1,75,0,1
97643,-166.666666666667,4,2,1,5,0,1
97729,-166.666666666667,4,2,1,75,0,1
97986,-166.666666666667,4,2,1,5,0,1
98072,-166.666666666667,4,2,1,75,0,1
98157,-166.666666666667,4,2,1,5,0,1
98243,-166.666666666667,4,2,1,75,0,1
98329,-166.666666666667,4,2,1,5,0,1
98415,-166.666666666667,4,2,1,75,0,1
98672,-166.666666666667,4,2,1,5,0,1
98757,-166.666666666667,4,2,1,75,0,1
98843,-166.666666666667,4,2,1,5,0,1
98929,-166.666666666667,4,2,1,75,0,1
99100,-166.666666666667,4,2,1,75,0,1
99529,-166.666666666667,4,2,1,5,0,1
99615,-166.666666666667,4,2,1,75,0,1
99700,-166.666666666667,4,2,1,5,0,1
99786,-166.666666666667,4,2,1,75,0,1
100215,-166.666666666667,4,2,1,5,0,1
100300,-166.666666666667,4,2,1,75,0,1
100386,-166.666666666667,4,2,1,5,0,1
100472,-166.666666666667,4,2,1,75,0,1
100729,-166.666666666667,4,2,1,5,0,1
100815,-166.666666666667,4,2,1,75,0,1
100900,-166.666666666667,4,2,1,5,0,1
100986,-166.666666666667,4,2,1,75,0,1
101072,-166.666666666667,4,2,1,5,0,1
101157,-166.666666666667,4,2,1,75,0,1
101243,-166.666666666667,4,2,1,5,0,1
101329,-166.666666666667,4,2,1,75,0,1
101415,-166.666666666667,4,2,1,5,0,1
101500,-166.666666666667,4,2,1,75,0,1
102272,-166.666666666667,4,2,1,5,0,1
102357,-166.666666666667,4,2,1,75,0,1
102443,-166.666666666667,4,2,1,5,0,1
102529,-166.666666666667,4,2,1,75,0,1
102786,-166.666666666667,4,2,1,5,0,1
102872,-166.666666666667,4,2,1,75,0,1
102957,-166.666666666667,4,2,1,5,0,1
103043,-166.666666666667,4,2,1,75,0,1
103129,-166.666666666667,4,2,1,5,0,1
103215,-166.666666666667,4,2,1,75,0,1
103472,-166.666666666667,4,2,1,5,0,1
103557,-166.666666666667,4,2,1,75,0,1
103643,-166.666666666667,4,2,1,5,0,1
103729,-166.666666666667,4,2,1,75,0,1
103815,-166.666666666667,4,2,1,5,0,1
103900,-166.666666666667,4,2,1,75,0,1
104157,-166.666666666667,4,2,1,5,0,1
104243,-166.666666666667,4,2,1,75,0,1
104329,-166.666666666667,4,2,1,75,0,1
104415,-166.666666666667,4,2,1,75,0,1
104586,-166.666666666667,4,2,1,75,0,1
105015,-166.666666666667,4,2,1,5,0,1
105100,-166.666666666667,4,2,1,75,0,1
105186,-166.666666666667,4,2,1,5,0,1
105272,-166.666666666667,4,2,1,75,0,1
105529,-166.666666666667,4,2,1,5,0,1
105615,-166.666666666667,4,2,1,75,0,1
107757,-166.666666666667,4,2,1,5,0,1
107843,-166.666666666667,4,2,1,75,0,1
107929,-166.666666666667,4,2,1,5,0,1
108015,-166.666666666667,4,2,1,75,0,1
108272,-166.666666666667,4,2,1,5,0,1
108357,-166.666666666667,4,2,1,75,0,1
108443,-166.666666666667,4,2,1,5,0,1
108529,-166.666666666667,4,2,1,75,0,1
108615,-166.666666666667,4,2,1,5,0,1
108700,-166.666666666667,4,2,1,75,0,1
109129,-166.666666666667,4,2,1,5,0,1
109215,-166.666666666667,4,2,1,75,0,1
109300,-166.666666666667,4,2,1,5,0,1
109386,-166.666666666667,4,2,1,75,0,1
109472,-166.666666666667,4,2,1,5,0,1
109557,-166.666666666667,4,2,1,75,0,1
109643,-166.666666666667,4,2,1,5,0,1
109729,-166.666666666667,4,2,1,75,0,1
109815,-166.666666666667,4,2,1,5,0,1
109900,-166.666666666667,4,2,1,75,0,1
110072,-166.666666666667,4,2,1,75,0,1
110500,-166.666666666667,4,2,1,5,0,1
110586,-166.666666666667,4,2,1,75,0,1
110672,-166.666666666667,4,2,1,5,0,1
110757,-166.666666666667,4,2,1,75,0,1
111186,-166.666666666667,4,2,1,5,0,1
111272,-166.666666666667,4,2,1,75,0,1
111357,-166.666666666667,4,2,1,5,0,1
111443,-166.666666666667,4,2,1,75,0,1
111700,-166.666666666667,4,2,1,5,0,1
111786,-166.666666666667,4,2,1,75,0,1
111872,-166.666666666667,4,2,1,5,0,1
111957,-166.666666666667,4,2,1,75,0,1
112043,-166.666666666667,4,2,1,5,0,1
112129,-166.666666666667,4,2,1,75,0,1
112386,-166.666666666667,4,2,1,5,0,1
112472,-166.666666666667,4,2,1,75,0,1
112729,-166.666666666667,4,2,1,5,0,1
112815,-166.666666666667,4,2,1,75,0,1
113243,-166.666666666667,4,2,1,5,0,1
113329,-166.666666666667,4,2,1,75,0,1
113415,-166.666666666667,4,2,1,5,0,1
113500,-166.666666666667,4,2,1,75,0,1
113586,-166.666666666667,4,2,1,5,0,1
113672,-166.666666666667,4,2,1,75,0,1
113757,-166.666666666667,4,2,1,5,0,1
113843,-166.666666666667,4,2,1,75,0,1
113929,-166.666666666667,4,2,1,5,0,1
114015,-166.666666666667,4,2,1,75,0,1
114100,-166.666666666667,4,2,1,5,0,1
114186,-166.666666666667,4,2,1,75,0,1
114615,-166.666666666667,4,2,1,5,0,1
114700,-166.666666666667,4,2,1,75,0,1
114786,-166.666666666667,4,2,1,5,0,1
114872,-166.666666666667,4,2,1,75,0,1
115129,-166.666666666667,4,2,1,5,0,1
115215,-166.666666666667,4,2,1,75,0,1
115257,-166.666666666667,4,2,1,5,0,1
115300,-166.666666666667,4,2,1,75,0,1
115343,-166.666666666667,4,2,1,5,0,1
115386,-166.666666666667,4,2,1,75,0,1
115429,-166.666666666667,4,2,1,5,0,1
115472,-166.666666666667,4,2,1,75,0,1
115515,-166.666666666667,4,2,1,5,0,1
115557,-166.666666666667,4,2,1,75,0,1
115986,-166.666666666667,4,2,1,5,0,1
116072,-166.666666666667,4,2,1,75,0,1
116157,-166.666666666667,4,2,1,5,0,1
116243,-166.666666666667,4,2,1,75,0,1
116500,-166.666666666667,4,2,1,5,0,1
116586,-166.666666666667,4,2,1,75,0,1
117957,-100,4,2,1,30,0,0
118472,-100,4,2,1,30,0,0
127386,-100,4,2,1,30,0,0
128415,-100,4,2,1,30,0,0

[Colours]
Combo1 : 0,225,225
Combo2 : 255,145,91
Combo3 : 0,120,240
Combo4 : 255,196,17

[HitObjects]
135,94,2415,5,2,0:0:0:0:
134,114,2757,6,0,P|97:124|58:118,2,65,2|0|0,0:0|0:0|0:0,0:0:0:0:
217,61,3272,2,0,P|271:41|345:56,1,130,2|0,0:0|0:0,0:0:0:0:
410,121,3786,1,2,0:0:0:0:
360,204,3957,1,0,0:0:0:0:
404,290,4129,6,0,P|359:301|314:285,1,65,2|0,0:0|0:0,0:0:0:0:
258,245,4472,1,0,0:0:0:0:
177,189,4643,2,0,P|107:175|33:204,1,130,2|0,0:0|0:0,0:0:0:0:
13,281,5157,1,2,0:0:0:0:
66,363,5329,1,0,0:0:0:0:
147,309,5500,6,0,L|216:318,1,65,2|0,0:0|0:0,0:0:0:0:
304,286,5843,1,0,0:0:0:0:
386,338,6015,2,0,P|402:286|363:209,1,130,2|0,0:0|0:0,0:0:0:0:
293,162,6529,2,0,P|286:126|297:93,1,65,2|0,0:0|0:0,0:0:0:0:
340,13,6872,5,2,0:0:0:0:
242,7,7043,1,0,0:0:0:0:
144,7,7215,1,0,0:0:0:0:
46,4,7386,1,0,0:0:0:0:
92,89,7557,5,2,0:0:0:0:
98,186,7728,1,0,0:0:0:0:
110,283,7900,1,2,0:0:0:0:
116,380,8071,1,0,0:0:0:0:
184,310,8243,6,0,P|189:274|164:223,1,65,2|0,0:0|0:0,0:0:0:0:
98,186,8586,1,0,0:0:0:0:
180,134,8757,2,0,B|223:120|223:120|311:124,1,130,2|0,0:0|0:0,0:0:0:0:
391,175,9272,1,2,0:0:0:0:
389,77,9443,1,0,0:0:0:0:
468,133,9615,6,0,L|476:213,1,65,2|0,0:0|0:0,0:0:0:0:
442,289,9957,1,0,0:0:0:0:
497,369,10129,2,0,P|436:387|371:351,1,130,2|0,0:0|0:0,0:0:0:0:
319,281,10643,2,0,P|286:265|238:266,1,65,2|0,0:0|0:0,0:0:0:0:
166,295,10986,5,2,0:0:0:0:
68,300,11157,1,0,0:0:0:0:
24,212,11329,2,0,P|16:179|24:131,1,65,0|0,0:0|0:0,0:0:0:0:
100,95,11672,1,2,0:0:0:0:
197,97,11843,1,0,0:0:0:0:
151,183,12015,2,0,P|148:224|160:249,1,65,0|0,0:0|0:0,0:0:0:0:
246,205,12357,5,2,0:0:0:0:
337,238,12529,1,0,0:0:0:0:
428,205,12700,2,0,P|430:164|421:138,1,65,0|0,0:0|0:0,0:0:0:0:
335,98,13043,1,2,0:0:0:0:
239,77,13215,1,0,0:0:0:0:
303,4,13386,2,0,P|337:0|370:8,1,65,0|0,0:0|0:0,0:0:0:0:
335,98,13729,6,0,L|183:67,1,130,12|0,0:3|0:0,0:0:0:0:
113,103,14243,2,0,P|76:154|78:233,1,130,2|0,0:0|0:0,0:0:0:0:
141,290,14757,2,0,L|213:289,1,65,2|0,0:0|0:0,0:0:0:0:
288,235,15100,6,0,P|329:222|413:261,1,130,2|0,0:0|0:0,0:0:0:0:
338,324,15615,2,0,P|394:355|467:334,1,130,2|0,0:0|0:0,0:0:0:0:
501,255,16129,1,2,0:3:0:0:
442,177,16300,1,2,0:3:0:0:
490,92,16472,6,0,P|497:54|481:7,1,65,2|0,0:0|0:0,0:0:0:0:
398,56,16815,1,0,0:0:0:0:
305,26,16986,2,0,B|254:19|254:19|174:36,1,130,2|0,0:0|0:0,0:0:0:0:
94,86,17500,1,2,0:0:0:0:
73,102,17843,6,0,P|70:142|82:173,1,65,2|0,0:0|0:0,0:0:0:0:
70,262,18186,2,0,P|96:292|126:305,1,65,2|0,0:0|0:0,0:0:0:0:
181,377,18529,2,0,P|220:379|252:368,1,65,10|0,0:0|0:0,0:0:0:0:
342,380,18872,2,0,P|372:353|385:323,1,65,10|0,0:0|0:0,0:0:0:0:
343,241,19215,6,0,P|377:233|416:244,2,65,2|2|2,0:0|0:0|0:0,0:0:0:0:
257,288,19729,1,2,0:0:0:0:
168,247,19900,2,0,P|133:254|94:243,2,65,2|2|2,0:0|0:0|0:0,0:0:0:0:
245,185,20415,1,2,0:0:0:0:
204,96,20586,6,0,P|197:63|208:23,1,65,2|2,0:0|0:0,0:0:0:0:
299,15,20929,2,0,L|378:20,1,65,2|2,0:0|0:0,0:0:0:0:
420,99,21272,2,0,P|416:133|427:164,1,65,2|2,0:0|0:0,0:0:0:0:
494,231,21615,2,0,P|498:265|487:296,1,65,2|2,0:0|0:0,0:0:0:0:
408,349,21957,6,0,L|336:336,1,65,6|2,0:0|0:0,0:0:0:0:
257,292,22300,2,0,L|185:305,1,65,2|2,0:0|0:0,0:0:0:0:
114,361,22643,1,2,0:0:0:0:
27,315,22815,1,2,0:0:0:0:
13,218,22986,1,2,0:0:0:0:
70,139,23157,1,2,0:0:0:0:
140,207,23329,5,2,0:0:0:0:
236,194,23500,1,2,0:0:0:0:
333,182,23672,1,2,0:0:0:0:
429,168,23843,1,2,0:0:0:0:
366,92,24015,2,0,P|360:69|363:47,7,32.5,2|2|2|2|2|0|2|2,0:0|0:0|0:0|0:0|0:0|0:0|0:0|0:0,0:0:0:0:
374,13,24700,5,6,0:0:0:0:
419,166,27443,5,2,0:0:0:0:
425,263,27615,1,2,0:0:0:0:
116,333,28815,5,2,0:2:0:0:
124,308,29157,1,2,0:2:0:0:
132,283,29500,1,2,0:2:0:0:
142,259,29843,2,0,P|154:231|154:221,3,32.5,8|8|8|8,0:3|0:3|0:3|0:3,0:0:0:0:
154,183,30186,5,6,0:0:0:0:
154,183,31215,5,6,0:0:0:0:
302,44,32415,6,0,L|408:41,1,97.5,2|0,0:0|0:0,0:0:0:0:
442,63,32757,1,2,0:0:0:0:
409,155,32929,1,2,0:0:0:0:
343,342,33615,5,0,0:0:0:0:
290,260,33786,2,0,P|286:238|288:220,5,32.5,0|0|0|0|0|0,0:0|0:0|0:0|0:0|0:0|0:0,0:0:0:0:
315,188,34300,6,0,P|326:155|314:97,1,65,2|0,0:0|0:0,0:0:0:0:
255,55,34643,2,0,L|173:47,1,65,2|0,0:0|0:0,0:0:0:0:
102,4,34986,2,0,L|20:12,1,65,2|0,0:0|0:0,0:0:0:0:
10,104,35329,2,0,L|20:226,1,97.5,2|0,0:0|0:0,0:0:0:0:
51,236,35672,6,0,P|91:243|134:226,1,65,8|8,0:0|0:0,0:0:0:0:
182,167,36015,1,2,0:0:0:0:
202,151,36357,1,2,0:0:0:0:
222,135,36700,2,0,L|301:141,1,65,8|8,0:0|0:0,0:0:0:0:
371,189,37043,5,2,0:0:0:0:
395,186,37386,1,2,0:0:0:0:
420,182,37729,1,2,0:0:0:0:
496,241,37900,2,0,P|506:281|506:312,1,65,8|0,0:0|0:0,0:0:0:0:
428,363,38243,1,2,0:0:0:0:
341,317,38415,6,0,P|306:310|257:319,1,65,8|8,0:0|0:0,0:0:0:0:
185,346,38757,1,2,0:0:0:0:
187,320,39100,1,2,0:0:0:0:
189,294,39443,2,0,L|195:216,1,65,8|8,0:0|0:0,0:0:0:0:
263,160,39786,5,2,0:0:0:0:
260,134,40129,1,2,0:0:0:0:
257,108,40472,1,2,0:0:0:0:
188,39,40643,2,0,P|147:34|111:44,1,65,8|0,0:0|0:0,0:0:0:0:
50,103,40986,1,2,0:0:0:0:
114,175,41157,6,0,B|119:209|119:209|114:246,1,65,8|8,0:0|0:0,0:0:0:0:
68,325,41500,1,2,0:0:0:0:
92,332,41843,1,2,0:0:0:0:
116,339,42186,2,0,L|201:332,1,65,8|8,0:0|0:0,0:0:0:0:
266,286,42529,5,2,0:0:0:0:
290,294,42872,1,2,0:0:0:0:
314,303,43215,2,0,P|348:310|380:303,1,65,2|8,0:0|0:0,0:0:0:0:
451,240,43557,1,2,0:0:0:0:
412,150,43729,1,0,0:0:0:0:
444,58,43900,6,0,P|398:52|368:64,1,65,8|8,0:0|0:0,0:0:0:0:
300,112,44243,1,8,0:0:0:0:
210,151,44415,1,8,0:0:0:0:
114,131,44586,1,8,0:0:0:0:
24,92,44757,1,8,0:0:0:0:
37,188,44929,2,0,L|38:255,1,65,8|8,0:0|0:0,0:0:0:0:
105,324,45272,5,8,0:0:0:0:
199,302,45443,1,8,0:0:0:0:
293,275,45615,1,8,0:0:0:0:
385,245,45786,1,0,0:0:0:0:
310,182,45957,2,0,L|262:179,3,32.5,0|0|0|0,0:0|0:0|0:0|0:0,0:0:0:0:
230,165,46300,6,0,P|184:152|115:178,1,97.5,8|0,0:0|0:0,0:0:0:0:
103,199,46643,2,0,L|116:307,1,97.5,2|0,0:0|0:0,0:0:0:0:
136,315,46986,6,0,L|222:320,1,77.999997619629,12|0,0:0|0:0,0:0:0:0:
302,361,47500,1,2,0:0:0:0:
256,211,47672,2,0,P|245:173|257:120,1,77.999997619629,12|0,0:0|0:0,0:0:0:0:
327,75,48186,1,2,0:0:0:0:
179,26,48357,2,0,L|87:38,1,77.999997619629,12|0,0:0|0:0,0:0:0:0:
37,110,48872,1,2,0:0:0:0:
175,181,49043,2,0,L|182:235,1,38.9999988098145,12|0,0:0|0:0,0:0:0:0:
219,309,49386,1,2,0:0:0:0:
75,368,49557,2,0,L|67:336,1,19.4999994049072,0|0,0:0|0:0,0:0:0:0:
36,313,49729,6,0,L|41:229,1,77.999997619629,12|0,0:0|0:0,0:0:0:0:
15,140,50243,1,2,0:0:0:0:
137,41,50415,2,0,L|214:47,1,77.999997619629,12|0,0:0|0:0,0:0:0:0:
289,112,50929,1,2,0:0:0:0:
173,216,51100,2,0,L|229:226,1,38.9999988098145,12|0,0:0|0:0,0:0:0:0:
300,263,51443,2,0,L|352:254,1,38.9999988098145,2|0,0:0|0:0,0:0:0:0:
494,244,51786,2,0,P|496:273|489:301,1,58.4999982147217,12|0,0:0|0:0,0:0:0:0:
426,358,52129,6,0,L|328:362,1,97.5,2|0,0:0|0:0,0:0:0:0:
248,336,52472,6,0,P|210:352|163:345,1,77.999997619629,12|0,0:0|0:0,0:0:0:0:
83,312,52986,1,2,0:0:0:0:
153,173,53157,2,0,L|229:185,1,77.999997619629,12|0,0:0|0:0,0:0:0:0:
301,252,53672,1,2,0:0:0:0:
428,162,53843,2,0,B|433:122|433:122|420:86,1,77.999997619629,12|0,0:0|0:0,0:0:0:0:
337,35,54357,1,2,0:0:0:0:
198,107,54529,2,0,L|156:110,1,38.9999988098145,12|0,0:0|0:0,0:0:0:0:
72,63,54872,2,0,L|78:40,3,19.4999994049072,0|0|0|0,0:0|0:0|0:0|0:0,0:0:0:0:
60,90,55215,6,0,L|64:175,1,77.999997619629,12|0,0:0|0:0,0:0:0:0:
44,263,55729,1,2,0:0:0:0:
173,349,55900,2,0,L|214:341,1,38.9999988098145,12|0,0:0|0:0,0:0:0:0:
287,269,56243,2,0,L|246:261,1,38.9999988098145,2|0,0:0|0:0,0:0:0:0:
154,136,56586,2,0,P|173:134|192:137,1,38.9999988098145,12|0,0:0|0:0,0:0:0:0:
339,191,56929,5,8,0:0:0:0:
459,92,57100,1,2,0:0:0:0:
481,246,57272,1,2,0:0:0:0:
481,246,57357,1,2,0:0:0:0:
481,246,57443,1,2,0:0:0:0:
363,349,57615,2,0,L|387:346,3,19.4999994049072,4|4|0|0,0:3|0:3|0:0|0:0,0:0:0:0:
334,339,57957,6,0,P|296:328|259:338,1,77.999997619629,12|0,0:0|0:0,0:0:0:0:
170,380,58472,1,2,0:0:0:0:
63,266,58643,2,0,L|72:188,1,77.999997619629,12|0,0:0|0:0,0:0:0:0:
49,93,59157,1,2,0:0:0:0:
198,45,59329,2,0,B|234:37|234:37|274:43,1,77.999997619629,12|0,0:0|0:0,0:0:0:0:
351,104,59843,1,2,0:0:0:0:
262,232,60015,2,0,L|276:281,1,38.9999988098145,12|0,0:0|0:0,0:0:0:0:
328,349,60357,1,2,0:0:0:0:
473,290,60529,2,0,L|466:257,1,19.4999994049072,0|0,0:0|0:0,0:0:0:0:
435,235,60700,6,0,B|424:192|424:192|427:155,1,77.999997619629,12|0,0:0|0:0,0:0:0:0:
483,78,61215,1,2,0:0:0:0:
338,19,61386,2,0,P|298:15|261:30,1,77.999997619629,12|0,0:0|0:0,0:0:0:0:
202,104,61900,1,2,0:0:0:0:
313,213,62072,2,0,L|320:291,1,77.999997619629,12|0,0:0|0:0,0:0:0:0:
368,376,62586,1,2,0:0:0:0:
218,332,62757,2,0,B|187:338|187:338|143:331,1,58.4999982147217,12|0,0:0|0:0,0:0:0:0:
89,294,63100,6,0,P|81:247|99:188,1,97.5,2|0,0:0|0:0,0:0:0:0:
153,141,63443,6,0,L|237:128,1,77.999997619629,12|0,0:0|0:0,0:0:0:0:
320,166,63957,1,2,0:0:0:0:
233,35,64129,2,0,L|155:24,1,77.999997619629,12|0,0:0|0:0,0:0:0:0:
71,73,64643,1,2,0:0:0:0:
12,218,64815,2,0,B|10:250|10:250|17:299,1,77.999997619629,12|0,0:0|0:0,0:0:0:0:
83,367,65329,1,2,0:0:0:0:
223,299,65500,2,0,L|273:292,1,38.9999988098145,12|0,0:0|0:0,0:0:0:0:
351,331,65843,2,0,L|358:368,3,19.4999994049072,0|0|0|0,0:0|0:0|0:0|0:0,0:0:0:0:
363,302,66186,6,0,P|368:263|360:225,1,77.999997619629,12|0,0:0|0:0,0:0:0:0:
286,166,66700,1,2,0:0:0:0:
192,291,66872,2,0,L|151:284,1,38.9999988098145,12|0,0:0|0:0,0:0:0:0:
75,225,67215,2,0,L|82:184,1,38.9999988098145,2|0,0:0|0:0,0:0:0:0:
199,84,67557,5,12,0:0:0:0:
355,76,67729,1,2,0:0:0:0:
205,177,67900,5,12,0:0:0:0:
361,169,68072,1,2,0:0:0:0:
288,272,68243,5,2,0:0:0:0:
288,272,68329,1,2,0:0:0:0:
288,272,68415,1,2,0:0:0:0:
277,81,68586,5,4,0:0:0:0:
424,158,70986,6,0,L|435:208,3,32.5,2|2|2|2,0:0|0:0|0:0|0:0,0:0:0:0:
444,142,71329,2,0,B|477:148|477:148|517:130,2,65,2|0|0,0:0|0:0|0:0,0:0:0:0:
357,96,71843,1,2,0:0:0:0:
107,93,73386,5,0,0:0:0:0:
107,93,74072,1,2,0:0:0:0:
57,197,74415,6,0,L|0:190,3,32.5,2|2|2|2,0:0|0:0|0:0|0:0,0:0:0:0:
70,208,74757,1,2,0:0:0:0:
253,142,75100,1,2,0:0:0:0:
221,334,75443,5,0,0:0:0:0:
247,334,76129,1,0,0:0:0:0:
272,336,76815,5,2,0:0:0:0:
365,308,76986,1,2,0:0:0:0:
252,38,77500,5,2,0:2:0:0:
245,63,78186,1,2,0:2:0:0:
240,81,78700,5,2,0:0:0:0:
237,93,79043,1,2,0:0:0:0:
184,175,79215,2,0,P|180:202|183:214,3,32.5,2|2|2|2,0:0|0:0|0:0|0:0,0:0:0:0:
212,243,79557,5,2,0:0:0:0:
464,175,80929,5,2,0:2:0:0:
439,184,81615,1,2,0:2:0:0:
413,189,82300,5,4,0:1:0:0:
322,152,82472,1,4,0:1:0:0:
143,72,82815,5,4,0:1:0:0:
76,142,82986,1,4,0:1:0:0:
89,238,83157,1,4,0:1:0:0:
370,318,83672,5,4,0:1:0:0:
272,313,83843,1,4,0:1:0:0:
370,318,84015,5,4,0:1:0:0:
272,313,84186,1,4,0:1:0:0:
175,298,84357,1,2,0:0:0:0:
149,299,85043,6,0,P|153:331|147:366,2,65,2|0|2,0:0|0:0|0:0,0:0:0:0:
106,210,85557,1,0,0:0:0:0:
137,117,85729,2,0,P|105:111|72:115,2,65,2|0|2,0:0|0:0|0:0,0:0:0:0:
226,155,86243,1,0,0:0:0:0:
283,75,86415,6,0,P|318:60|362:63,1,65,2|0,0:0|0:0,0:0:0:0:
430,104,86757,2,0,P|465:118|494:151,1,65,2|0,0:0|0:0,0:0:0:0:
470,233,87100,2,0,P|485:268|482:312,1,65,2|0,0:0|0:0,0:0:0:0:
418,365,87443,1,2,0:0:0:0:
322,344,87615,1,0,0:0:0:0:
233,384,87786,5,2,0:0:0:0:
248,288,87957,1,2,0:0:0:0:
264,191,88129,1,2,0:0:0:0:
280,95,88300,1,0,0:0:0:0:
210,26,88472,2,0,P|164:26|135:46,1,65,2|0,0:0|0:0,0:0:0:0:
107,123,88815,2,0,P|74:155|68:190,1,65,2|0,0:0|0:0,0:0:0:0:
100,264,89157,6,0,L|171:275,1,65,6|0,0:0|0:0,0:0:0:0:
238,337,89500,2,0,L|309:326,1,65,6|0,0:0|0:0,0:0:0:0:
374,260,89843,2,0,L|364:195,1,65,6|0,0:0|0:0,0:0:0:0:
286,136,90186,2,0,L|295:71,1,65,6|0,0:0|0:0,0:0:0:0:
381,24,90529,6,0,P|394:63|389:104,1,65,2|2,0:0|0:0,0:0:0:0:
427,178,90872,2,0,P|408:214|376:240,1,65,2|2,0:0|0:0,0:0:0:0:
348,318,91215,2,0,P|308:330|267:326,1,65,2|2,0:0|0:0,0:0:0:0:
193,362,91557,2,0,P|156:343|130:311,1,65,2|2,0:0|0:0,0:0:0:0:
54,279,91900,6,0,P|41:239|46:198,1,65,2|2,0:0|0:0,0:0:0:0:
96,135,92243,2,0,P|114:98|146:72,1,65,2|2,0:0|0:0,0:0:0:0:
229,77,92586,2,0,P|268:64|309:69,1,65,2|2,0:0|0:0,0:0:0:0:
368,125,92929,2,0,P|404:143|430:175,1,65,2|2,0:0|0:0,0:0:0:0:
338,212,93272,6,0,P|350:251|346:292,1,65,2|2,0:0|0:0,0:0:0:0:
254,256,93615,2,0,P|235:292|203:318,1,65,2|2,0:0|0:0,0:0:0:0:
173,222,93957,2,0,P|133:234|92:229,1,65,2|2,0:0|0:0,0:0:0:0:
129,138,94300,2,0,P|92:119|66:87,1,65,2|2,0:0|0:0,0:0:0:0:
162,56,94643,5,2,0:0:0:0:
259,56,94815,1,2,0:0:0:0:
356,56,94986,1,2,0:0:0:0:
453,56,95157,1,2,0:0:0:0:
403,140,95329,5,2,0:0:0:0:
259,56,95500,1,2,0:0:0:0:
135,145,95672,1,2,0:0:0:0:
259,56,95843,1,2,0:0:0:0:
69,204,96015,2,0,P|51:158|67:92,1,97.5,2|0,0:0|0:0,0:0:0:0:
91,40,96357,6,0,L|172:46,1,77.999997619629,12|0,0:0|0:0,0:0:0:0:
246,105,96872,1,2,0:0:0:0:
142,221,97043,2,0,P|128:260|126:273,1,38.9999988098145,12|0,0:0|0:0,0:0:0:0:
170,345,97386,1,0,0:0:0:0:
255,298,97557,1,2,0:0:0:0:
396,364,97729,6,0,L|388:310,1,38.9999988098145,12|0,0:0|0:0,0:0:0:0:
342,240,98072,1,0,0:1:0:0:
376,148,98243,1,2,0:0:0:0:
221,170,98415,2,0,P|191:174|167:167,1,38.9999988098145,12|0,0:0|0:0,0:0:0:0:
90,140,98757,1,2,0:0:0:0:
4,271,98929,2,0,L|41:272,1,19.4999994049072,0|0,0:0|0:0,0:0:0:0:
68,291,99100,6,0,P|99:299|149:293,1,77.999997619629,12|0,0:0|0:0,0:0:0:0:
217,245,99615,1,2,0:0:0:0:
120,122,99786,2,0,B|126:71|126:71|139:48,1,77.999997619629,12|0,0:0|0:0,0:0:0:0:
233,20,100300,1,2,0:0:0:0:
322,148,100472,2,0,L|315:232,1,77.999997619629,12|2,0:0|0:0,0:0:0:0:
303,322,100986,1,0,0:0:0:0:
384,374,101157,1,12,0:0:0:0:
470,328,101329,1,0,0:0:0:0:
437,175,101500,2,0,B|432:140|432:140|443:103,1,58.4999982147217,2|0,0:0|0:0,0:0:0:0:
435,69,101843,6,0,P|389:53|356:55,1,77.999997619629,12|0,0:0|0:0,0:0:0:0:
270,92,102357,1,2,0:0:0:0:
347,231,102529,2,0,P|357:268|358:285,1,38.9999988098145,12|0,0:0|0:0,0:0:0:0:
319,358,102872,1,0,0:0:0:0:
237,304,103043,1,2,0:0:0:0:
90,358,103215,6,0,P|81:329|81:315,1,38.9999988098145,12|0,0:0|0:0,0:0:0:0:
125,234,103557,1,0,0:0:0:0:
63,157,103729,1,2,0:0:0:0:
172,45,103900,2,0,L|213:47,1,38.9999988098145,12|0,0:0|0:0,0:0:0:0:
293,99,104243,2,0,P|288:111|291:122,3,19.4999994049072,0|0|0|0,0:0|0:0|0:0|0:0,0:0:0:0:
321,80,104586,6,0,L|404:66,1,77.999997619629,12|0,0:0|0:0,0:0:0:0:
477,9,105100,1,2,0:0:0:0:
504,163,105272,2,0,L|497:219,1,38.9999988098145,12|0,0:0|0:0,0:0:0:0:
428,269,105615,5,8,0:0:0:0:
272,277,105787,1,2,0:0:0:0:
422,176,105958,5,8,0:0:0:0:
266,184,106130,1,0,0:0:0:0:
414,85,106300,5,8,0:0:0:0:
258,93,106472,1,0,0:0:0:0:
349,187,106643,1,2,0:0:0:0:
349,187,106729,1,2,0:0:0:0:
349,187,106815,1,2,0:0:0:0:
235,293,106986,2,0,L|191:301,1,38.9999988098145,2|0,0:0|0:0,0:0:0:0:
104,267,107329,6,0,P|93:217|108:177,1,77.999997619629,12|0,0:0|0:0,0:0:0:0:
159,114,107843,1,2,0:0:0:0:
305,168,108015,2,0,L|357:162,1,38.9999988098145,12|0,0:0|0:0,0:0:0:0:
436,193,108357,1,0,0:0:0:0:
492,112,108529,1,2,0:0:0:0:
358,32,108700,6,0,B|320:22|320:22|278:23,1,77.999997619629,12|0,0:0|0:0,0:0:0:0:
195,70,109215,1,2,0:0:0:0:
106,30,109386,1,12,0:0:0:0:
42,103,109557,1,0,0:0:0:0:
91,187,109729,1,2,0:0:0:0:
195,70,109900,2,0,L|206:98,1,19.4999994049072,0|0,0:0|0:0,0:0:0:0:
225,131,110072,6,0,P|235:171|229:210,1,77.999997619629,12|0,0:0|0:0,0:0:0:0:
154,269,110586,1,2,0:0:0:0:
287,348,110757,2,0,L|365:341,1,77.999997619629,12|0,0:0|0:0,0:0:0:0:
452,297,111272,1,2,0:0:0:0:
337,192,111443,2,0,P|326:167|325:143,1,38.9999988098145,12|0,0:0|0:0,0:0:0:0:
333,58,111786,1,0,0:0:0:0:
419,14,111957,1,2,0:0:0:0:
481,157,112129,2,0,L|476:221,1,58.4999982147217,12|0,0:0|0:0,0:0:0:0:
422,272,112472,2,0,P|380:281|350:272,1,58.4999982147217,2|0,0:0|0:0,0:0:0:0:
308,224,112815,6,0,P|266:215|217:226,1,77.999997619629,12|0,0:0|0:0,0:0:0:0:
147,270,113329,1,2,0:0:0:0:
53,244,113500,1,12,0:0:0:0:
19,152,113672,1,0,0:0:0:0:
61,64,113843,1,0,0:0:0:0:
126,136,114015,1,2,0:0:0:0:
256,51,114186,6,0,B|295:42|295:42|336:57,1,77.999997619629,12|0,0:0|0:0,0:0:0:0:
413,107,114700,1,2,0:0:0:0:
312,226,114872,2,0,P|300:256|300:279,1,38.9999988098145,12|0,0:0|0:0,0:0:0:0:
244,343,115215,2,0,L|209:342,3,19.4999994049072,0|0|0|0,0:0|0:0|0:0|0:0,0:0:0:0:
179,324,115557,2,0,P|171:281|182:245,1,77.999997619629,12|0,0:0|0:0,0:0:0:0:
242,172,116072,1,2,0:0:0:0:
146,49,116243,2,0,L|94:55,1,38.9999988098145,12|0,0:0|0:0,0:0:0:0:
48,132,116586,5,8,0:0:0:0:
204,124,116758,1,2,0:0:0:0:
54,225,116929,5,8,0:0:0:0:
210,217,117101,1,2,0:0:0:0:
62,316,117271,5,2,0:0:0:0:
218,308,117443,2,0,L|252:304,5,19.4999994049072,2|2|2|2|2|2,0:0|0:0|0:0|0:0|0:0|0:0,0:0:0:0:
287,320,117957,5,2,0:0:0:0:
305,327,118472,5,2,0:0:0:0:
305,327,118557,1,2,0:0:0:0:
305,327,118643,1,2,0:0:0:0:
429,160,118986,1,2,0:0:0:0:
255,45,119329,5,0,0:0:0:0:
234,52,120015,1,0,0:0:0:0:
221,56,120357,6,0,P|213:80|214:94,3,32.5,2|2|2|2,0:0|0:0|0:0|0:0,0:0:0:0:
226,137,120700,1,2,0:0:0:0:
278,227,120872,2,0,P|286:251|285:265,3,32.5,2|2|2|0,0:0|0:0|0:0|0:0,0:0:0:0:
271,308,121215,1,6,0:0:0:0:
34,167,122072,5,0,0:0:0:0:
40,141,122757,1,0,0:0:0:0:
46,115,123443,5,2,0:0:0:0:
138,83,123615,1,2,0:0:0:0:
229,116,123786,1,2,0:0:0:0:
320,82,123957,1,2,0:0:0:0:
218,318,124815,5,0,0:0:0:0:
212,292,125500,1,0,0:0:0:0:
166,163,126186,5,6,0:0:0:0:
172,137,126871,1,2,0:0:0:0:
176,117,127386,5,4,0:1:0:0:
272,103,127557,1,4,0:1:0:0:
369,90,127729,1,4,0:1:0:0:
381,88,128072,5,4,0:1:0:0:
393,86,128415,5,2,0:0:0:0:
466,149,128586,1,8,0:0:0:0:
480,245,128757,1,0,0:0:0:0:
422,324,128929,1,4,0:0:0:0:
134,87,130300,5,0,0:0:0:0:
121,123,131329,5,0,0:0:0:0:
76,209,131500,1,0,0:0:0:0:
115,298,131672,1,2,0:0:0:0:
206,263,131843,1,0,0:0:0:0:
292,308,132015,1,0,0:0:0:0:
377,261,132186,1,0,0:0:0:0:
207,41,133729,5,0,0:0:0:0:
270,342,134415,1,6,0:0:0:0:
207,41,136472,5,0,0:0:0:0:
270,342,137158,1,0,0:0:0:0:
256,192,137243,12,0,139900,0:0:0:0:
