osu file format v14

[General]
AudioFilename: audio.mp3
AudioLeadIn: 0
PreviewTime: 95308
Countdown: 0
SampleSet: Soft
StackLeniency: 0.7
Mode: 0
LetterboxInBreaks: 0
WidescreenStoryboard: 0

[Editor]
Bookmarks: 13685,19171,24656,30186,35628,46599,68542,68586,74028,83672,85043,96015,96358,117958,133729,134415,136472,137158,139900
DistanceSpacing: 1.9
BeatDivisor: 4
GridSize: 32
TimelineZoom: 3.099999

[Metadata]
Title:Cosmo Memory
TitleUnicode:Cosmo Memory
Artist:Nardis
ArtistUnicode:Nardis
Creator:Shiirn
Version:Entelecheia
Source:BMS
Tags:BMS of fighters ultimate bofu 2016 final fantasy alpha complex big crunch frenz2016 LogicAgent MikasaSerket Ongaku Anxient
BeatmapID:1099759
BeatmapSetID:517598

[Difficulty]
HPDrainRate:7
CircleSize:4.3
OverallDifficulty:9
ApproachRate:9.3
SliderMultiplier:2
SliderTickRate:2

[Events]
//Background and Video events
0,0,"hatson_moki_crop_2.png",0,0
//Break Periods
2,25071,26889
2,68786,70432
//Storyboard Layer 0 (Background)
//Storyboard Layer 1 (Fail)
//Storyboard Layer 2 (Pass)
//Storyboard Layer 3 (Foreground)
//Storyboard Sound Samples

[TimingPoints]
15,342.857142857143,4,2,2,5,1,0
357,-100,4,2,1,10,0,0
700,-100,4,2,1,15,0,0
1043,-100,4,2,1,20,0,0
1386,-100,4,2,1,25,0,0
1729,-100,4,2,1,30,0,0
2072,-100,4,2,1,5,0,0
2415,-100,4,2,2,50,0,0
2929,-133.333333333333,4,2,2,50,0,0
8243,-125,4,2,2,50,0,0
13729,-117.647058823529,4,2,4,70,0,0
17843,-117.647058823529,4,2,1,70,0,0
19215,-111.111111111111,4,2,1,70,0,0
21958,-105.263157894737,4,2,1,70,0,0
24700,-100,4,2,1,70,0,0
30186,-100,4,2,3,70,0,0
30529,-100,4,2,1,70,0,0
32929,-100,4,2,3,70,0,0
33272,-100,4,2,1,70,0,0
33872,-100,4,2,3,70,0,0
34300,-100,4,2,3,70,0,0
35329,-769.230769230769,4,2,3,70,0,0
35672,-142.857142857143,4,2,1,70,0,0
36015,-142.857142857143,4,2,3,70,0,0
36357,-142.857142857143,4,2,1,70,0,0
36700,-142.857142857143,4,2,1,70,0,0
37043,-142.857142857143,4,2,1,70,0,0
38072,-142.857142857143,4,2,4,70,0,0
38415,-142.857142857143,4,2,1,70,0,0
38757,-142.857142857143,4,2,3,70,0,0
38758,-142.857142857143,4,2,3,70,0,0
39100,-142.857142857143,4,2,1,70,0,0
39443,-142.857142857143,4,2,1,70,0,0
39786,-142.857142857143,4,2,1,70,0,0
40815,-142.857142857143,4,2,4,70,0,0
41158,-142.857142857143,4,2,1,70,0,0
41500,-142.857142857143,4,2,3,70,0,0
41843,-142.857142857143,4,2,1,70,0,0
42186,-142.857142857143,4,2,1,70,0,0
42529,-142.857142857143,4,2,1,70,0,0
43558,-142.857142857143,4,2,4,70,0,0
43900,-142.857142857143,4,2,1,70,0,0
44072,-142.857142857143,4,2,1,70,0,0
44243,-142.857142857143,4,2,1,70,0,0
44415,-142.857142857143,4,2,1,70,0,0
44586,-142.857142857143,4,2,1,70,0,0
44758,-142.857142857143,4,2,1,70,0,0
44929,-142.857142857143,4,2,1,70,0,0
45100,-142.857142857143,4,2,1,70,0,0
45272,-142.857142857143,4,2,1,70,0,0
45443,-142.857142857143,4,2,1,70,0,0
45615,-142.857142857143,4,2,1,70,0,0
45786,-142.857142857143,4,2,1,70,0,0
45958,-142.857142857143,4,2,1,70,0,0
46643,-200,4,2,3,70,0,0
46986,-263.157894736842,4,2,1,70,0,1
49386,-133.333333333333,4,2,1,70,0,1
49729,-263.157894736842,4,2,1,70,0,1
52129,-133.333333333333,4,2,3,70,0,1
52472,-263.157894736842,4,2,1,70,0,1
55043,-263.157894736842,4,2,3,70,0,1
55215,-263.157894736842,4,2,1,70,0,1
57100,-133.333333333333,4,2,1,70,0,1
57272,-263.157894736842,4,2,1,70,0,1
57615,-263.157894736842,4,2,3,70,0,1
57700,-263.157894736842,4,2,1,70,0,1
60358,-133.333333333333,4,2,1,70,0,1
60700,-263.157894736842,4,2,1,70,0,1
63100,-133.333333333333,4,2,3,70,0,1
63443,-263.157894736842,4,2,1,70,0,1
67729,-133.333333333333,4,2,1,70,0,1
67900,-263.157894736842,4,2,1,70,0,1
68072,-100,4,2,1,70,0,1
68243,-263.157894736842,4,2,1,70,0,1
68586,-133.333333333333,4,2,3,70,0,0
70986,-133.333333333333,4,2,4,70,0,0
74072,-133.333333333333,4,2,4,50,0,0
82300,-200,4,2,4,50,0,0
82986,-153.846153846154,4,2,4,50,0,0
84357,-153.846153846154,4,2,3,70,0,0
84358,-125,4,2,3,70,0,0
85043,-125,4,2,1,70,0,0
90529,-105.263157894737,4,2,1,70,0,0
94643,-80,4,2,1,70,0,0
96015,-80,4,2,3,70,0,0
96357,-222.222222222222,4,2,1,70,0,1
97386,-222.222222222222,4,2,2,70,0,1
97472,-222.222222222222,4,2,1,70,0,1
98072,-222.222222222222,4,2,2,70,0,1
98158,-222.222222222222,4,2,1,70,0,1
98758,-111.111111111111,4,2,2,70,0,1
98929,-111.111111111111,4,2,1,70,0,1
99100,-222.222222222222,4,2,1,70,0,1
101329,-222.222222222222,4,2,1,70,0,1
101415,-222.222222222222,4,2,1,70,0,1
101500,-111.111111111111,4,2,3,70,0,1
101843,-222.222222222222,4,2,1,70,0,1
102872,-222.222222222222,4,2,2,70,0,1
102958,-222.222222222222,4,2,1,70,0,1
103558,-222.222222222222,4,2,2,70,0,1
103643,-222.222222222222,4,2,1,70,0,1
104243,-222.222222222222,4,2,2,70,0,1
104329,-222.222222222222,4,2,1,65,0,1
104415,-222.222222222222,4,2,1,60,0,1
104500,-222.222222222222,4,2,1,55,0,1
104586,-222.222222222222,4,2,1,70,0,1
105786,-111.111111111111,4,2,1,70,0,1
105958,-222.222222222222,4,2,1,70,0,1
106129,-90.9090909090909,4,2,1,70,0,1
106300,-222.222222222222,4,2,1,70,0,1
106472,-76.9230769230769,4,2,1,70,0,1
106643,-222.222222222222,4,2,1,70,0,1
106986,-111.111111111111,4,2,4,70,0,1
107329,-222.222222222222,4,2,1,70,0,1
108358,-222.222222222222,4,2,2,70,0,1
108443,-222.222222222222,4,2,1,70,0,1
109386,-222.222222222222,4,2,1,70,0,1
109558,-222.222222222222,4,2,2,70,0,1
109729,-181.818181818182,4,2,1,70,0,1
109900,-181.818181818182,4,2,2,70,0,1
110072,-181.818181818182,4,2,1,70,0,1
110243,-222.222222222222,4,2,1,70,0,1
111786,-222.222222222222,4,2,2,70,0,1
111872,-222.222222222222,4,2,1,70,0,1
112472,-222.222222222222,4,2,4,70,0,1
112815,-222.222222222222,4,2,1,70,0,1
113672,-222.222222222222,4,2,2,70,0,1
114015,-222.222222222222,4,2,1,70,0,1
115215,-222.222222222222,4,2,1,70,0,1
115300,-222.222222222222,4,2,1,65,0,1
115386,-222.222222222222,4,2,1,60,0,1
115472,-222.222222222222,4,2,1,55,0,1
115558,-222.222222222222,4,2,1,70,0,1
116586,-222.222222222222,4,2,1,70,0,1
116757,-111.111111111111,4,2,1,70,0,1
116929,-222.222222222222,4,2,1,70,0,1
117100,-90.9090909090909,4,2,1,70,0,1
117272,-133.333333333333,4,2,1,70,0,1
117957,-133.333333333333,4,2,3,70,0,0
118472,-133.333333333333,4,2,5,50,0,0
118815,-133.333333333333,4,2,4,50,0,0
118900,-133.333333333333,4,2,5,50,0,0
120872,-133.333333333333,4,2,4,50,0,0
120958,-133.333333333333,4,2,5,50,0,0
121215,-133.333333333333,4,2,1,50,0,0
121386,-133.333333333333,4,2,4,50,0,0
123443,-133.333333333333,4,2,5,50,0,0
124815,-133.333333333333,4,2,4,50,0,0
126186,-133.333333333333,4,2,5,50,0,0
127043,-133.333333333333,4,2,4,50,0,0
128586,-133.333333333333,4,2,5,50,0,0
128929,-133.333333333333,4,2,1,50,0,0
129443,-133.333333333333,4,2,4,50,0,0
133729,-200,4,2,4,50,0,0
134415,-500,4,2,1,50,0,0
136472,-200,4,2,4,50,0,0
137158,-666.666666666667,4,2,4,50,0,0
137329,-666.666666666667,4,2,2,45,0,0
137500,-666.666666666667,4,2,4,40,0,0
137672,-666.666666666667,4,2,2,35,0,0
137843,-666.666666666667,4,2,4,33,0,0
138015,-666.666666666667,4,2,2,30,0,0
138186,-666.666666666667,4,2,4,27,0,0
138358,-666.666666666667,4,2,2,25,0,0
138529,-666.666666666667,4,2,4,22,0,0
138700,-666.666666666667,4,2,2,20,0,0
138872,-666.666666666667,4,2,4,17,0,0
139043,-666.666666666667,4,2,2,15,0,0
139215,-666.666666666667,4,2,4,13,0,0
139386,-666.666666666667,4,2,2,10,0,0
139558,-666.666666666667,4,2,4,7,0,0
139729,-666.666666666667,4,2,2,5,0,0
139900,-666.666666666667,4,2,3,50,0,0

[Colours]
Combo1 : 135,119,121
Combo2 : 52,118,150
Combo3 : 103,109,169
Combo4 : 177,173,88

[HitObjects]
256,192,186,12,0,2072,0:0:0:0:
168,272,2415,5,2,0:0:0:0:
170,283,2757,5,4,0:0:0:0:
244,248,2929,1,0,0:0:0:0:
311,298,3100,1,0,0:0:0:0:
390,321,3272,2,0,P|408:235|378:169,1,150.000005722046,0|0,0:0|0:0,0:0:0:0:
242,257,3786,2,0,P|207:282|159:287,1,75.0000028610231
180,114,4129,6,0,L|172:189,1,75.0000028610231,2|0,0:0|0:0,0:0:0:0:
256,80,4472,1,0,0:0:0:0:
103,130,4643,2,0,P|115:69|205:38,1,150.000005722046
322,134,5158,2,0,L|301:209,1,75.0000028610231
249,359,5500,5,2,0:0:0:0:
330,370,5672,1,0,0:0:0:0:
398,328,5843,1,0,0:0:0:0:
479,339,6015,2,0,L|460:182,1,150.000005722046
322,134,6529,2,0,L|301:209,1,75.0000028610231
191,296,6872,5,2,0:0:0:0:
132,243,7043,1,0,0:0:0:0:
53,257,7215,1,0,0:0:0:0:
31,331,7386,1,0,0:0:0:0:
136,234,7558,5,2,0:0:0:0:
48,250,7729,1,0,0:0:0:0:
23,337,7900,2,0,P|85:352|121:340,1,75.0000028610231
221,216,8243,6,0,L|211:325,1,80,6|0,0:0|0:0,0:0:0:0:
288,346,8586,1,0,0:0:0:0:
300,195,8758,2,0,P|253:140|161:160,1,160,0|0,0:0|0:0,0:0:0:0:
225,306,9272,2,0,P|262:277|297:273,1,80,0|0,0:0|0:0,0:0:0:0:
385,255,9615,6,0,L|395:146,1,80,2|0,0:0|0:0,0:0:0:0:
318,125,9958,1,0,0:0:0:0:
306,276,10130,2,0,P|353:331|445:311,1,160,0|0,0:0|0:0,0:0:0:0:
370,177,10644,1,0,0:0:0:0:
224,273,10815,1,0,0:0:0:0:
268,91,10986,6,0,P|287:154|402:160,1,160,2|0,0:0|0:0,0:0:0:0:
448,151,11500,1,0,0:0:0:0:
222,188,11672,6,0,P|280:239|380:250,1,160,2|0,0:0|0:0,0:0:0:0:
436,233,12186,1,0,0:0:0:0:
198,271,12358,6,0,P|269:313|361:324,1,160,2|0,0:0|0:0,0:0:0:0:
419,305,12872,1,0,0:0:0:0:
268,91,13043,6,0,L|277:-4,1,80,2|0,0:0|0:0,0:0:0:0:
351,173,13386,2,0,L|358:252,1,80,0|0,0:0|0:0,0:0:0:0:
26,338,13729,6,0,P|85:341|165:265,1,170.000003242493,14|2,0:0|0:0,0:0:0:0:
175,91,14243,2,0,P|216:120|278:124,1,85.0000016212464,0|2,0:0|0:0,0:0:0:0:
354,79,14586,1,0,0:0:0:0:
508,117,14758,2,0,P|488:153|477:210,1,85.0000016212464,2|0,0:0|0:0,0:0:0:0:
317,373,15100,6,0,P|367:379|434:351,1,85.0000016212464,10|0,0:0|0:0,0:0:0:0:
494,307,15443,1,2,0:0:0:0:
265,154,15615,2,0,L|288:267,1,85.0000016212464,0|2,0:0|0:0,0:0:0:0:
358,290,15958,1,0,0:0:0:0:
378,52,16129,2,0,P|339:73|270:68,1,85.0000016212464,2|2,0:0|0:0,0:0:0:0:
44,59,16472,6,0,P|25:109|34:159,2,85.0000016212464,10|2|2,0:0|0:0|0:0,0:0:0:0:
263,167,16986,2,0,P|204:109|122:118,1,170.000003242493,0|0,0:0|0:0,0:0:0:0:
149,282,17500,2,0,P|167:245|172:203,1,85.0000016212464,2|0,0:0|0:0,0:0:0:0:
51,340,17843,6,0,L|142:364,1,85.0000016212464,4|0,0:0|0:0,0:0:0:0:
365,296,18186,2,0,P|328:339|274:348,1,85.0000016212464,4|0,0:0|0:0,0:0:0:0:
262,150,18529,2,0,L|344:128,1,85.0000016212464,6|8,0:0|0:0,0:0:0:0:
145,54,18872,2,0,P|96:43|41:56,1,85.0000016212464,6|8,0:0|0:0,0:0:0:0:
52,265,19215,6,0,B|94:245|94:245|144:247,1,89.9999972534181,2|2,0:0|0:0,0:0:0:0:
284,295,19558,1,2,0:0:0:0:
342,349,19729,1,2,0:0:0:0:
301,208,19900,1,2,0:0:0:0:
370,245,20071,1,2,0:0:0:0:
293,119,20244,1,2,0:0:0:0:
370,137,20415,1,2,0:0:0:0:
120,138,20586,5,2,0:0:0:0:
40,135,20757,1,2,0:0:0:0:
89,221,20930,1,2,0:0:0:0:
13,239,21101,1,2,0:0:0:0:
106,338,21272,6,0,P|153:344|215:306,1,89.9999972534181,2|2,0:0|0:0,0:0:0:0:
396,76,21615,2,0,L|382:171,1,89.9999972534181,2|2,0:0|0:0,0:0:0:0:
345,316,21958,5,6,0:0:0:0:
309,205,22129,1,2,0:0:0:0:
403,253,22300,1,2,0:0:0:0:
239,259,22472,1,2,0:0:0:0:
382,165,22643,5,2,0:0:0:0:
274,328,22815,1,2,0:0:0:0:
228,144,22986,1,2,0:0:0:0:
395,336,23158,1,2,0:0:0:0:
161,197,23329,5,10,0:0:0:0:
462,194,23500,1,10,0:0:0:0:
207,352,23672,1,10,0:0:0:0:
289,73,23843,1,10,0:0:0:0:
339,208,24015,5,10,0:0:0:0:
293,220,24100,1,2,0:0:0:0:
246,212,24186,1,10,0:0:0:0:
207,184,24272,1,2,0:0:0:0:
176,125,24358,5,10,0:0:0:0:
141,157,24443,1,2,0:0:0:0:
93,166,24529,1,10,0:0:0:0:
47,152,24615,1,2,0:0:0:0:
0,209,24700,6,0,B|18:230|8:262|8:262|19:288|55:292,1,100,14|0,0:0|0:0,0:0:0:0:
164,89,27443,5,6,0:0:0:0:
280,322,27615,1,2,0:0:0:0:
116,262,28815,5,2,0:0:0:0:
185,246,29158,1,2,0:0:0:0:
257,253,29500,1,2,0:0:0:0:
365,321,29672,5,2,0:0:0:0:
361,303,29758,1,2,0:0:0:0:
368,284,29843,1,6,0:0:0:0:
381,269,29929,1,0,0:0:0:0:
397,257,30015,1,0,0:0:0:0:
416,252,30100,1,0,0:0:0:0:
434,254,30186,6,0,P|456:282|446:347,1,100,6|0,0:0|0:0,0:0:0:0:
201,335,30529,1,0,0:0:0:0:
214,342,30615,2,0,L|226:226,1,100,0|0,0:0|0:0,0:0:0:0:
238,224,30872,1,0,0:0:0:0:
136,64,31043,1,2,0:0:0:0:
114,58,31129,1,2,0:0:0:0:
93,50,31215,6,0,P|80:95|99:168,1,100,6|0,0:0|0:0,0:0:0:0:
376,147,31558,2,0,L|260:123,1,100,0|0,0:0|0:0,0:0:0:0:
86,262,31900,1,0,0:0:0:0:
93,278,31986,1,0,0:0:0:0:
101,292,32072,2,0,P|153:295|185:255,1,100
423,37,32415,2,0,P|415:86|425:138,1,100,8|0,0:0|0:0,0:0:0:0:
492,266,32758,1,2,0:0:0:0:
260,361,32929,6,0,L|254:244,1,100,6|0,0:0|0:0,0:0:0:0:
152,146,33272,1,0,0:0:0:0:
306,50,33443,1,0,0:0:0:0:
317,60,33529,1,0,0:0:0:0:
326,69,33615,1,0,0:0:0:0:
451,249,33786,2,0,L|468:201,1,50,0|0,0:0|0:0,0:0:0:0:
433,257,33958,2,0,L|450:209,1,50,0|0,0:0|0:0,0:0:0:0:
415,265,34129,2,0,L|432:217,1,50,0|0,0:0|0:0,0:0:0:0:
364,170,34300,5,10,0:0:0:0:
332,164,34385,1,0,0:0:0:0:
299,159,34471,1,0,0:0:0:0:
266,153,34557,1,0,0:0:0:0:
278,178,34643,5,10,0:0:0:0:
246,184,34728,1,0,0:0:0:0:
213,189,34814,1,0,0:0:0:0:
180,195,34900,1,0,0:0:0:0:
192,170,34986,5,10,0:0:0:0:
160,164,35071,1,0,0:0:0:0:
127,159,35157,1,0,0:0:0:0:
94,153,35243,1,0,0:0:0:0:
62,180,35329,6,2,L|57:160,1,19.4999998809814,10|0,0:0|0:0,0:0:0:0:
60,68,35672,5,14,0:0:0:0:
449,196,35843,1,10,0:0:0:0:
196,95,36015,6,0,P|198:157|231:197,1,104.999996795654,6|0,0:0|0:0,0:0:0:0:
260,260,36358,2,0,P|205:230|154:239,1,104.999996795654,2|0,0:0|0:0,0:0:0:0:
71,280,36700,5,14,0:0:0:0:
444,114,36871,1,10,0:0:0:0:
369,294,37043,6,0,P|314:264|263:273,1,104.999996795654,2|0,0:0|0:0,0:0:0:0:
194,266,37386,2,0,P|246:233|264:184,1,104.999996795654,2|0,0:0|0:0,0:0:0:0:
305,128,37729,2,0,P|300:155|309:182,1,34.9999989318848,2|0,0:0|0:0,0:0:0:0:
376,209,37900,5,10,0:0:0:0:
181,97,38072,1,2,0:0:0:0:
185,109,38158,1,2,0:0:0:0:
190,121,38243,1,2,0:0:0:0:
53,219,38415,5,14,0:0:0:0:
447,110,38586,1,10,0:0:0:0:
337,274,38758,6,0,L|318:170,1,104.999996795654,6|0,0:0|0:0,0:0:0:0:
237,65,39100,2,0,L|218:169,1,104.999996795654,2|0,0:0|0:0,0:0:0:0:
114,95,39443,5,10,0:0:0:0:
509,214,39615,1,10,0:0:0:0:
419,313,39786,6,0,P|373:275|304:275,1,104.999996795654,6|0,0:0|0:0,0:0:0:0:
232,312,40129,2,0,P|166:318|127:298,1,104.999996795654,2|0,0:0|0:0,0:0:0:0:
68,197,40472,2,0,L|131:209,1,34.9999989318848,2|0,0:0|0:0,0:0:0:0:
187,223,40643,5,10,0:0:0:0:
129,37,40815,1,2,0:0:0:0:
121,54,40900,1,2,0:0:0:0:
114,70,40986,1,2,0:0:0:0:
19,138,41158,5,14,0:0:0:0:
409,212,41329,1,10,0:0:0:0:
297,253,41500,6,0,P|250:217|194:227,1,104.999996795654,6|0,0:0|0:0,0:0:0:0:
131,311,41843,2,0,L|233:286,1,104.999996795654,2|0,0:0|0:0,0:0:0:0:
358,324,42186,5,14,0:0:0:0:
24,207,42358,1,10,0:0:0:0:
142,127,42529,6,0,P|197:158|240:141,1,104.999996795654,2|0,0:0|0:0,0:0:0:0:
321,69,42872,2,0,P|384:63|412:97,1,104.999996795654,2|0,0:0|0:0,0:0:0:0:
463,192,43215,2,0,L|409:182,1,34.9999989318848,2|0,0:0|0:0,0:0:0:0:
309,141,43386,5,10,0:0:0:0:
390,305,43558,1,2,0:0:0:0:
390,305,43643,1,2,0:0:0:0:
390,305,43729,1,2,0:0:0:0:
72,255,43900,5,10,0:0:0:0:
307,178,44072,1,10,0:0:0:0:
62,242,44243,5,10,0:0:0:0:
320,184,44415,1,10,0:0:0:0:
57,228,44586,5,10,0:0:0:0:
331,189,44758,1,10,0:0:0:0:
55,212,44929,5,10,0:0:0:0:
339,198,45101,1,10,0:0:0:0:
57,200,45272,5,10,0:0:0:0:
347,206,45443,1,10,0:0:0:0:
63,189,45615,5,10,0:0:0:0:
354,211,45786,1,10,0:0:0:0:
72,174,45958,5,0,0:0:0:0:
82,170,46043,1,0,0:0:0:0:
133,161,46129,5,0,0:0:0:0:
139,170,46215,1,0,0:0:0:0:
165,212,46300,6,0,L|154:250,1,34.9999989318848,10|0,0:0|0:0,0:0:0:0:
281,258,46472,2,0,L|289:302,1,34.9999989318848,0|0,0:0|0:0,0:0:0:0:
165,63,46643,2,2,P|164:92|175:75,1,75,6|0,0:0|0:0,0:0:0:0:
269,12,46986,6,0,P|259:54|264:93,1,75.9999990722656,14|0,0:0|0:0,0:0:0:0:
308,154,47500,1,2,0:0:0:0:
5,354,47672,6,0,P|33:377|76:377,1,75.9999990722656,14|0,0:0|0:0,0:0:0:0:
145,351,48186,1,2,0:0:0:0:
456,323,48358,6,0,L|446:237,1,75.9999990722656,14|0,0:0|0:0,0:0:0:0:
488,174,48872,1,2,0:0:0:0:
21,278,49043,6,0,P|52:268|89:279,1,56.9999993041992,14|0,0:0|0:0,0:0:0:0:
87,286,49386,6,0,L|99:239,1,37.5000014305115,2|0,0:0|0:0,0:0:0:0:
103,99,49558,2,0,L|118:77,1,18.7500007152558,2|0,0:0|0:0,0:0:0:0:
111,105,49643,2,0,L|126:81,1,18.7500007152558,2|0,0:0|0:0,0:0:0:0:
118,113,49729,6,0,P|149:130|194:120,1,75.9999990722656,14|0,0:0|0:0,0:0:0:0:
257,82,50243,1,2,0:0:0:0:
458,320,50415,6,0,P|483:292|488:255,1,75.9999990722656,14|0,0:0|0:0,0:0:0:0:
448,185,50929,1,2,0:0:0:0:
80,326,51100,6,0,P|111:332|146:319,1,56.9999993041992,14|0,0:0|0:0,0:0:0:0:
304,226,51443,2,0,P|273:216|232:210,1,56.9999993041992,2|0,0:0|0:0,0:0:0:0:
48,71,51786,2,0,L|54:133,1,56.9999993041992,14|0,0:0|0:0,0:0:0:0:
106,263,52129,5,6,0:0:0:0:
288,301,52300,2,0,L|282:328,2,25.0000009536744,0|0|0,0:0|0:0|0:0,0:0:0:0:
304,226,52472,6,0,P|246:236|232:248,1,75.9999990722656,14|0,0:0|0:0,0:0:0:0:
194,319,52986,1,2,0:0:0:0:
481,40,53158,6,0,L|391:16,1,75.9999990722656,14|0,0:0|0:0,0:0:0:0:
327,27,53672,1,2,0:0:0:0:
2,223,53843,6,0,P|41:227|84:218,1,75.9999990722656,14|0,0:0|0:0,0:0:0:0:
147,177,54358,1,2,0:0:0:0:
499,301,54529,6,0,L|493:228,1,56.9999993041992,14|0,0:0|0:0,0:0:0:0:
473,237,54872,5,2,0:0:0:0:
412,192,54957,1,2,0:0:0:0:
336,202,55043,1,2,0:0:0:0:
278,252,55129,1,0,0:0:0:0:
247,322,55215,6,0,P|287:338|328:339,1,75.9999990722656,14|0,0:0|0:0,0:0:0:0:
399,313,55729,1,2,0:0:0:0:
174,36,55900,6,0,P|163:62|165:98,1,56.9999993041992,14|0,0:0|0:0,0:0:0:0:
336,202,56243,2,0,P|318:179|286:163,1,56.9999993041992,2|0,0:0|0:0,0:0:0:0:
110,259,56586,2,0,P|138:254|168:235,1,56.9999993041992,14|0,0:0|0:0,0:0:0:0:
151,91,56929,6,0,L|132:79,1,18.9999997680664,10|0,0:0|0:0,0:0:0:0:
38,210,57100,2,0,B|32:231|32:231|15:251,1,37.5000014305115,2|0,0:0|0:0,0:0:0:0:
146,339,57272,1,10,0:0:0:0:
149,333,57358,1,2,0:0:0:0:
152,327,57443,1,2,0:0:0:0:
396,108,57615,5,6,0:0:0:0:
375,108,57700,1,2,0:0:0:0:
354,108,57786,2,0,L|346:133,1,18.9999997680664,2|2,0:0|0:0,0:0:0:0:
422,357,57958,6,0,P|406:320|404:273,1,75.9999990722656,14|0,0:0|0:0,0:0:0:0:
420,203,58472,1,2,0:0:0:0:
7,270,58643,6,0,P|46:264|87:273,1,75.9999990722656,14|0,0:0|0:0,0:0:0:0:
152,318,59158,1,2,0:0:0:0:
411,14,59329,6,0,L|408:101,1,75.9999990722656,14|0,0:0|0:0,0:0:0:0:
453,160,59843,1,2,0:0:0:0:
86,335,60015,6,0,P|111:320|140:315,1,56.9999993041992,14|0,0:0|0:0,0:0:0:0:
154,319,60358,6,0,L|149:281,1,37.5000014305115,2|0,0:0|0:0,0:0:0:0:
100,43,60529,2,0,L|88:61,1,18.7500007152558,2|0,0:0|0:0,0:0:0:0:
110,48,60615,2,0,L|95:70,1,18.7500007152558,2|0,0:0|0:0,0:0:0:0:
120,55,60700,6,0,P|128:80|113:135,1,75.9999990722656,14|0,0:0|0:0,0:0:0:0:
54,187,61215,1,2,0:0:0:0:
468,345,61386,6,0,L|461:259,1,75.9999990722656,14|0,0:0|0:0,0:0:0:0:
483,189,61900,1,2,0:0:0:0:
30,366,62072,6,0,P|67:371|109:352,1,75.9999990722656,14|0,0:0|0:0,0:0:0:0:
157,294,62586,1,2,0:0:0:0:
72,38,62758,6,0,L|66:97,1,56.9999993041992,14|0,0:0|0:0,0:0:0:0:
59,110,63100,5,6,0:0:0:0:
246,73,63272,2,0,L|229:90,2,25.0000009536744
164,54,63443,6,0,P|156:93|167:134,1,75.9999990722656,14|0,0:0|0:0,0:0:0:0:
197,199,63958,1,2,0:0:0:0:
512,351,64129,6,0,P|461:332|436:335,1,75.9999990722656,14|0,0:0|0:0,0:0:0:0:
367,365,64643,1,2,0:0:0:0:
28,133,64815,6,0,L|47:224,1,75.9999990722656,14|0,0:0|0:0,0:0:0:0:
25,290,65329,1,2,0:0:0:0:
286,52,65500,6,0,P|286:89|270:118,1,56.9999993041992,14|0,0:0|0:0,0:0:0:0:
284,120,65843,5,2,0:0:0:0:
345,165,65928,1,2,0:0:0:0:
421,155,66014,1,2,0:0:0:0:
471,97,66100,1,0,0:0:0:0:
502,27,66186,6,0,P|462:11|421:10,1,75.9999990722656,14|0,0:0|0:0,0:0:0:0:
354,52,66700,1,2,0:0:0:0:
44,208,66872,6,0,P|69:200|109:206,1,56.9999993041992,14|0,0:0|0:0,0:0:0:0:
386,322,67215,2,0,P|338:325|315:315,1,56.9999993041992,2|0,0:0|0:0,0:0:0:0:
79,269,67558,6,0,L|72:287,1,18.9999997680664,14|0,0:0|0:0,0:0:0:0:
132,108,67729,2,0,P|136:80|128:57,1,37.5000014305115,2|0,0:0|0:0,0:0:0:0:
140,314,67900,2,0,L|147:338,1,18.9999997680664,10|0,0:0|0:0,0:0:0:0:
198,127,68072,2,0,P|204:99|202:78,1,50,2|0,0:0|0:0,0:0:0:0:
356,256,68243,5,10,0:0:0:0:
354,251,68329,1,2,0:0:0:0:
352,246,68415,1,2,0:0:0:0:
64,87,68586,5,6,0:0:0:0:
87,224,70986,5,0,0:0:0:0:
97,214,71072,1,0,0:0:0:0:
108,205,71157,1,8,0:0:0:0:
119,196,71243,1,8,0:0:0:0:
131,188,71329,6,0,P|136:222|167:266,1,75.0000028610231,2|0,0:0|0:0,0:0:0:0:
246,296,71672,1,2,0:0:0:0:
231,89,71843,1,8,0:0:0:0:
256,192,72015,12,0,73429,0:0:0:0:
226,322,73557,5,0,0:0:0:0:
205,314,73729,1,0,0:0:0:0:
183,315,73900,1,0,0:0:0:0:
164,324,74072,6,0,P|153:250|95:210,1,150.000005722046,14|2,0:0|0:0,0:0:0:0:
303,92,74586,1,10,0:0:0:0:
293,109,74672,1,10,0:0:0:0:
288,128,74758,2,0,B|278:185|310:198|286:268,1,112.500004291535,10|0,0:0|0:0,0:0:0:0:
284,256,75100,1,8,0:0:0:0:
47,141,75443,5,2,0:0:0:0:
118,92,76129,1,2,0:0:0:0:
140,260,76815,5,10,0:0:0:0:
116,82,76986,1,8,0:0:0:0:
148,272,77500,5,2,0:0:0:0:
213,213,78186,1,2,0:0:0:0:
188,131,78872,1,2,0:0:0:0:
45,232,79043,5,0,0:0:0:0:
135,304,79215,1,8,0:0:0:0:
143,298,79300,1,8,0:0:0:0:
176,300,79386,1,8,0:0:0:0:
186,303,79472,1,8,0:0:0:0:
215,287,79558,6,0,B|292:312|351:267|456:298,1,225.000008583069,14|0,0:0|0:0,0:0:0:0:
507,350,80243,1,2,0:0:0:0:
417,188,80929,5,2,0:0:0:0:
311,171,81615,1,2,0:0:0:0:
109,65,82300,5,2,0:0:0:0:
109,65,82472,2,0,P|96:97|96:129,1,50,0|2,0:0|0:0,0:0:0:0:
257,287,82815,1,8,0:0:0:0:
257,287,82900,1,0,0:0:0:0:
257,287,82986,2,0,P|267:256|259:215,1,64.9999970245363,2|8,0:0|0:0,0:0:0:0:
171,107,83329,2,0,P|161:138|169:179,1,64.9999970245363,2|8,0:0|0:0,0:0:0:0:
407,85,83672,1,8,0:0:0:0:
425,79,83758,1,0,0:0:0:0:
436,63,83843,5,8,0:0:0:0:
481,140,84015,1,8,0:0:0:0:
460,229,84186,1,8,0:0:0:0:
418,305,84358,6,0,P|377:296|316:302,1,80,6|0,0:0|0:0,0:0:0:0:
61,318,84700,2,0,P|102:327|163:321,1,80,0|0,0:0|0:0,0:0:0:0:
453,119,85043,6,0,P|413:105|366:74,1,80,14|0,0:0|0:0,0:0:0:0:
284,25,85386,2,0,P|237:12|191:20,1,80,10|0,0:0|0:0,0:0:0:0:
110,80,85729,2,0,P|96:119|101:161,1,80,10|0,0:0|0:0,0:0:0:0:
156,264,86072,2,0,P|194:281|243:276,1,80,10|0,0:0|0:0,0:0:0:0:
233,93,86415,6,0,P|254:118|307:128,1,80,10|0,0:0|0:0,0:0:0:0:
406,113,86758,2,0,P|439:124|477:159,1,80,10|0,0:0|0:0,0:0:0:0:
494,258,87100,2,0,P|450:292|396:294,1,80,10|0,0:0|0:0,0:0:0:0:
303,288,87443,1,10,0:0:0:0:
244,175,87615,1,0,0:0:0:0:
64,301,87786,5,10,0:0:0:0:
145,274,87958,1,2,0:0:0:0:
229,300,88129,1,10,0:0:0:0:
289,361,88300,1,0,0:0:0:0:
369,288,88472,2,0,L|382:202,1,80,10|0,0:0|0:0,0:0:0:0:
200,76,88815,2,0,L|211:155,1,80,10|0,0:0|0:0,0:0:0:0:
422,372,89158,6,0,P|383:358|329:366,1,80,14|0,0:0|0:0,0:0:0:0:
30,227,89500,2,0,P|69:213|123:221,1,80,14|0,0:0|0:0,0:0:0:0:
376,168,89843,1,14,0:0:0:0:
344,258,90015,1,2,0:0:0:0:
162,97,90186,1,10,0:0:0:0:
195,188,90358,1,2,0:0:0:0:
450,179,90529,6,0,P|448:138|404:96,1,94.9999974632264,14|10,0:0|0:0,0:0:0:0:
87,36,90872,2,0,L|66:151,1,94.9999974632264,10|10,0:0|0:0,0:0:0:0:
305,312,91215,2,0,P|307:265|284:203,1,94.9999974632264,10|10,0:0|0:0,0:0:0:0:
11,91,91558,2,0,L|32:206,1,94.9999974632264,10|10,0:0|0:0,0:0:0:0:
464,259,91900,6,0,P|442:288|379:294,1,94.9999974632264,10|10,0:0|0:0,0:0:0:0:
85,150,92243,2,0,L|64:265,1,94.9999974632264,10|10,0:0|0:0,0:0:0:0:
442,84,92586,2,0,P|396:61|336:68,1,94.9999974632264,10|10,0:0|0:0,0:0:0:0:
10,210,92929,2,0,L|31:325,1,94.9999974632264,10|10,0:0|0:0,0:0:0:0:
319,131,93272,5,10,0:0:0:0:
340,280,93443,1,14,0:0:0:0:
214,217,93615,1,10,0:0:0:0:
396,139,93786,1,10,0:0:0:0:
182,305,93958,1,14,0:0:0:0:
204,80,94129,1,10,0:0:0:0:
340,280,94300,1,10,0:0:0:0:
120,183,94472,1,10,0:0:0:0:
79,314,94643,6,0,P|75:283|59:250,1,62.5,14|0,0:0|0:0,0:0:0:0:
17,52,94815,1,10,0:0:0:0:
33,68,94900,1,0,0:0:0:0:
53,80,94986,2,0,P|77:94|114:94,1,62.5,10|0,0:0|0:0,0:0:0:0:
159,243,95158,1,10,0:0:0:0:
174,227,95243,1,0,0:0:0:0:
194,215,95329,6,0,P|218:201|255:201,1,62.5,14|0,0:0|0:0,0:0:0:0:
491,259,95500,2,0,P|467:273|430:273,1,62.5,10|0,0:0|0:0,0:0:0:0:
237,140,95672,2,0,L|252:200,1,62.5,10|0,0:0|0:0,0:0:0:0:
448,335,95843,2,0,L|429:262,1,62.5,10|0,0:0|0:0,0:0:0:0:
286,70,96015,5,6,0:0:0:0:
279,62,96358,6,0,P|239:54|186:71,1,89.9999972534181,14|0,0:0|0:0,0:0:0:0:
101,45,96872,2,0,P|106:65|100:87,1,22.4999993133545,2|0,0:0|0:0,0:0:0:0:
75,299,97043,6,0,P|105:307|149:306,1,67.4999979400635,14|0,0:0|0:0,0:0:0:0:
168,298,97386,1,2,0:0:0:0:
254,355,97558,2,0,P|268:351|289:351,1,22.4999993133545,2|0,0:0|0:0,0:0:0:0:
481,222,97729,6,0,P|464:182|464:142,1,67.4999979400635,14|0,0:0|0:0,0:0:0:0:
462,117,98072,1,2,0:0:0:0:
417,10,98243,2,0,L|391:40,1,22.4999993133545,2|0,0:0|0:0,0:0:0:0:
260,233,98415,6,0,L|253:146,1,67.4999979400635,14|0,0:0|0:0,0:0:0:0:
245,173,98758,5,2,0:0:0:0:
84,101,98929,2,0,L|107:109,1,22.4999993133545,2|0,0:0|0:0,0:0:0:0:
76,116,99015,2,0,L|98:117,1,22.4999993133545,2|0,0:0|0:0,0:0:0:0:
70,131,99100,6,0,P|64:175|99:220,1,89.9999972534181,14|0,0:0|0:0,0:0:0:0:
55,317,99615,2,0,P|49:296|37:284,1,22.4999993133545,2|0,0:0|0:0,0:0:0:0:
389,352,99786,6,0,P|430:343|451:298,1,89.9999972534181,14|0,0:0|0:0,0:0:0:0:
474,230,100300,2,0,L|465:209,1,22.4999993133545,2|0,0:0|0:0,0:0:0:0:
328,47,100472,6,0,L|319:116,1,67.4999979400635,14|0,0:0|0:0,0:0:0:0:
350,205,100815,1,2,0:0:0:0:
260,319,100986,2,0,L|251:348,1,22.4999993133545
143,280,101158,2,0,L|122:296,1,22.4999993133545,14|0,0:0|0:0,0:0:0:0:
86,175,101329,2,0,L|64:178,1,22.4999993133545
297,31,101500,5,6,0:0:0:0:
228,168,101672,2,0,L|217:204,2,29.9999990844727,0|0|0,0:0|0:0|0:0,0:0:0:0:
245,91,101843,6,0,P|285:106|337:95,1,89.9999972534181,14|0,0:0|0:0,0:0:0:0:
392,31,102358,2,0,L|410:54,1,22.4999993133545,2|0,0:0|0:0,0:0:0:0:
502,320,102529,6,0,P|469:304|426:306,1,67.4999979400635,14|0,0:0|0:0,0:0:0:0:
411,310,102872,1,2,0:0:0:0:
354,382,103043,2,0,P|331:385|325:384,1,22.4999993133545,2|0,0:0|0:0,0:0:0:0:
34,323,103215,6,0,P|64:300|85:270,1,67.4999979400635,14|0,0:0|0:0,0:0:0:0:
93,252,103558,1,2,0:0:0:0:
25,172,103729,2,0,P|25:188|32:200,1,22.4999993133545,2|0,0:0|0:0,0:0:0:0:
228,76,103900,6,0,L|242:-4,1,67.4999979400635,14|0,0:0|0:0,0:0:0:0:
247,27,104243,5,2,0:0:0:0:
283,60,104329,1,2,0:0:0:0:
332,73,104415,1,2,0:0:0:0:
384,63,104500,1,0,0:0:0:0:
422,31,104586,6,0,P|415:54|437:127,1,89.9999972534181,14|0,0:0|0:0,0:0:0:0:
501,188,105100,2,0,P|484:188|475:182,1,22.4999993133545,2|0,0:0|0:0,0:0:0:0:
417,363,105272,6,0,P|378:352|350:354,1,67.4999979400635,14|0,0:0|0:0,0:0:0:0:
239,315,105615,6,0,L|250:344,1,22.4999993133545,10|0,0:0|0:0,0:0:0:0:
250,182,105786,2,0,P|264:160|283:142,1,44.999998626709,2|0,0:0|0:0,0:0:0:0:
157,306,105958,2,0,L|168:335,1,22.4999993133545,10|0,0:0|0:0,0:0:0:0:
192,141,106129,2,0,P|211:114|242:89,1,55.0000016784668,2|0,0:0|0:0,0:0:0:0:
75,297,106300,2,0,L|86:326,1,22.4999993133545,10|0,0:0|0:0,0:0:0:0:
139,96,106472,2,0,P|155:72|183:47,1,64.9999970245363,2|0,0:0|0:0,0:0:0:0:
18,239,106643,5,10,0:0:0:0:
12,245,106729,1,2,0:0:0:0:
6,251,106815,1,2,0:0:0:0:
313,205,106986,5,6,0:0:0:0:
56,53,107157,1,0,0:0:0:0:
66,60,107243,1,0,0:0:0:0:
73,70,107329,6,0,P|79:101|42:153,1,89.9999972534181,14|0,0:0|0:0,0:0:0:0:
90,270,107843,2,0,P|92:258|109:241,1,22.4999993133545,2|0,0:0|0:0,0:0:0:0:
364,26,108015,6,0,P|350:63|356:100,1,67.4999979400635,14|0,0:0|0:0,0:0:0:0:
357,109,108358,1,2,0:0:0:0:
448,89,108529,2,0,L|460:70,1,22.4999993133545,2|0,0:0|0:0,0:0:0:0:
406,315,108700,6,0,P|366:307|313:324,1,89.9999972534181,14|0,0:0|0:0,0:0:0:0:
239,356,109215,2,0,L|232:316,1,22.4999993133545,2|0,0:0|0:0,0:0:0:0:
53,340,109386,6,0,L|84:337,1,22.4999993133545,14|0,0:0|0:0,0:0:0:0:
154,254,109558,2,0,L|123:251,1,22.4999993133545,2|0,0:0|0:0,0:0:0:0:
222,91,109729,2,0,P|221:109|227:128,1,27.5000008392334,2|0,0:0|0:0,0:0:0:0:
274,218,109900,2,0,P|290:209|303:195,1,27.5000008392334,2|2,0:0|0:0,0:0:0:0:
357,109,110072,2,0,P|341:99|322:94,1,27.5000008392334,14|0,0:0|0:0,0:0:0:0:
130,71,110243,6,0,P|123:108|123:147,1,67.4999979400635,0|0,0:0|0:0,0:0:0:0:
201,215,110586,2,0,P|206:194|202:182,1,22.4999993133545,2|0,0:0|0:0,0:0:0:0:
34,356,110758,6,0,P|77:366|131:353,1,89.9999972534181,14|0,0:0|0:0,0:0:0:0:
206,328,111272,2,0,L|201:354,1,22.4999993133545,2|0,0:0|0:0,0:0:0:0:
503,210,111443,6,0,P|477:189|433:173,1,67.4999979400635,14|0,0:0|0:0,0:0:0:0:
423,173,111786,1,2,0:0:0:0:
319,192,111958,2,0,P|308:192|297:185,1,22.4999993133545,2|0,0:0|0:0,0:0:0:0:
56,17,112129,6,0,L|46:85,1,67.4999979400635,14|0,0:0|0:0,0:0:0:0:
113,309,112472,2,0,L|103:241,1,67.4999979400635,6|0,0:0|0:0,0:0:0:0:
154,33,112815,2,0,P|174:56|231:60,1,89.9999972534181,14|0,0:0|0:0,0:0:0:0:
315,31,113329,2,0,L|324:54,1,22.4999993133545,2|0,0:0|0:0,0:0:0:0:
429,135,113500,6,0,L|398:125,1,22.4999993133545,14|0,0:0|0:0,0:0:0:0:
390,250,113672,2,0,L|414:272,1,22.4999993133545,2|0,0:0|0:0,0:0:0:0:
288,154,113843,1,2,0:0:0:0:
67,283,114015,2,0,P|83:274|97:275,1,22.4999993133545,2|0,0:0|0:0,0:0:0:0:
368,322,114186,6,0,P|325:339|272:328,1,89.9999972534181,14|0,0:0|0:0,0:0:0:0:
136,282,114700,2,0,P|156:277|169:278,1,22.4999993133545,2|0,0:0|0:0,0:0:0:0:
61,22,114872,6,0,L|46:102,1,67.4999979400635,14|0,0:0|0:0,0:0:0:0:
39,103,115215,5,2,0:0:0:0:
92,155,115300,1,2,0:0:0:0:
165,165,115386,1,2,0:0:0:0:
236,143,115472,1,0,0:0:0:0:
280,86,115558,6,0,P|279:121|307:167,1,89.9999972534181,14|0,0:0|0:0,0:0:0:0:
382,282,116072,2,0,P|371:261|356:255,1,22.4999993133545,2|0,0:0|0:0,0:0:0:0:
46,334,116243,6,0,P|89:335|122:324,1,67.4999979400635,14|0,0:0|0:0,0:0:0:0:
307,167,116586,6,0,P|311:144|308:128,1,22.4999993133545,14|0,0:0|0:0,0:0:0:0:
176,113,116757,2,0,P|192:131|215:145,1,44.999998626709,2|0,0:0|0:0,0:0:0:0:
375,183,116929,2,0,P|379:169|380:146,1,22.4999993133545,14|0,0:0|0:0,0:0:0:0:
126,168,117100,2,0,P|142:186|177:201,1,55.0000016784668,2|0,0:0|0:0,0:0:0:0:
481,230,117272,6,0,P|495:245|500:278,1,37.5000014305115,14|0,0:0|0:0,0:0:0:0:
416,320,117443,5,2,0:0:0:0:
356,296,117529,1,2,0:0:0:0:
293,296,117615,1,10,0:0:0:0:
233,318,117700,1,0,0:0:0:0:
174,341,117786,1,2,0:0:0:0:
111,341,117872,1,0,0:0:0:0:
40,301,117957,5,14,0:0:0:0:
114,89,118472,5,10,0:0:0:0:
124,99,118558,1,10,0:0:0:0:
135,107,118643,2,0,P|184:128|268:92,1,150.000005722046,10|10,0:0|0:0,0:0:0:0:
325,32,119329,5,2,0:0:0:0:
481,52,120015,1,2,0:0:0:0:
417,197,120358,1,10,0:0:0:0:
417,197,120443,1,10,0:0:0:0:
417,197,120529,1,10,0:0:0:0:
417,197,120615,1,10,0:0:0:0:
417,197,120700,6,0,P|365:230|273:194,1,150.000005722046,10|10,0:0|0:0,0:0:0:0:
232,136,121215,1,12,0:0:0:0:
334,338,121386,2,0,P|284:327|172:336,1,150.000005722046,8|0,0:0|0:0,0:0:0:0:
79,354,122072,1,2,0:0:0:0:
88,262,122758,1,0,0:0:0:0:
111,113,122929,5,2,0:0:0:0:
179,145,123100,1,2,0:0:0:0:
253,119,123271,1,2,0:0:0:0:
170,27,123443,5,14,0:0:0:0:
170,27,123615,1,8,0:0:0:0:
350,15,123786,1,8,0:0:0:0:
350,15,123958,1,8,0:0:0:0:
42,239,124815,5,2,0:0:0:0:
103,199,125500,1,2,0:0:0:0:
174,223,126186,1,14,0:0:0:0:
395,132,126700,1,0,0:0:0:0:
386,141,126786,1,0,0:0:0:0:
375,151,126872,6,0,P|326:157|266:124,1,112.500004291535,14|0,0:0|0:0,0:0:0:0:
185,71,127386,1,8,0:0:0:0:
257,122,127558,2,0,L|243:201,1,75.0000028610231,2|8,0:0|0:0,0:0:0:0:
122,338,128072,2,0,P|84:338|49:326,1,75.0000028610231,8|2,0:0|0:0,0:0:0:0:
181,218,128415,5,8,0:0:0:0:
188,133,128586,1,10,0:0:0:0:
137,68,128758,1,0,0:0:0:0:
48,138,128929,6,0,P|105:158|209:113,1,150.000005722046,6|0,0:0|0:0,0:0:0:0:
347,42,129443,2,0,L|324:211,1,150.000005722046,2|0,0:0|0:0,0:0:0:0:
380,299,129958,1,2,0:0:0:0:
198,336,130300,5,2,0:0:0:0:
305,283,131329,5,0,0:0:0:0:
360,225,131500,1,0,0:0:0:0:
213,243,131672,5,8,0:0:0:0:
280,202,131843,1,0,0:0:0:0:
309,128,132015,1,0,0:0:0:0:
305,49,132186,1,8,0:0:0:0:
340,201,133729,5,0,0:0:0:0:
67,186,134415,6,0,B|122:208|173:173|173:173|224:132|276:160,1,220,4|0,0:0|0:0,0:0:0:0:
340,201,136472,1,2,0:0:0:0:
54,200,137158,6,0,B|113:223|167:186|167:186|222:141|278:172,1,239.999992675781,2|4,0:0|0:0,0:0:0:0:
