osu file format v14

[General]
AudioFilename: audio.mp3
AudioLeadIn: 0
PreviewTime: 95334
Countdown: 0
SampleSet: Soft
StackLeniency: 0.3
Mode: 0
LetterboxInBreaks: 0
WidescreenStoryboard: 0

[Editor]
Bookmarks: 2420,13729,24700,35672,46643,68586,85043,96015,117957
DistanceSpacing: 1.6
BeatDivisor: 4
GridSize: 32
TimelineZoom: 1.5

[Metadata]
Title:Cosmo Memory
TitleUnicode:Cosmo Memory
Artist:Nardis
ArtistUnicode:Nardis
Creator:DeviousPanda
Version:Extra
Source:BMS
Tags:bms of fighters ultimate bofu 2016 final fantasy
BeatmapID:1206630
BeatmapSetID:569167

[Difficulty]
HPDrainRate:6
CircleSize:4
OverallDifficulty:8.6
ApproachRate:9.3
SliderMultiplier:1.4
SliderTickRate:1

[Events]
//Background and Video events
0,0,"afasdadada.jpg",0,0
//Break Periods
2,25076,26894
2,68791,70436
//Storyboard Layer 0 (Background)
//Storyboard Layer 1 (Fail)
//Storyboard Layer 2 (Pass)
//Storyboard Layer 3 (Foreground)
//Storyboard Sound Samples

[TimingPoints]
20,342.857142857143,4,2,0,30,1,0
20,-133.333333333333,4,2,0,30,0,0
19220,-133.333333333333,4,2,0,35,0,0
20591,-133.333333333333,4,2,0,40,0,0
21962,-133.333333333333,4,2,0,45,0,0
23334,-133.333333333333,4,2,0,50,0,0
24020,-66.6666666666667,4,2,0,55,0,0
24705,-50,4,2,0,60,0,0
24877,-100,4,2,0,50,0,0
34305,-50,4,2,0,50,0,0
46648,-200,4,2,0,70,0,1
49391,-50,4,2,0,70,0,1
49734,-200,4,2,0,70,0,1
51791,-50,4,2,0,70,0,1
52134,-200,4,2,0,70,0,1
54877,-50,4,2,0,70,0,1
55220,-200,4,2,0,70,0,1
60362,-50,4,2,0,70,0,1
60705,-200,4,2,0,70,0,1
62762,-50,4,2,0,70,0,1
63105,-200,4,2,0,70,0,1
65848,-50,4,2,0,70,0,1
66191,-200,4,2,0,70,0,1
68591,-100,4,2,0,70,0,0
94648,-50,4,2,0,70,0,0
96020,-200,4,2,0,80,0,1
97391,-50,4,2,0,80,0,1
99105,-200,4,2,0,80,0,1
100820,-50,4,2,0,80,0,1
101848,-200,4,2,0,80,0,1
102877,-50,4,2,0,80,0,1
107334,-200,4,2,0,80,0,1
108362,-50,4,2,0,80,0,1
110077,-200,4,2,0,80,0,1
111791,-50,4,2,0,80,0,1
114191,-200,4,2,0,80,0,1
115220,-50,4,2,0,80,0,1
117962,-100,4,2,0,70,0,0
134420,-133.333333333333,4,2,0,45,0,0
136391,-133.333333333333,4,2,0,5,0,0
136477,-133.333333333333,4,2,0,45,0,0
137162,-181.818181818182,4,2,0,45,0,0
139905,-181.818181818182,4,2,0,70,0,0

[Colours]
Combo1 : 64,0,128
Combo2 : 0,0,160
Combo3 : 174,94,255
Combo4 : 128,0,64

[HitObjects]
162,131,2419,5,2,0:0:0:0:
379,98,2761,5,2,0:0:0:0:
286,165,2933,1,0,0:0:0:0:
262,69,3104,1,0,0:0:0:0:
370,203,3276,1,2,0:0:0:0:
130,148,3619,5,2,0:0:0:0:
113,219,3790,1,0,0:0:0:0:
152,281,3961,1,0,0:0:0:0:
227,180,4134,5,2,0:0:0:0:
38,219,4304,1,0,0:0:0:0:
115,83,4476,1,0,0:0:0:0:
152,281,4647,1,2,0:0:0:0:
327,221,4990,5,2,0:0:0:0:
335,148,5161,1,0,0:0:0:0:
362,79,5333,1,0,0:0:0:0:
405,168,5504,5,2,0:0:0:0:
335,148,5677,1,0,0:0:0:0:
278,101,5848,1,0,0:0:0:0:
259,31,6019,1,2,0:0:0:0:
379,33,6361,5,0,0:0:0:0:
185,108,6533,1,2,0:0:0:0:
328,281,6876,5,4,0:0:0:0:
353,207,7047,1,0,0:0:0:0:
229,110,7219,1,0,0:0:0:0:
208,35,7390,1,0,0:0:0:0:
328,281,7562,5,4,0:0:0:0:
353,207,7734,1,0,0:0:0:0:
229,110,7904,2,0,B|225:72|225:72|202:22,1,78.7500030040742
134,100,8247,5,2,0:0:0:0:
196,212,8419,1,0,0:0:0:0:
73,198,8590,1,0,0:0:0:0:
229,110,8761,1,2,0:0:0:0:
131,310,9104,5,2,0:0:0:0:
205,324,9277,1,0,0:0:0:0:
278,303,9447,1,0,0:0:0:0:
142,203,9619,5,2,0:0:0:0:
296,219,9790,1,0,0:0:0:0:
230,140,9961,1,0,0:0:0:0:
131,310,10133,1,2,0:0:0:0:
338,112,10476,5,0,0:0:0:0:
411,131,10647,1,0,0:0:0:0:
471,177,10819,1,0,0:0:0:0:
356,215,10990,5,2,0:0:0:0:
203,294,11161,1,0,0:0:0:0:
157,201,11333,1,0,0:0:0:0:
269,232,11504,1,0,0:0:0:0:
308,87,11676,5,2,0:0:0:0:
157,201,11847,1,0,0:0:0:0:
87,101,12019,1,0,0:0:0:0:
206,127,12190,1,0,0:0:0:0:
72,282,12362,6,0,P|56:335|97:289,1,157.500006008148,4|0,3:0|0:0,0:0:0:0:
108,181,13048,6,0,P|70:140|89:199,1,157.500006008148,4|0,3:0|0:0,0:0:0:0:
192,233,13733,5,0,1:0:0:0:
326,266,15104,5,0,1:0:0:0:
459,309,16476,5,8,3:0:0:0:
459,309,16647,1,8,3:0:0:0:
452,199,17847,6,0,B|424:186|424:186|357:195,1,78.7500030040742,2|0,0:0|0:0,0:0:0:0:
364,217,18190,2,0,B|333:220|333:220|272:191,1,78.7500030040742,2|0,0:0|0:0,0:0:0:0:
280,174,18533,1,2,0:0:0:0:
122,131,18704,1,0,0:0:0:0:
307,167,18877,1,2,0:0:0:0:
82,242,19048,1,2,0:0:0:0:
210,100,19219,5,0,1:0:0:0:
210,178,19390,1,0,0:0:0:0:
249,245,19561,1,0,3:0:0:0:
322,272,19733,1,0,3:0:0:0:
331,130,19905,5,0,1:0:0:0:
160,234,20076,1,0,0:0:0:0:
363,144,20247,1,0,3:0:0:0:
114,94,20419,1,0,3:0:0:0:
302,242,20590,5,0,1:0:0:0:
254,169,20761,1,0,0:0:0:0:
253,81,20933,1,0,3:0:0:0:
298,6,21104,1,0,3:0:0:0:
353,102,21276,5,0,1:0:0:0:
161,78,21447,1,0,0:0:0:0:
390,114,21619,1,0,3:0:0:0:
149,184,21790,1,0,3:0:0:0:
278,230,21962,5,0,1:0:0:0:
248,86,22134,1,0,3:0:0:0:
278,230,22304,1,0,3:0:0:0:
307,42,22476,1,0,3:0:0:0:
179,180,22647,5,0,1:0:0:0:
358,91,22819,1,0,3:0:0:0:
179,180,22990,1,0,3:0:0:0:
421,142,23162,1,0,3:0:0:0:
350,270,23333,5,0,1:0:0:0:
234,48,23505,1,0,3:0:0:0:
431,153,23676,1,0,3:0:0:0:
162,213,23847,1,0,3:0:0:0:
453,239,24020,6,4,P|492:263|509:286,1,52.5000020027161,4|4,3:0|3:0,3:0:0:0:
132,143,24191,2,4,P|89:118|63:74,1,52.5000020027161,4|4,3:0|3:0,3:0:0:0:
325,134,24361,5,4,3:0:0:0:
319,191,24447,1,4,3:0:0:0:
290,240,24533,1,4,3:0:0:0:
246,278,24619,1,4,3:0:0:0:
197,304,24705,2,0,B|150:324|105:308|105:308|127:299|147:268|147:268,1,140,4|0,3:0|0:0,0:0:0:0:
126,276,27448,6,0,L|158:228,1,35,4|0,3:0|0:0,0:0:0:0:
176,148,27620,2,0,P|237:95|210:175,1,210,4|0,3:0|0:0,0:0:0:0:
377,186,28819,5,0,0:0:0:0:
380,212,29161,1,0,0:0:0:0:
383,236,29504,1,0,0:0:0:0:
426,335,29847,1,0,3:0:0:0:
369,325,29934,1,0,3:0:0:0:
313,315,30020,1,0,3:0:0:0:
258,305,30105,1,0,3:0:0:0:
202,295,30191,1,0,3:0:0:0:
375,186,31219,5,0,0:0:0:0:
107,185,32420,5,0,3:0:0:0:
362,118,32762,2,0,L|307:133,1,35,4|0,3:0|0:0,0:0:0:0:
107,185,32934,1,4,3:0:0:0:
128,82,33619,6,0,L|80:66,1,35,4|2,3:0|0:0,0:0:0:0:
191,31,33790,5,2,0:0:0:0:
204,70,33876,1,2,0:0:0:0:
201,111,33961,1,2,0:0:0:0:
180,147,34047,1,2,0:0:0:0:
152,178,34133,1,2,0:0:0:0:
139,218,34219,1,2,0:0:0:0:
151,257,34305,6,0,B|320:242|320:242|242:208,1,210,4|0,3:0|0:0,0:0:0:0:
512,149,34647,2,0,B|343:164|343:164|421:198,1,210,4|0,3:0|0:0,0:0:0:0:
463,226,34990,1,2,0:0:0:0:
216,182,35161,1,2,0:0:0:0:
418,64,35333,2,0,B|455:45|455:45|334:42,1,140,0|0,1:0|0:0,0:0:0:0:
178,53,35676,6,0,L|107:48,1,70,4|0,3:0|0:0,0:0:0:0:
236,116,35848,2,0,L|345:107,1,70,4|0,3:0|0:0,0:0:0:0:
259,35,36019,1,2,0:0:0:0:
259,35,36361,1,2,0:0:0:0:
177,206,36705,6,0,L|106:201,1,70,4|0,3:0|0:0,0:0:0:0:
296,269,36877,2,0,L|367:264,1,70,4|0,3:0|0:0,0:0:0:0:
293,193,37048,1,2,0:0:0:0:
293,193,37390,1,2,0:0:0:0:
136,181,37733,5,8,0:0:0:0:
236,108,37905,2,0,L|241:37,1,70,4|0,3:0|0:0,0:0:0:0:
160,271,38077,2,0,L|165:342,1,70,4|0,3:0|0:0,0:0:0:0:
242,245,38248,1,2,0:0:0:0:
117,114,38419,6,0,L|46:109,1,70,4|0,3:0|0:0,0:0:0:0:
328,208,38591,2,0,L|397:204,1,70,4|0,3:0|0:0,0:0:0:0:
299,127,38762,1,2,0:0:0:0:
299,127,39104,1,2,0:0:0:0:
425,62,39448,6,0,L|496:57,1,70,4|0,3:0|0:0,0:0:0:0:
190,165,39620,2,0,L|119:160,1,70,4|0,3:0|0:0,0:0:0:0:
241,81,39790,1,2,0:0:0:0:
241,81,40134,1,2,0:0:0:0:
433,156,40476,5,8,0:0:0:0:
305,79,40648,2,0,L|300:8,1,70,4|0,3:0|0:0,0:0:0:0:
386,277,40820,2,0,L|381:348,1,70,4|0,3:0|0:0,0:0:0:0:
300,217,40991,1,2,0:0:0:0:
443,91,41162,6,0,L|514:86,1,70,4|0,3:0|0:0,0:0:0:0:
186,201,41334,2,0,L|115:196,1,70,4|0,3:0|0:0,0:0:0:0:
243,124,41505,1,2,0:0:0:0:
243,124,41847,1,2,0:0:0:0:
99,47,42191,6,0,L|28:42,1,70,4|0,3:0|0:0,0:0:0:0:
388,143,42362,2,0,L|459:138,1,70,4|0,3:0|0:0,0:0:0:0:
312,63,42533,1,2,0:0:0:0:
312,63,42877,1,2,0:0:0:0:
174,208,43219,5,8,0:0:0:0:
287,273,43391,2,0,L|292:344,1,70,4|0,3:0|0:0,0:0:0:0:
206,69,43562,2,0,L|211:-2,1,70,4|0,3:0|0:0,0:0:0:0:
295,102,43733,1,2,0:0:0:0:
86,106,43905,6,0,L|8:96,1,70,4|0,3:0|0:0,0:0:0:0:
186,141,44077,2,0,L|264:131,1,70,4|0,3:0|0:0,0:0:0:0:
100,177,44248,6,0,L|22:167,1,70,4|0,3:0|0:0,0:0:0:0:
252,203,44420,2,0,L|330:193,1,70,4|0,3:0|0:0,0:0:0:0:
113,253,44591,6,0,L|35:243,1,70,4|0,3:0|0:0,0:0:0:0:
319,266,44762,2,0,L|397:256,1,70,4|0,3:0|0:0,0:0:0:0:
126,332,44934,6,0,L|48:322,1,70,4|0,3:0|0:0,0:0:0:0:
382,329,45105,2,0,L|460:319,1,70,4|0,3:0|0:0,0:0:0:0:
293,61,45276,5,4,3:0:0:0:
212,280,45447,1,4,3:0:0:0:
211,33,45619,5,4,3:0:0:0:
299,341,45790,1,4,3:0:0:0:
248,128,45961,5,2,0:0:0:0:
238,208,46047,1,2,0:0:0:0:
312,175,46134,2,0,B|346:168|346:168|391:169,1,70,2|0,0:0|0:0,0:0:0:0:
76,109,46305,2,0,B|36:99|36:99|-4:103|-3:103,1,70,4|0,3:0|0:0,0:0:0:0:
148,44,46476,1,4,3:0:0:0:
46,257,46647,5,4,1:0:0:0:
383,99,46991,6,0,P|386:143|380:170,1,70,8|0,0:3|0:0,0:0:0:0:
216,45,47505,1,0,1:0:0:0:
380,168,47677,6,0,P|359:207|340:227,1,70,8|0,0:3|0:0,0:0:0:0:
216,45,48190,1,0,1:0:0:0:
342,225,48362,6,0,P|304:248|277:255,1,70,8|0,0:3|0:0,0:0:0:0:
216,45,48876,1,0,1:0:0:0:
279,255,49048,6,0,P|235:261|208:258,1,70,8|0,0:3|0:0,0:0:0:0:
306,89,49562,2,2,L|338:60,1,35
335,125,49648,2,2,L|370:116,1,35
354,171,49734,6,0,P|357:215|351:242,1,70,8|0,3:0|0:0,0:0:0:0:
150,108,50248,1,0,1:0:0:0:
351,240,50420,6,0,P|330:279|311:299,1,70,8|0,3:0|0:0,0:0:0:0:
150,108,50933,1,0,1:0:0:0:
313,297,51105,6,0,P|275:320|248:327,1,70,8|0,3:0|0:0,0:0:0:0:
150,108,51619,1,0,1:0:0:0:
81,291,51791,6,0,B|105:266|105:266|144:238,1,70
296,168,51962,2,0,B|271:195|271:195|226:221,1,70
172,105,52134,1,2,0:0:0:0:
172,105,52219,1,2,0:0:0:0:
172,105,52305,1,2,0:0:0:0:
172,105,52477,6,0,P|169:149|175:176,1,70,8|0,3:0|0:0,0:0:0:0:
395,0,52991,1,0,1:0:0:0:
174,174,53162,6,0,P|195:213|214:233,1,70,8|0,3:0|0:0,0:0:0:0:
395,0,53677,1,0,1:0:0:0:
212,231,53848,6,0,P|250:254|277:261,1,70,8|0,3:0|0:0,0:0:0:0:
395,0,54362,1,0,1:0:0:0:
274,260,54534,6,0,P|312:266|338:262,1,52.5,8|0,3:0|0:0,0:0:0:0:
394,157,54877,2,2,P|348:179|322:201,1,70
257,372,55048,2,2,P|303:350|329:328,1,70
87,232,55220,6,0,P|84:188|90:161,1,70,8|0,3:0|0:0,0:0:0:0:
317,338,55734,1,0,1:0:0:0:
90,163,55905,6,0,P|111:124|130:104,1,70,8|0,3:0|0:0,0:0:0:0:
317,338,56419,1,0,1:0:0:0:
128,106,56590,6,0,P|157:89|182:82,1,52.5,8|0,3:0|0:0,0:0:0:0:
191,83,56933,1,0,0:0:0:0:
317,338,57105,1,0,1:0:0:0:
168,249,57276,1,2,0:0:0:0:
168,249,57361,1,2,0:0:0:0:
168,249,57447,1,2,0:0:0:0:
420,218,57619,5,4,3:0:0:0:
390,176,57705,1,4,3:0:0:0:
420,135,57790,1,4,3:0:0:0:
468,151,57876,1,4,3:0:0:0:
468,202,57962,6,0,P|471:246|465:273,1,70,8|0,3:0|0:0,0:0:0:0:
247,63,58477,1,0,1:0:0:0:
466,271,58648,6,0,P|445:310|426:330,1,70,8|0,3:0|0:0,0:0:0:0:
247,63,59162,1,0,1:0:0:0:
428,328,59334,6,0,P|390:351|363:358,1,70,8|0,3:0|0:0,0:0:0:0:
247,63,59848,1,0,1:0:0:0:
366,357,60020,6,0,P|328:363|291:356,1,70,8|0,3:0|0:0,0:0:0:0:
339,165,60534,2,2,L|380:152,1,35
323,121,60620,2,2,L|348:95,1,35
293,81,60705,6,0,P|256:55|230:47,1,70,8|0,3:0|0:0,0:0:0:0:
277,326,61219,1,0,1:0:0:0:
232,47,61391,6,0,P|187:44|160:50,1,70,8|0,3:0|0:0,0:0:0:0:
277,326,61905,1,0,1:0:0:0:
162,49,62077,6,0,P|122:69|102:89,1,70,8|0,3:0|0:0,0:0:0:0:
277,326,62591,1,0,1:0:0:0:
362,137,62762,6,0,B|392:121|415:91,1,70
229,174,62934,2,0,B|200:188|176:219,1,70
372,241,63105,1,2,0:0:0:0:
372,241,63191,1,2,0:0:0:0:
372,241,63277,1,2,0:0:0:0:
372,241,63448,6,0,P|375:197|369:170,1,70,8|0,3:0|0:0,0:0:0:0:
129,319,63962,1,0,1:0:0:0:
370,172,64134,6,0,P|349:133|330:113,1,70,8|0,3:0|0:0,0:0:0:0:
129,319,64648,1,0,1:0:0:0:
332,115,64820,6,0,P|294:92|267:85,1,70,8|0,3:0|0:0,0:0:0:0:
129,319,65334,1,0,1:0:0:0:
270,86,65505,6,0,P|232:80|206:84,1,52.5,8|0,3:0|0:0,0:0:0:0:
175,157,65848,2,2,B|149:182|149:182|144:133,1,70
235,4,66020,2,2,B|253:-24|253:-24|265:10,1,70
23,146,66191,6,0,P|20:190|26:217,1,70,8|0,3:0|0:0,0:0:0:0:
287,33,66705,1,0,1:0:0:0:
25,215,66877,6,0,P|46:254|65:274,1,70,8|0,3:0|3:0,0:0:0:0:
287,33,67391,1,0,1:0:0:0:
130,283,67562,5,0,3:0:0:0:
227,37,67734,1,0,3:0:0:0:
195,266,67905,5,0,3:0:0:0:
173,65,68077,1,0,3:0:0:0:
275,175,68248,5,4,3:0:0:0:
184,163,68334,1,4,3:0:0:0:
95,151,68420,1,4,3:0:0:0:
351,39,68591,5,2,0:0:0:0:
377,66,70990,5,0,0:0:0:0:
376,83,71077,1,0,0:0:0:0:
375,100,71162,1,0,0:0:0:0:
374,117,71248,1,0,0:0:0:0:
374,134,71334,1,2,0:0:0:0:
267,175,71505,1,0,0:0:0:0:
406,254,71676,1,0,0:0:0:0:
160,285,71847,1,0,3:0:0:0:
126,147,73390,5,2,0:0:0:0:
126,147,74076,2,0,B|208:117|208:117|300:113,1,175
331,161,74590,1,0,3:0:0:0:
318,219,74676,1,0,3:0:0:0:
307,277,74761,1,0,3:0:0:0:
141,228,75104,5,0,3:0:0:0:
425,197,75447,1,2,0:0:0:0:
425,197,76133,1,2,0:0:0:0:
425,197,76476,5,0,3:0:0:0:
368,181,76561,1,0,3:0:0:0:
310,165,76647,1,0,3:0:0:0:
252,149,76733,1,0,3:0:0:0:
194,133,76819,1,0,3:0:0:0:
335,62,76990,1,0,3:0:0:0:
335,62,77504,5,2,0:0:0:0:
335,62,78190,1,2,0:0:0:0:
335,62,78705,6,0,L|352:22,2,35,2|2|2,0:0|0:0|0:0,0:0:0:0:
335,62,79048,1,0,0:3:0:0:
269,176,79220,1,0,3:0:0:0:
327,162,79305,1,0,3:0:0:0:
385,149,79391,1,0,3:0:0:0:
443,136,79477,1,0,3:0:0:0:
500,123,79562,1,0,3:0:0:0:
174,106,80248,5,2,0:0:0:0:
174,106,80934,1,2,0:0:0:0:
174,106,81620,1,2,0:0:0:0:
174,106,82305,5,0,3:0:0:0:
110,254,82477,1,0,3:0:0:0:
220,205,82820,5,0,3:0:0:0:
60,139,82991,1,0,3:0:0:0:
220,205,83162,1,0,3:0:0:0:
135,71,83677,5,0,3:0:0:0:
135,71,83848,1,0,3:0:0:0:
135,71,84020,1,0,3:0:0:0:
135,71,84191,1,0,3:0:0:0:
184,295,84362,1,0,1:0:0:0:
313,43,85048,6,0,P|378:50|393:54,1,70,10|0,0:0|0:0,0:0:0:0:
239,70,85391,2,0,P|174:63|159:59,1,70,2|0,0:0|0:0,0:0:0:0:
338,119,85734,6,0,P|403:126|418:130,1,70,2|0,0:0|0:0,0:0:0:0:
212,143,86077,2,0,P|147:136|132:132,1,70,2|0,0:0|0:0,0:0:0:0:
364,196,86420,6,0,P|429:203|444:207,1,70,10|0,0:0|0:0,0:0:0:0:
183,216,86763,2,0,P|118:209|103:205,1,70,2|0,0:0|0:0,0:0:0:0:
397,274,87105,6,0,P|462:281|477:285,1,70,2|0,0:0|0:0,0:0:0:0:
153,297,87448,1,2,0:0:0:0:
153,297,87620,1,2,0:0:0:0:
175,127,87791,1,8,0:0:0:0:
153,297,87962,1,0,0:0:0:0:
265,105,88134,1,0,0:0:0:0:
153,297,88305,1,0,0:0:0:0:
369,340,88477,6,0,P|434:333|449:329,1,70,8|0,0:0|0:0,0:0:0:0:
269,308,88820,2,0,P|204:315|189:319,1,70,2|0,0:0|0:0,0:0:0:0:
418,257,89163,6,0,P|483:250|498:246,1,70,8|0,0:0|0:0,0:0:0:0:
236,229,89506,2,0,P|171:236|156:240,1,70,2|0,0:0|0:0,0:0:0:0:
443,180,89848,6,0,P|508:173|523:169,1,70,8|0,0:0|0:0,0:0:0:0:
210,151,90191,2,0,P|145:158|130:162,1,70,8|0,0:0|0:0,0:0:0:0:
319,284,90534,5,10,0:0:0:0:
340,115,90705,1,0,0:0:0:0:
319,284,90877,1,2,0:0:0:0:
414,101,91048,1,2,0:0:0:0:
452,252,91220,5,10,0:0:0:0:
308,116,91391,1,0,0:0:0:0:
452,252,91562,1,2,0:0:0:0:
227,166,91734,1,2,0:0:0:0:
403,84,91905,5,10,0:0:0:0:
292,248,92077,1,0,0:0:0:0:
403,84,92248,1,2,0:0:0:0:
356,332,92420,1,2,0:0:0:0:
160,160,92591,5,10,0:0:0:0:
276,257,92762,1,0,0:0:0:0:
62,276,92934,1,2,0:0:0:0:
174,58,93105,1,2,0:0:0:0:
14,181,93277,5,10,0:0:0:0:
286,127,93448,1,0,0:0:0:0:
14,181,93620,1,2,0:0:0:0:
303,250,93791,1,2,0:0:0:0:
174,37,93962,5,10,0:0:0:0:
116,256,94134,1,0,0:0:0:0:
174,37,94305,1,2,0:0:0:0:
203,303,94477,1,2,0:0:0:0:
313,29,94648,6,0,P|378:36|393:40,1,70,8|0,0:0|0:0,0:0:0:0:
214,57,94820,2,0,P|149:50|134:46,1,70,8|0,0:0|0:0,0:0:0:0:
366,111,94991,6,0,P|431:118|446:122,1,70,8|0,0:0|0:0,0:0:0:0:
180,134,95162,2,0,P|115:127|100:123,1,70,8|0,0:0|0:0,0:0:0:0:
406,193,95334,6,8,P|471:200|486:204,1,70,8|8,0:0|0:0,0:0:0:0:
142,217,95505,2,8,P|77:210|62:206,1,70,8|8,0:0|0:0,0:0:0:0:
440,273,95677,6,8,P|505:280|520:284,1,70,8|8,0:0|0:0,0:0:0:0:
101,295,95848,2,8,P|36:288|21:284,1,70,8|8,0:0|0:0,0:0:0:0:
293,233,96020,5,4,1:0:0:0:
126,179,96362,6,0,P|123:135|129:108,1,70,8|8,3:0|0:0,0:0:0:0:
293,233,96877,1,0,1:0:0:0:
129,110,97048,6,0,P|148:73|163:54,1,52.5,8|0,3:0|0:0,0:0:0:0:
278,118,97391,2,0,P|216:128|195:125,1,70,10|0,0:0|0:0,0:0:0:0:
0,61,97562,2,0,P|62:51|83:54,1,70,2|0,0:0|0:0,0:0:0:0:
134,229,97734,2,0,B|86:258|86:258|131:100,1,210,8|0,3:0|0:0,0:0:0:0:
231,277,98077,6,0,P|217:231|202:207,1,70,10|0,0:0|0:0,0:0:0:0:
0,61,98248,2,0,P|14:107|29:131,1,70,2|0,0:0|0:0,0:0:0:0:
247,103,98420,2,0,B|270:52|270:52|118:113,1,210,8|0,3:0|0:0,0:0:0:0:
139,313,98762,1,8,0:0:0:0:
309,138,98934,2,2,L|351:129,1,35
315,183,99020,2,2,L|349:193,1,35
307,233,99105,6,0,P|286:272|267:292,1,70,8|8,0:3|0:0,0:0:0:0:
165,73,99620,1,0,1:0:0:0:
269,290,99791,6,0,P|230:312|204:319,1,70,8|8,3:0|0:0,0:0:0:0:
165,73,100305,1,0,1:0:0:0:
207,319,100477,6,0,P|162:319|143:313,1,52.5,8|0,3:0|0:0,0:0:0:0:
30,139,100820,2,0,P|89:156|111:174,1,70,10|0,0:0|0:0,0:0:0:0:
212,243,100991,2,0,P|153:226|131:208,1,70,8|0,3:0|0:0,0:0:0:0:
5,57,101162,6,0,P|64:74|86:92,1,70,8|0,0:3|0:0,0:0:0:0:
232,326,101334,2,0,P|173:309|151:291,1,70,8|0,3:0|0:0,0:0:0:0:
164,131,101505,2,0,B|211:114|211:114|60:273,1,210,8|0,0:0|0:0,0:0:0:0:
90,94,101848,6,0,P|124:66|149:55,1,70,8|8,3:0|0:0,0:0:0:0:
85,338,102362,1,0,1:0:0:0:
147,56,102534,6,0,P|191:50|213:54,1,52.5,8|0,0:3|0:0,0:0:0:0:
344,109,102877,2,0,P|267:111|252:106,1,70,10|0,0:0|0:0,0:0:0:0:
0,11,103048,2,0,P|77:9|92:14,1,70,2|0,0:0|0:0,0:0:0:0:
88,232,103220,2,0,B|172:83|172:83|135:97,1,210,8|0,0:3|0:0,0:0:0:0:
274,9,103562,6,0,P|256:83|247:97,1,70,10|0,0:0|0:0,0:0:0:0:
9,261,103734,2,0,P|26:186|35:172,1,70,2|0,0:0|0:0,0:0:0:0:
254,179,103905,2,0,B|131:58|131:58|135:96,1,210,8|0,0:3|0:0,0:0:0:0:
125,280,104248,5,10,0:0:0:0:
291,310,104420,5,2,0:0:0:0:
324,274,104505,1,2,0:0:0:0:
356,238,104591,2,0,B|439:233|439:233,1,70,8|0,0:3|0:0,0:0:0:0:
252,194,104762,2,0,B|169:189|169:189,1,70,8|0,0:0|0:0,0:0:0:0:
408,164,104934,6,0,B|491:159|491:159,1,70,8|0,0:3|0:0,0:0:0:0:
217,118,105105,2,0,B|134:113|134:113,1,70,8|0,0:0|0:0,0:0:0:0:
440,89,105277,6,0,B|523:84|523:84,1,70,8|0,0:3|0:0,0:0:0:0:
187,44,105448,2,0,B|104:39|104:39,1,70,8|0,0:0|0:0,0:0:0:0:
382,22,105620,6,0,L|371:91,1,70,8|0,3:0|0:0,0:0:0:0:
339,336,105791,1,8,0:0:0:0:
261,23,105962,6,0,L|271:92,1,70,8|0,3:0|0:0,0:0:0:0:
304,337,106133,1,8,0:0:0:0:
324,0,106305,6,0,L|325:69,1,70,8|0,3:0|0:0,0:0:0:0:
323,358,106476,1,8,0:0:0:0:
319,178,106648,5,10,0:0:0:0:
319,178,106734,1,10,0:0:0:0:
319,178,106820,1,10,0:0:0:0:
349,23,106991,2,0,B|321:176|321:176|287:126,1,210,8|0,0:3|0:0,0:0:0:0:
89,132,107334,6,0,P|110:93|129:73,1,70,8|8,0:3|0:0,0:0:0:0:
231,292,107849,1,0,1:0:0:0:
127,75,108021,6,0,P|166:53|186:47,1,52.5,8|0,3:0|0:0,0:0:0:0:
381,239,108362,2,0,P|330:227|303:217,1,70,10|0,0:0|0:0,0:0:0:0:
199,123,108534,2,0,P|249:134|276:144,1,70,2|0,0:0|0:0,0:0:0:0:
446,93,108705,2,0,B|455:40|455:40|345:151,1,210,8|0,0:3|0:0,0:0:0:0:
132,273,109048,2,0,B|123:326|123:326|232:214,1,210,8|0,0:3|0:0,0:0:0:0:
134,81,109391,5,0,0:0:0:0:
247,323,109562,1,0,0:0:0:0:
57,196,109734,1,0,0:0:0:0:
342,147,109905,2,2,L|384:142,1,35
342,191,109991,2,2,L|374:204,1,35
328,240,110077,6,0,P|303:276|282:294,1,70,8|8,0:3|0:0,0:0:0:0:
169,33,110592,1,0,1:0:0:0:
283,292,110763,6,0,P|243:313|217:320,1,70,8|8,3:0|0:0,0:0:0:0:
169,33,111278,1,0,1:0:0:0:
219,320,111448,6,0,P|175:327|153:325,1,52.5,8|0,0:3|0:0,0:0:0:0:
0,160,111791,2,0,P|39:169|69:183,1,70,10|0,0:0|0:0,0:0:0:0:
199,255,111962,2,0,P|159:245|129:231,1,70,0|0,3:0|0:0,0:0:0:0:
0,80,112134,6,0,P|39:89|69:103,1,70,0|0,3:0|0:0,0:0:0:0:
267,199,112305,2,0,P|227:189|197:175,1,70,0|0,3:0|0:0,0:0:0:0:
207,54,112477,2,0,B|195:21|195:21|107:204,1,210,2|0,0:0|0:0,0:0:0:0:
4,192,112820,2,0,P|95:293|218:238,1,280,10|0,0:0|0:0,0:0:0:0:
207,54,113334,5,0,0:0:0:0:
320,227,113505,1,0,0:0:0:0:
77,110,113677,1,0,0:0:0:0:
185,308,113848,6,2,P|212:234|200:188,1,70,2|0,0:0|0:0,0:0:0:0:
207,54,114020,2,2,P|179:127|191:173,1,70,2|0,0:0|0:0,0:0:0:0:
425,209,114191,6,0,P|387:232|360:240,1,70,8|8,0:3|0:0,0:0:0:0:
335,0,114706,1,0,1:0:0:0:
363,239,114878,6,0,P|318:238|297:233,1,52.5,8|0,3:0|0:0,0:0:0:0:
273,108,115220,2,2,B|304:85|304:85|308:126,1,70
204,304,115391,2,2,B|173:327|173:327|169:286,1,70
213,45,115562,5,2,0:0:0:0:
283,313,115734,1,2,0:0:0:0:
132,134,115905,5,2,0:0:0:0:
403,209,116077,1,2,0:0:0:0:
117,241,116248,5,2,0:0:0:0:
408,100,116420,1,2,0:0:0:0:
88,55,116591,6,0,L|100:128,1,70,0|0,1:0|0:0,0:0:0:0:
117,241,116762,1,4,3:0:0:0:
174,25,116934,6,0,L|186:98,1,70,0|0,1:0|0:0,0:0:0:0:
214,273,117105,1,4,3:0:0:0:
256,0,117277,6,0,L|268:73,1,70,0|0,1:0|0:0,0:0:0:0:
302,297,117448,1,4,3:0:0:0:
346,226,117534,1,4,3:0:0:0:
264,212,117620,2,0,B|224:205|224:205|191:208,1,70,4|0,3:0|0:0,0:0:0:0:
0,254,117791,2,0,B|40:261|40:261|73:258,1,70,4|0,3:0|0:0,0:0:0:0:
267,69,117962,5,0,1:0:0:0:
81,30,118477,5,0,3:0:0:0:
94,83,118562,1,0,3:0:0:0:
107,137,118648,1,0,3:0:0:0:
267,69,118991,5,2,0:0:0:0:
267,69,119334,1,2,0:0:0:0:
227,222,120020,5,2,0:0:0:0:
227,222,120362,1,0,3:0:0:0:
281,207,120448,1,0,3:0:0:0:
335,192,120534,1,0,3:0:0:0:
389,178,120620,1,0,3:0:0:0:
442,164,120705,1,0,3:0:0:0:
308,108,120877,5,0,3:0:0:0:
308,108,120962,1,0,3:0:0:0:
308,108,121048,1,0,3:0:0:0:
374,274,121220,1,0,3:0:0:0:
246,185,122077,5,2,0:0:0:0:
246,185,122762,1,2,0:0:0:0:
153,227,122934,1,2,0:0:0:0:
174,131,123105,1,2,0:0:0:0:
236,276,123277,1,2,0:0:0:0:
64,155,123448,5,0,3:0:0:0:
64,155,123620,1,0,3:0:0:0:
64,155,123791,1,0,3:0:0:0:
309,124,123962,1,0,3:0:0:0:
165,300,124820,5,2,0:0:0:0:
165,300,125505,1,2,0:0:0:0:
165,300,126191,1,2,0:0:0:0:
325,194,126705,6,0,L|337:221,2,23.3333333333333,0|0|0,3:0|3:0|3:0,3:0:0:0:
296,175,126877,2,0,B|195:167|195:167|79:180,1,210,0|0,3:0|0:0,0:0:0:0:
205,290,127562,1,0,3:0:0:0:
192,75,127734,1,0,3:0:0:0:
192,75,128077,1,0,3:0:0:0:
192,75,128420,1,0,3:0:0:0:
86,179,128591,1,0,3:0:0:0:
223,219,128762,1,0,3:0:0:0:
192,75,128934,6,0,B|260:85|260:85|337:112,1,140,0|0,3:0|0:0,0:0:0:0:
199,100,129448,2,0,B|267:110|267:110|344:137,1,140,0|0,3:0|0:0,0:0:0:0:
204,127,129962,2,0,B|272:137|272:137|349:164,1,140,0|2,3:0|0:0,0:0:0:0:
319,222,131334,5,2,0:0:0:0:
319,222,131505,1,2,0:0:0:0:
414,134,131677,1,2,0:0:0:0:
361,312,131848,1,2,0:0:0:0:
242,175,132020,1,2,0:0:0:0:
438,228,132191,1,2,0:0:0:0:
197,191,133734,5,2,0:0:0:0:
191,90,134420,6,0,B|150:114|109:119|109:119|110:167|84:226|84:226|135:256|163:305|163:305|227:271|290:270|290:270|286:215|309:166|309:166|279:150|257:117|257:117,1,603.750023031236,2|2,0:0|0:0,0:0:0:0:
197,191,136477,1,2,0:0:0:0:
340,100,137162,6,0,B|381:124|422:129|422:129|421:177|447:236|447:236|396:266|368:315|368:315|304:281|241:280|241:280|245:225|222:176|222:176|252:160|277:121|277:121,1,616.000018798829,2|2,0:0|0:0,0:0:0:0:
