osu file format v14

[General]
AudioFilename: audio.mp3
AudioLeadIn: 0
PreviewTime: 74527
Countdown: 0
SampleSet: Soft
StackLeniency: 0.7
Mode: 0
LetterboxInBreaks: 0
WidescreenStoryboard: 0

[Editor]
DistanceSpacing: 1
BeatDivisor: 4
GridSize: 4
TimelineZoom: 1

[Metadata]
Title:SPiCa
TitleUnicode:SPiCa
Artist:Narae
ArtistUnicode:나래
Creator:timemon
Version:Normal
Source:
Tags:とくP TokuP Headphone Tokyo 初音ミク c76 へっどほんトーキョー kentax Hatsune Miku
BeatmapID:1408158
BeatmapSetID:664636

[Difficulty]
HPDrainRate:4
CircleSize:3
OverallDifficulty:4
ApproachRate:5
SliderMultiplier:1
SliderTickRate:1

[Events]
//Background and Video events
0,0,"63093148_p0.jpg",0,0
//Break Periods
2,95467,105919
2,144156,154808
//Storyboard Layer 0 (Background)
//Storyboard Layer 1 (Fail)
//Storyboard Layer 2 (Pass)
//Storyboard Layer 3 (Foreground)
//Storyboard Sound Samples

[TimingPoints]
3416,370.37037037037,4,2,2,35,1,0
3416,-100,4,2,2,35,0,0
26564,-100,4,2,1,35,0,0
27119,-100,4,2,1,50,0,0
38971,-100,4,2,1,60,0,0
62675,-100,4,2,1,60,0,0
71564,-100,4,2,1,50,0,0
74527,-100,4,2,1,70,0,1
86008,-100,4,2,1,70,0,0
86378,-100,4,2,1,70,0,1
92304,-100,4,2,1,60,0,0
95267,-100,4,2,1,60,0,0
107119,-100,4,2,1,60,0,0
118971,-100,4,2,1,60,0,0
131934,-100,4,2,1,60,0,0
141193,-100,4,2,1,50,0,0
156008,-100,4,2,1,50,0,0
163415,-100,4,2,1,60,0,0
164897,-100,4,2,1,70,0,1
176378,-100,4,2,1,70,0,0
176749,-100,4,2,1,70,0,1
182675,-100,4,2,1,60,0,0
187119,-100,4,2,1,60,0,0
204897,-100,4,2,1,60,0,0

[Colours]
Combo1 : 128,128,255
Combo2 : 255,149,202
Combo3 : 86,191,254
Combo4 : 255,128,128

[HitObjects]
72,65,3416,6,0,L|185:59,1,100,2|0,0:0|0:0,0:0:0:0:
257,7,4156,2,0,P|283:38|278:110,1,100,2|0,0:0|0:0,0:0:0:0:
267,143,4712,1,0,0:0:0:0:
177,186,5082,2,0,L|66:166,2,100,0|0|0,0:0|0:0|0:0,0:0:0:0:
212,279,6193,1,0,0:0:0:0:
212,279,6378,6,0,L|323:259,1,100,2|0,0:0|0:0,0:0:0:0:
381,190,7119,2,0,P|387:144|358:76,1,100,2|0,0:0|0:0,0:0:0:0:
352,47,7675,1,0,0:0:0:0:
262,90,8045,2,0,L|145:91,2,100,0|0|0,0:0|0:0|0:0,0:0:0:0:
366,198,9341,6,0,B|376:249|376:249|366:298|366:298|377:360,1,150,2|0,0:0|0:0,0:0:0:0:
336,377,10082,2,0,L|217:370,1,100,2|0,0:0|0:0,0:0:0:0:
161,304,10823,2,0,P|141:251|155:202,1,100,2|0,0:0|0:0,0:0:0:0:
208,128,11564,1,2,0:0:0:0:
285,64,11934,2,0,L|347:72,1,50,0|0,0:0|0:0,0:0:0:0:
372,38,12304,6,0,L|358:147,1,100,2|0,0:0|0:0,0:0:0:0:
311,154,12860,1,0,0:0:0:0:
311,154,13045,2,0,L|325:263,1,100,2|0,0:0|0:0,0:0:0:0:
336,352,13786,1,2,0:0:0:0:
134,261,14897,6,0,L|137:201,1,50,0|0,0:0|0:0,0:0:0:0:
144,160,15267,6,0,B|220:116|220:200|304:168,1,150,2|0,0:0|0:0,0:0:0:0:
328,147,16008,2,0,L|312:31,1,100,2|0,0:0|0:0,0:0:0:0:
273,18,16564,1,0,0:0:0:0:
205,91,16934,2,0,L|92:83,2,100,0|0|0,0:0|0:0|0:0,0:0:0:0:
267,169,18045,1,0,0:0:0:0:
267,169,18230,6,0,B|276:210|276:210|268:259|268:259|276:327,1,150,2|0,0:0|0:0,0:0:0:0:
244,356,18971,2,0,L|142:364,1,100,2|0,0:0|0:0,0:0:0:0:
94,367,19527,1,0,0:0:0:0:
22,297,19897,2,0,P|3:248|19:186,2,100,0|0|0,0:0|0:0|0:0,0:0:0:0:
140,208,21193,6,0,B|216:188|216:240|288:212,1,150,2|0,0:0|0:0,0:0:0:0:
313,170,21934,2,0,L|424:183,1,100,2|0,0:0|0:0,0:0:0:0:
511,192,22675,1,2,0:0:0:0:
391,31,23415,1,2,0:0:0:0:
308,87,23786,2,0,L|242:82,1,50,0|0,0:0|0:0,0:0:0:0:
228,42,24156,6,0,L|230:157,1,100,2|0,0:0|0:0,0:0:0:0:
145,195,24897,2,0,B|103:204|103:204|41:185|41:185|-15:193,1,150,2|0,0:0|0:0,0:0:0:0:
2,241,25638,1,2,0:0:0:0:
2,241,25823,2,0,L|14:349,1,100,0|0,0:0|0:0,0:0:0:0:
62,341,26378,1,0,0:0:0:0:
62,341,26564,2,0,P|113:320|162:341,1,100,0|0,0:0|0:0,0:0:0:0:
188,365,27119,6,0,L|296:353,1,100,4|0,0:0|0:0,0:0:0:0:
357,282,27860,2,0,L|345:174,1,100,0|0,0:0|0:0,0:0:0:0:
340,82,28601,1,4,0:0:0:0:
247,119,28971,1,0,0:0:0:0:
223,21,29341,1,0,0:0:0:0:
146,86,29712,2,0,L|88:86,1,50,0|2,0:0|0:0,0:0:0:0:
74,41,30082,6,0,P|93:87|79:150,1,100,4|0,0:0|0:0,0:0:0:0:
23,213,30823,2,0,P|4:259|18:322,1,100,0|0,0:0|0:0,0:0:0:0:
88,370,31564,2,0,L|197:356,1,100,4|0,0:0|0:0,0:0:0:0:
252,281,32304,1,0,0:0:0:0:
188,203,32675,1,8,0:0:0:0:
233,113,33045,6,0,P|284:106|337:131,2,100,4|0|0,0:0|0:0|0:0,0:0:0:0:
157,179,34156,1,0,0:0:0:0:
104,93,34527,2,0,L|-15:121,2,100,4|0|2,0:0|0:0|0:0,0:0:0:0:
231,14,35823,1,0,0:0:0:0:
231,14,36008,6,0,B|246:59|246:59|242:131,2,100,4|0|0,0:0|0:0|3:0,0:0:0:0:
137,49,37119,1,0,3:0:0:0:
163,145,37490,1,4,0:0:0:0:
87,210,37860,1,8,0:0:0:0:
174,257,38230,2,0,L|164:377,1,100,2|2,0:0|0:0,0:0:0:0:
265,364,38971,6,0,L|273:264,1,100,2|2,0:0|0:0,0:0:0:0:
315,236,39527,1,0,0:0:0:0:
315,236,39712,2,0,L|306:136,1,100,2|2,0:0|0:0,0:0:0:0:
286,90,40267,2,0,P|238:78|170:100,2,100,0|0|0,0:0|0:0|0:0,0:0:0:0:
368,147,41378,1,2,0:0:0:0:
460,107,41749,1,2,0:0:0:0:
460,107,41934,6,0,L|455:220,1,100,2|2,0:0|0:0,0:0:0:0:
442,306,42675,2,0,P|392:318|341:301,1,100,2|2,0:0|0:0,0:0:0:0:
306,274,43230,2,0,P|256:262|205:279,2,100,0|0|0,0:0|0:0|0:0,0:0:0:0:
371,198,44341,1,2,0:0:0:0:
298,129,44712,1,2,0:0:0:0:
298,129,44897,6,0,B|238:137|238:137|181:123,1,100,2|2,0:0|0:0,0:0:0:0:
162,94,45453,1,0,0:0:0:0:
162,94,45638,2,0,L|62:110,1,100,2|2,0:0|0:0,0:0:0:0:
24,141,46193,1,0,0:0:0:0:
104,200,46564,1,0,0:0:0:0:
33,271,46934,2,0,L|27:218,2,50,0|2|0,0:0|0:0|0:0,0:0:0:0:
70,303,47490,2,0,L|123:297,1,50,2|2,0:0|0:0,0:0:0:0:
144,253,47860,6,0,P|161:277|154:362,1,100,2|2,0:0|0:0,0:0:0:0:
260,368,48601,2,0,L|381:357,1,100,2|2,0:0|0:0,0:0:0:0:
409,353,49156,1,0,0:0:0:0:
354,269,49527,1,0,0:0:0:0:
426,200,49897,1,0,0:0:0:0:
426,200,50082,2,0,L|421:141,1,50,2|8,0:0|0:0,0:0:0:0:
377,126,50452,2,0,L|382:67,1,50,8|0,0:0|3:0,0:0:0:0:
415,39,50823,6,0,P|379:55|299:41,1,100,4|2,0:0|0:0,0:0:0:0:
229,95,51564,2,0,P|193:79|113:93,1,100,2|2,0:0|0:0,0:0:0:0:
93,112,52119,1,0,0:0:0:0:
146,196,52490,2,0,L|137:311,2,100,0|0|2,0:0|0:0|0:0,0:0:0:0:
151,146,53415,1,10,0:0:0:0:
216,70,53786,6,0,B|268:95|268:95|325:88,1,100,2|2,0:0|0:0,0:0:0:0:
369,8,54527,2,0,P|399:49|409:111,1,100,2|2,0:0|0:0,0:0:0:0:
403,145,55082,1,0,0:0:0:0:
454,231,55453,2,0,L|443:340,2,100,0|2|0,0:0|0:0|0:0,0:0:0:0:
403,145,56564,1,0,3:0:0:0:
407,149,56749,6,0,P|371:167|307:158,1,100,4|2,0:0|0:0,0:0:0:0:
226,211,57490,2,0,L|231:325,1,100,2|2,0:0|0:0,0:0:0:0:
130,317,58230,2,0,L|125:217,2,100,2|2|2,0:0|0:0|0:0,0:0:0:0:
38,358,59341,1,8,0:0:0:0:
2,264,59712,6,0,P|-9:205|16:155,1,100,2|2,0:0|0:0,0:0:0:0:
34,129,60267,1,0,0:0:0:0:
34,129,60453,2,0,L|139:143,1,100,2|2,0:0|0:0,0:0:0:0:
169,176,61008,2,0,L|162:232,1,50,0|2,0:0|0:0,0:0:0:0:
166,275,61378,2,0,P|217:263|281:276,1,100,2|0,0:0|0:0,0:0:0:0:
305,297,61934,2,0,L|298:353,1,50,8|8,0:0|0:0,0:0:0:0:
412,248,62675,6,0,P|427:172|384:96,1,150,4|0,0:0|0:0,0:0:0:0:
368,67,63415,2,0,L|266:80,1,100,8|0,0:0|0:0,0:0:0:0:
200,152,64156,1,2,0:0:0:0:
262,230,64527,2,0,L|258:333,2,100,0|8|0,0:0|0:0|0:0,0:0:0:0:
200,152,65638,6,0,B|171:149|171:149|122:154|122:154|91:145,1,100,4|0,0:0|0:0,0:0:0:0:
25,213,66378,2,0,P|16:252|24:318,1,100,8|0,0:0|0:0,0:0:0:0:
108,364,67119,2,0,B|176:328|176:392|256:360,1,150,2|2,0:0|0:0,0:0:0:0:
296,337,67860,1,8,0:0:0:0:
252,247,68230,1,0,0:0:0:0:
315,169,68601,6,0,P|270:148|216:153,1,100,4|0,0:0|0:0,0:0:0:0:
150,222,69341,2,0,P|125:190|125:128,1,100,8|0,0:0|0:0,0:0:0:0:
183,52,70082,2,0,L|282:73,1,100,2|0,0:0|0:0,0:0:0:0:
331,159,70823,1,8,0:0:0:0:
403,90,71193,1,0,0:0:0:0:
470,164,71564,6,0,P|450:260|354:300,2,200,4|0|0,0:0|0:0|0:0,0:0:0:0:
316,45,74527,6,0,L|201:52,1,100,4|8,0:0|0:0,0:0:0:0:
139,114,75267,2,0,P|128:152|146:219,1,100,2|8,0:0|0:0,0:0:0:0:
175,245,75823,1,0,0:0:0:0:
175,245,76008,2,0,L|237:242,2,50,2|0|8,0:0|0:0|0:0,0:0:0:0:
154,290,76564,1,0,0:0:0:0:
154,290,76749,2,0,P|107:291|55:323,1,100,2|8,0:0|0:0,0:0:0:0:
10,230,77490,6,0,L|15:129,1,100,2|8,0:0|0:0,0:0:0:0:
72,48,78230,2,0,P|120:44|172:67,1,100,2|8,0:0|0:0,0:0:0:0:
199,101,78786,1,0,0:0:0:0:
199,101,78971,2,0,L|193:159,1,50,2|0,0:0|0:0,0:0:0:0:
187,200,79341,1,8,0:0:0:0:
252,275,79712,2,0,L|316:273,2,50,2|2|8,0:0|0:0|0:0,0:0:0:0:
216,310,80267,1,0,0:0:0:0:
216,310,80453,6,0,L|220:192,1,100,4|8,0:0|0:0,0:0:0:0:
284,134,81193,2,0,L|383:137,1,100,2|8,0:0|0:0,0:0:0:0:
420,172,81749,1,0,0:0:0:0:
420,172,81934,6,0,B|442:146|442:146|444:63,1,100,4|8,0:0|0:0,0:0:0:0:
429,31,82490,2,0,B|399:47|399:47|328:35,1,100,4|2,0:0|0:0,0:0:0:0:
248,87,83230,2,0,L|248:188,1,100,4|0,0:0|0:0,0:0:0:0:
248,237,83786,1,8,0:0:0:0:
176,307,84156,2,0,P|124:315|74:295,1,100,2|8,0:0|0:0,0:0:0:0:
40,207,84897,6,0,L|46:154,2,50,4|0|8,0:0|0:0|0:0,0:0:0:0:
79,237,85453,2,0,L|184:228,1,100,4|2,0:0|0:0,0:0:0:0:
202,184,86008,2,0,L|270:191,1,50,8|8,0:0|0:0,0:0:0:0:
287,224,86378,6,0,P|306:255|294:324,1,100,4|8,0:0|0:0,0:0:0:0:
206,352,87119,2,0,P|175:371|106:359,1,100,2|8,0:0|0:0,0:0:0:0:
69,339,87675,1,0,0:0:0:0:
69,339,87860,2,0,L|19:342,2,50,2|0|8,0:0|0:0|0:0,0:0:0:0:
100,297,88415,1,0,0:0:0:0:
100,297,88601,2,0,P|87:266|107:193,1,100,2|8,0:0|0:0,0:0:0:0:
186,154,89341,6,0,L|294:171,1,100,2|8,0:0|0:0,0:0:0:0:
358,237,90082,2,0,P|378:199|380:134,1,100,2|8,0:0|0:0,0:0:0:0:
351,102,90638,1,0,0:0:0:0:
351,102,90823,2,0,L|400:96,2,50,2|0|8,0:0|0:0|0:0,0:0:0:0:
267,156,91564,2,0,L|261:216,1,50,8|2,0:0|0:0,0:0:0:0:
218,229,91934,2,0,L|224:289,1,50,8|2,0:0|0:0,0:0:0:0:
231,327,92304,6,0,B|152:296|156:368|71:326,1,150,4|0,0:0|0:0,0:0:0:0:
49,298,93045,2,0,L|28:191,1,100,8|0,0:0|0:0,0:0:0:0:
60,159,93601,1,0,0:0:0:0:
60,159,93786,2,0,L|57:101,2,50,2|2|2,0:0|0:0|0:0,0:0:0:0:
101,186,94341,1,10,0:0:0:0:
236,121,94897,1,2,3:0:0:0:
230,220,95267,5,4,0:0:0:0:
104,71,107119,6,0,L|221:78,1,100,4|8,0:0|0:0,0:0:0:0:
272,149,107860,2,0,P|287:187|276:251,1,100,0|8,0:0|0:0,0:0:0:0:
257,289,108415,1,2,0:0:0:0:
197,369,108786,2,0,L|84:364,2,100,2|2|0,0:0|0:0|0:0,0:0:0:0:
247,371,109712,1,8,0:0:0:0:
319,302,110082,6,0,L|315:189,1,100,4|8,0:0|0:0,0:0:0:0:
290,158,110638,1,2,0:0:0:0:
290,158,110823,2,0,P|243:145|187:163,1,100,0|8,0:0|0:0,0:0:0:0:
148,178,111378,1,2,0:0:0:0:
60,129,111749,2,0,L|58:236,2,100,2|2|8,0:0|0:0|0:0,0:0:0:0:
62,78,112675,1,8,0:0:0:0:
150,32,113045,6,0,P|194:46|251:38,1,100,4|8,0:0|0:0,0:0:0:0:
326,99,113786,2,0,B|334:132|334:132|331:198,1,100,0|8,0:0|0:0,0:0:0:0:
328,247,114341,2,0,P|287:223|232:231,1,100,2|2,0:0|0:0,0:0:0:0:
143,266,115082,1,2,0:0:0:0:
208,341,115453,1,0,0:0:0:0:
208,341,115638,2,0,L|271:349,1,50,8|0,0:0|0:0,0:0:0:0:
291,311,116008,6,0,P|329:299|395:313,1,100,6|8,0:0|0:0,0:0:0:0:
460,240,116749,2,0,L|452:123,1,100,0|8,0:0|0:0,0:0:0:0:
448,90,117304,1,4,0:0:0:0:
67,58,118971,6,0,L|67:121,2,50,2|0|8,0:0|0:0|0:0,0:0:0:0:
99,19,119527,2,0,P|153:8|204:28,1,100,0|0,0:0|0:0,0:0:0:0:
239,43,120082,1,8,0:0:0:0:
239,43,120267,2,0,P|293:54|344:34,1,100,0|0,0:0|0:0,0:0:0:0:
381,22,120823,1,8,0:0:0:0:
453,91,121193,2,0,L|508:87,2,50,2|0|8,0:0|0:0|0:0,0:0:0:0:
416,125,121749,1,0,0:0:0:0:
416,125,121934,6,0,L|298:112,1,100,2|8,0:0|0:0,0:0:0:0:
291,70,122490,2,0,P|276:122|302:179,1,100,0|0,0:0|0:0,0:0:0:0:
323,200,123045,1,8,0:0:0:0:
323,200,123230,2,0,P|338:252|312:309,1,100,0|0,0:0|0:0,0:0:0:0:
240,348,123971,2,0,L|168:343,2,50,0|2|0,0:0|0:0|0:0,0:0:0:0:
276,383,124527,1,8,0:0:0:0:
324,294,124897,6,0,L|319:234,2,50,2|0|8,0:0|0:0|0:0,0:0:0:0:
362,326,125453,2,0,P|409:333|451:301,1,100,0|0,0:0|0:0,0:0:0:0:
475,207,126193,2,0,L|462:92,1,100,0|0,0:0|0:0,0:0:0:0:
401,27,126934,2,0,L|450:20,2,50,0|2|0,0:0|0:0|3:0,0:0:0:0:
372,68,127490,2,0,L|322:61,1,50,8|0,0:0|0:0,0:0:0:0:
283,92,127860,6,0,L|271:212,1,100,2|8,0:0|0:0,0:0:0:0:
247,234,128415,2,0,P|213:207|146:206,1,100,0|0,0:0|0:0,0:0:0:0:
96,281,129156,2,0,P|47:289|-9:258,1,100,0|0,0:0|0:0,0:0:0:0:
61,188,129897,2,0,L|65:134,2,50,0|2|8,0:0|0:0|0:0,0:0:0:0:
109,200,130453,1,8,0:0:0:0:
240,328,132304,6,0,B|312:288|320:372|396:328,1,150,4|0,0:0|0:0,0:0:0:0:
422,304,133045,2,0,L|419:204,1,100,0|0,0:0|0:0,0:0:0:0:
415,103,133786,1,4,0:0:0:0:
325,147,134156,2,0,P|284:164|216:153,2,100,0|0|0,0:0|0:0|0:0,0:0:0:0:
393,73,135267,6,0,P|434:56|502:67,2,100,4|0|0,0:0|0:0|0:0,0:0:0:0:
320,142,136378,1,0,0:0:0:0:
244,76,136749,2,0,L|128:89,1,100,2|0,0:0|3:0,0:0:0:0:
66,24,137490,1,8,0:0:0:0:
32,118,137860,1,0,0:0:0:0:
115,172,138230,6,0,L|115:290,1,100,4|0,0:0|0:0,0:0:0:0:
187,340,138971,2,0,P|232:310|278:307,1,100,8|0,0:0|0:0,0:0:0:0:
362,358,139712,2,0,P|371:306|354:243,1,100,2|0,0:0|0:0,0:0:0:0:
322,168,140453,1,8,0:0:0:0:
397,102,140823,2,0,L|467:114,1,50,0|0,3:0|3:0,0:0:0:0:
479,73,141193,6,0,L|459:279,2,200,4|0|0,0:0|0:0|0:0,0:0:0:0:
398,329,156008,6,0,L|390:219,2,100,2|2|2,0:0|0:0|0:0,0:0:0:0:
310,377,157119,2,0,L|242:373,1,50,2|0,0:0|0:0,0:0:0:0:
235,330,157490,2,0,L|125:337,2,100,2|2|2,0:0|0:0|0:0,0:0:0:0:
288,245,158601,2,0,L|282:188,1,50,2|0,0:0|0:0,0:0:0:0:
277,145,158971,6,0,P|245:160|170:152,1,100,2|2,0:0|0:0,0:0:0:0:
122,79,159712,2,0,P|95:116|86:184,1,100,2|2,0:0|0:0,0:0:0:0:
179,199,160453,2,0,P|206:236|215:304,1,100,2|2,0:0|0:0,0:0:0:0:
143,356,161193,2,0,L|78:351,2,50,2|0|2,0:0|0:0|0:0,0:0:0:0:
183,326,161749,1,0,0:0:0:0:
183,326,161934,2,0,P|201:284|255:242,1,100,2|2,0:0|0:0,0:0:0:0:
333,208,162675,2,0,L|322:91,1,100,2|2,0:0|0:0,0:0:0:0:
309,9,163415,5,8,0:0:0:0:
236,77,163786,1,8,0:0:0:0:
148,29,164156,2,0,L|92:34,1,50,8|8,0:0|0:0,0:0:0:0:
85,81,164527,2,0,L|29:76,1,50,0|0,3:0|3:0,0:0:0:0:
2,38,164897,6,0,L|12:153,1,100,4|8,0:0|0:0,0:0:0:0:
100,181,165638,2,0,L|90:296,1,100,2|8,0:0|0:0,0:0:0:0:
72,326,166193,1,0,0:0:0:0:
72,326,166378,2,0,L|81:386,2,50,2|0|8,0:0|0:0|0:0,0:0:0:0:
26,304,166934,1,0,0:0:0:0:
26,304,167119,2,0,P|4:257|14:209,1,100,2|8,0:0|0:0,0:0:0:0:
85,141,167860,6,0,L|198:162,1,100,2|8,0:0|0:0,0:0:0:0:
277,198,168601,2,0,L|390:177,1,100,2|8,0:0|0:0,0:0:0:0:
423,167,169156,1,0,0:0:0:0:
423,167,169341,2,0,L|415:238,1,50,2|0,0:0|0:0,0:0:0:0:
410,266,169712,1,8,0:0:0:0:
335,332,170082,2,0,L|276:320,2,50,2|2|8,0:0|0:0|0:0,0:0:0:0:
377,359,170638,1,0,3:0:0:0:
377,359,170823,6,0,P|414:366|473:332,1,100,4|8,0:0|0:0,0:0:0:0:
412,255,171564,2,0,L|420:143,1,100,2|8,0:0|0:0,0:0:0:0:
392,113,172119,1,2,0:0:0:0:
392,113,172304,6,0,B|367:139|367:139|289:116,1,100,4|8,0:0|0:0,0:0:0:0:
284,75,172860,2,0,L|183:90,1,100,4|2,0:0|0:0,0:0:0:0:
112,158,173601,2,0,P|106:203|127:259,1,100,4|2,0:0|0:0,0:0:0:0:
149,296,174156,1,8,0:0:0:0:
223,363,174527,2,0,P|271:374|334:353,1,100,0|8,0:0|0:0,0:0:0:0:
380,280,175267,6,0,L|435:288,2,50,4|2|8,0:0|0:0|0:0,0:0:0:0:
351,238,175823,2,0,P|306:214|240:208,1,100,4|0,0:0|0:0,0:0:0:0:
215,233,176378,1,8,0:0:0:0:
127,184,176749,6,0,P|116:248|133:289,1,100,4|8,0:0|0:0,0:0:0:0:
118,328,177304,1,2,0:0:0:0:
118,328,177490,2,0,L|224:321,1,100,8|8,0:0|0:0,0:0:0:0:
265,340,178045,1,2,0:0:0:0:
265,340,178230,2,0,L|330:344,1,50,8|0,0:0|0:0,0:0:0:0:
353,310,178601,2,0,L|418:306,1,50,8|2,0:0|0:0,0:0:0:0:
440,340,178971,2,0,P|450:303|421:240,1,100,8|8,0:0|0:0,0:0:0:0:
386,156,179712,6,0,P|342:173|273:162,1,100,4|8,0:0|0:0,0:0:0:0:
256,132,180267,1,2,0:0:0:0:
256,132,180453,2,0,P|212:115|143:126,1,100,8|8,0:0|0:0,0:0:0:0:
115,142,181008,1,2,0:0:0:0:
115,142,181193,2,0,L|120:204,1,50,4|2,0:0|0:0,0:0:0:0:
125,241,181564,1,8,0:0:0:0:
208,296,181934,2,0,L|264:290,2,50,8|0|8,0:0|0:0|0:0,0:0:0:0:
176,334,182490,1,2,0:0:0:0:
176,334,182675,6,0,P|151:282|192:203,1,150,4|0,0:0|3:0,0:0:0:0:
231,177,183415,2,0,L|347:203,1,100,8|0,0:0|0:0,0:0:0:0:
399,269,184156,2,0,L|388:328,2,50,8|8|8,0:0|0:0|0:0,0:0:0:0:
410,220,184712,1,8,0:0:0:0:
361,132,185082,2,0,L|311:122,2,50,0|0|0,0:0|0:0|0:0,0:0:0:0:
178,80,186749,5,0,0:0:0:0:
248,148,187119,6,0,L|252:258,1,100,4|8,0:0|0:0,0:0:0:0:
331,308,187860,2,0,P|380:327|439:308,1,100,2|8,0:0|0:0,0:0:0:0:
491,242,188601,2,0,L|486:127,1,100,2|8,0:0|0:0,0:0:0:0:
421,66,189341,2,0,L|371:72,1,50,2|2,0:0|0:0,0:0:0:0:
344,29,189712,2,0,L|294:23,1,50,8|0,0:0|0:0,0:0:0:0:
244,16,190082,6,0,P|230:48|244:112,1,100,4|8,0:0|0:0,0:0:0:0:
272,204,190823,2,0,P|286:236|272:300,1,100,2|8,0:0|0:0,0:0:0:0:
200,368,191564,2,0,L|100:357,1,100,2|8,0:0|0:0,0:0:0:0:
51,270,192304,2,0,L|44:211,2,50,2|2|8,0:0|0:0|0:0,0:0:0:0:
93,297,192860,1,0,0:0:0:0:
93,297,193045,6,0,P|147:308|192:283,1,100,4|8,0:0|0:0,0:0:0:0:
258,220,193786,2,0,P|303:200|350:212,1,100,2|8,0:0|0:0,0:0:0:0:
387,245,194341,1,0,0:0:0:0:
387,245,194527,6,0,L|382:141,1,100,4|8,0:0|0:0,0:0:0:0:
375,95,195082,2,0,B|331:119|331:119|260:99,1,100,4|2,0:0|0:0,0:0:0:0:
198,52,195823,2,0,P|148:67|91:71,1,100,4|2,0:0|0:0,0:0:0:0:
69,109,196378,2,0,L|83:213,1,100,8|2,0:0|0:0,0:0:0:0:
100,306,197119,1,8,0:0:0:0:
199,318,197490,6,0,L|264:326,2,50,6|2|8,0:0|0:0|0:0,0:0:0:0:
170,358,198045,2,0,L|182:251,1,100,4|2,0:0|0:0,0:0:0:0:
221,228,198601,2,0,L|221:172,1,50,8|8,0:0|0:0,0:0:0:0:
179,150,198971,2,0,P|225:130|274:152,1,100,4|8,0:0|0:0,0:0:0:0:
335,222,199712,2,0,L|334:337,1,100,2|8,0:0|0:0,0:0:0:0:
434,326,200453,6,0,L|434:226,1,100,2|8,0:0|0:0,0:0:0:0:
485,139,201193,1,2,0:0:0:0:
415,66,201564,1,8,0:0:0:0:
328,115,201934,2,0,P|264:132|213:112,1,100,4|8,0:0|0:0,0:0:0:0:
166,48,202675,2,0,P|137:78|137:148,1,100,2|8,0:0|0:0,0:0:0:0:
201,205,203415,6,0,L|194:311,1,100,2|8,0:0|0:0,0:0:0:0:
104,349,204156,1,8,0:0:0:0:
65,254,204527,1,8,0:0:0:0:
136,184,204897,6,0,B|212:152|216:240|296:200,1,150,4|8,0:0|0:0,0:0:0:0:
305,166,205638,2,0,P|323:190|308:276,1,100,2|0,0:0|0:0,0:0:0:0:
251,328,206378,2,0,L|190:319,2,50,2|8|8,0:0|0:0|0:0,0:0:0:0:
285,364,206934,1,8,0:0:0:0:
395,262,207490,6,0,L|399:212,1,50,2|4,0:0|0:0,0:0:0:0:
