osu file format v14

[General]
AudioFilename: audio.mp3
AudioLeadIn: 0
PreviewTime: 74527
Countdown: 0
SampleSet: Soft
StackLeniency: 0.7
Mode: 0
LetterboxInBreaks: 0
WidescreenStoryboard: 0

[Editor]
DistanceSpacing: 1.2
BeatDivisor: 4
GridSize: 4
TimelineZoom: 1

[Metadata]
Title:SPiCa
TitleUnicode:SPiCa
Artist:Narae
ArtistUnicode:나래
Creator:timemon
Version:Hard
Source:
Tags:とくP TokuP Headphone Tokyo 初音ミク c76 へっどほんトーキョー kentax Hatsune Miku
BeatmapID:1407251
BeatmapSetID:664636

[Difficulty]
HPDrainRate:5
CircleSize:3.6
OverallDifficulty:6
ApproachRate:7
SliderMultiplier:1.4
SliderTickRate:1

[Events]
//Background and Video events
0,0,"63093148_p0.jpg",0,0
//Break Periods
2,95467,106219
2,144156,155108
//Storyboard Layer 0 (Background)
//Storyboard Layer 1 (Fail)
//Storyboard Layer 2 (Pass)
//Storyboard Layer 3 (Foreground)
//Storyboard Sound Samples

[TimingPoints]
3416,370.37037037037,4,2,2,35,1,0
3416,-125,4,2,2,35,0,0
27119,-111.111111111111,4,2,1,50,0,0
38971,-100,4,2,1,60,0,0
62675,-111.111111111111,4,2,1,60,0,0
71564,-142.857142857143,4,2,1,50,0,0
74527,-90.9090909090909,4,2,1,70,0,1
86008,-90.9090909090909,4,2,1,70,0,0
86378,-90.9090909090909,4,2,1,70,0,1
92304,-111.111111111111,4,2,1,60,0,0
95267,-111.111111111111,4,2,1,60,0,0
107119,-100,4,2,1,60,0,0
118971,-100,4,2,1,60,0,0
131934,-111.111111111111,4,2,1,60,0,0
141193,-142.857142857143,4,2,1,50,0,0
156008,-111.111111111111,4,2,1,50,0,0
163415,-111.111111111111,4,2,1,60,0,0
164897,-90.9090909090909,4,2,1,70,0,1
176378,-90.9090909090909,4,2,1,70,0,0
176749,-83.3333333333333,4,2,1,70,0,1
182675,-111.111111111111,4,2,1,60,0,0
187119,-100,4,2,1,60,0,0
204897,-142.857142857143,4,2,1,60,0,0

[Colours]
Combo1 : 128,128,255
Combo2 : 255,149,202
Combo3 : 86,191,254
Combo4 : 255,128,128

[HitObjects]
315,263,3416,1,2,0:0:0:0:
315,263,3971,1,0,0:0:0:0:
315,263,4156,2,0,P|325:230|301:157,1,112,2|0,0:0|0:0,0:0:0:0:
250,99,4712,2,0,L|177:108,1,56,0|2,0:0|0:0,0:0:0:0:
133,56,5082,2,0,P|93:65|24:41,2,112,0|0|0,0:0|0:0|0:0,0:0:0:0:
264,142,6193,1,0,0:0:0:0:
264,142,6378,6,0,L|258:258,1,112,2|0,0:0|0:0,0:0:0:0:
190,294,6934,1,0,0:0:0:0:
256,335,7119,2,0,P|308:345|362:320,1,112,2|0,0:0|0:0,0:0:0:0:
415,265,7675,1,0,0:0:0:0:
376,86,8045,2,0,L|370:205,2,112,0|0|0,0:0|0:0|0:0,0:0:0:0:
112,48,9341,6,0,B|200:24|204:100|296:60,1,168,2|0,0:0|0:0,0:0:0:0:
336,116,10082,2,0,P|356:152|332:228,2,112,2|0|2,0:0|0:0|0:0,0:0:0:0:
336,116,11564,1,2,0:0:0:0:
194,184,11934,2,0,L|198:250,1,56,0|0,0:0|0:0,0:0:0:0:
252,295,12304,6,0,B|282:308|282:308|179:329,1,112,2|0,0:0|0:0,0:0:0:0:
126,335,12860,1,0,0:0:0:0:
48,344,13045,2,0,P|21:296|34:232,2,112,2|0|2,0:0|0:0|0:0,0:0:0:0:
115,172,14897,6,0,L|175:176,1,56
222,116,15267,6,0,B|279:135|279:135|343:120,1,112,2|0,0:0|0:0,0:0:0:0:
403,96,15823,1,0,0:0:0:0:
458,156,16008,2,0,P|480:119|465:41,1,112,2|0,0:0|0:0,0:0:0:0:
404,12,16564,2,0,L|281:24,2,112,0|0|0,0:0|0:0|0:0,0:0:0:0:
490,112,17675,2,0,B|499:153|499:153|490:198|490:198|493:241,1,112,0|0,0:0|0:0,0:0:0:0:
494,300,18230,6,0,P|440:310|386:281,1,112,2|0,0:0|0:0,0:0:0:0:
334,230,18786,1,0,0:0:0:0:
334,230,18971,2,0,P|280:220|226:249,1,112,2|0,0:0|0:0,0:0:0:0:
175,301,19527,2,0,L|56:285,2,112,0|0|0,0:0|0:0|0:0,0:0:0:0:
291,369,20638,1,0,0:0:0:0:
441,168,21193,6,0,L|426:279,1,112,2|0,0:0|0:0,0:0:0:0:
359,329,21749,1,0,0:0:0:0:
359,329,21934,2,0,B|319:289|319:289|257:298,2,112,2|0|2,0:0|0:0|0:0,0:0:0:0:
359,329,23415,1,2,0:0:0:0:
245,219,23786,2,0,L|250:163,1,56,0|0,0:0|0:0,0:0:0:0:
195,113,24156,6,0,P|251:89|313:123,1,112,2|0,0:0|0:0,0:0:0:0:
353,161,24712,1,0,0:0:0:0:
402,100,24897,2,0,L|387:218,1,112,2|0,0:0|0:0,0:0:0:0:
376,289,25453,1,0,0:0:0:0:
309,242,25638,1,2,0:0:0:0:
268,312,25823,2,0,P|235:303|153:322,1,112,0|0,0:0|0:0,0:0:0:0:
93,359,26378,1,0,0:0:0:0:
35,305,26564,2,0,B|14:255|14:255|24:190,1,112
92,109,27119,6,0,L|217:128,1,125.999996154785,4|0,0:0|0:0,0:0:0:0:
272,196,27675,1,0,0:0:0:0:
272,196,27860,2,0,L|397:177,1,125.999996154785,0|0,0:0|0:0,0:0:0:0:
477,238,28415,1,0,0:0:0:0:
498,91,28601,2,0,L|504:153,1,62.9999980773926,4|0,0:0|0:0,0:0:0:0:
493,267,28971,2,0,P|458:252|374:273,2,125.999996154785,0|0|0,0:0|0:0|0:0,0:0:0:0:
438,354,29897,1,2,0:0:0:0:
438,354,30082,6,0,L|348:357,1,62.9999980773926,4|0,0:0|0:0,0:0:0:0:
302,305,30453,2,0,P|267:290|183:311,2,125.999996154785,0|0|0,0:0|0:0|0:0,0:0:0:0:
396,155,31564,2,0,L|388:12,1,125.999996154785,4|0,0:0|0:0,0:0:0:0:
263,113,32304,1,0,0:0:0:0:
161,0,32675,1,8,0:0:0:0:
69,120,33045,6,0,L|78:252,1,125.999996154785,4|0,0:0|0:0,0:0:0:0:
207,323,33786,2,0,L|275:329,1,62.9999980773926,0|0,0:0|0:0,0:0:0:0:
389,270,34156,2,0,L|321:276,1,62.9999980773926,0|0,0:0|3:0,0:0:0:0:
279,215,34527,2,0,B|265:175|265:175|279:92,1,125.999996154785,4|0,0:0|0:0,0:0:0:0:
409,16,35267,1,2,0:0:0:0:
487,172,35823,1,0,0:0:0:0:
487,172,35915,1,0,0:0:0:0:
487,172,36008,6,0,L|477:298,2,125.999996154785,4|0|0,0:0|0:0|3:0,0:0:0:0:
388,57,37119,2,0,L|322:63,1,62.9999980773926,0|0,3:0|3:0,0:0:0:0:
247,18,37490,2,0,P|273:44|286:137,1,125.999996154785,4|8,0:0|0:0,0:0:0:0:
200,244,38230,2,0,P|209:208|283:150,1,125.999996154785,2|2,0:0|0:0,0:0:0:0:
465,237,38971,6,0,P|419:245|330:206,1,140,2|2,0:0|0:0,0:0:0:0:
274,152,39527,1,0,0:0:0:0:
202,195,39712,2,0,B|214:237|214:237|211:287|211:287|225:338,1,140,2|2,0:0|0:0,0:0:0:0:
145,364,40267,2,0,L|75:367,1,70,0|2,0:0|0:0,0:0:0:0:
5,279,40638,2,0,L|75:282,1,70,0|2,0:0|0:0,0:0:0:0:
145,194,41008,2,0,L|75:197,1,70,0|2,0:0|0:0,0:0:0:0:
5,109,41378,2,0,L|75:112,2,70,2|2|2,0:0|0:0|0:0,0:0:0:0:
116,38,41934,6,0,P|167:15|249:32,1,140,2|2,0:0|0:0,0:0:0:0:
308,88,42490,1,0,0:0:0:0:
308,88,42675,2,0,P|331:139|314:221,1,140,2|2,0:0|0:0,0:0:0:0:
196,294,43230,2,0,P|236:283|279:290,1,70,0|2,0:0|0:0,0:0:0:0:
364,365,43601,2,0,P|324:354|281:361,1,70,0|2,0:0|0:0,0:0:0:0:
435,269,43971,2,0,L|442:341,1,70,0|2,0:0|0:0,0:0:0:0:
506,220,44341,2,0,L|512:150,2,70,2|2|2,0:0|0:0|0:0,0:0:0:0:
414,152,44897,6,0,B|367:142|367:142|324:149|324:149|274:138,1,140,2|2,0:0|0:0,0:0:0:0:
243,61,45453,1,0,0:0:0:0:
183,120,45638,2,0,B|158:196|158:196|187:271,1,140,2|2,0:0|0:0,0:0:0:0:
257,362,46193,2,0,P|251:316|256:282,1,70,0|2,0:0|0:0,0:0:0:0:
336,184,46564,2,0,P|330:230|335:264,1,70,0|2,0:0|0:0,0:0:0:0:
386,324,46934,2,0,P|432:330|466:325,2,70,0|2|0,0:0|0:0|0:0,0:0:0:0:
332,253,47490,1,2,0:0:0:0:
410,202,47675,1,2,0:0:0:0:
322,115,47860,6,0,P|316:175|336:263,1,140,2|2,0:0|0:0,0:0:0:0:
379,321,48415,1,0,0:0:0:0:
296,337,48601,2,0,P|247:301|160:275,1,140,2|2,0:0|0:0,0:0:0:0:
108,221,49156,2,0,L|114:148,1,70,0|2,0:0|0:0,0:0:0:0:
44,103,49527,2,0,L|38:30,1,70,0|2,0:0|0:0,0:0:0:0:
122,1,49897,1,0,0:0:0:0:
174,66,50082,1,2,0:0:0:0:
259,15,50267,1,8,0:0:0:0:
259,15,50453,2,0,L|332:15,1,70,8|0,0:0|3:0,0:0:0:0:
419,79,50823,6,0,B|434:113|434:113|325:93,1,140,4|2,0:0|0:0,0:0:0:0:
261,138,51378,1,0,0:0:0:0:
261,138,51564,2,0,L|268:278,1,140,2|2,0:0|0:0,0:0:0:0:
337,324,52119,2,0,P|371:338|408:338,1,70,0|2,0:0|0:0,0:0:0:0:
267,277,52490,2,0,P|237:299|219:331,1,70,0|2,0:0|0:0,0:0:0:0:
341,244,52860,2,0,P|336:207|317:175,1,70,0|2,0:0|0:0,0:0:0:0:
203,104,53230,2,0,L|277:115,2,70,2|10|2,0:0|0:0|0:0,0:0:0:0:
178,18,53786,6,0,B|184:55|184:55|174:97|174:97|185:164,1,140,2|2,0:0|0:0,0:0:0:0:
244,213,54341,1,0,0:0:0:0:
181,270,54527,2,0,P|110:288|50:251,1,140,2|2,0:0|0:0,0:0:0:0:
17,181,55082,2,0,P|6:146|6:112,1,70,0|2,0:0|0:0,0:0:0:0:
38,85,55360,1,0,0:0:0:0:
38,85,55453,2,0,P|49:50|49:16,1,70,0|2,0:0|0:0,0:0:0:0:
197,24,55823,2,0,P|161:31|131:48,1,70,2|0,0:0|0:0,0:0:0:0:
117,194,56193,2,0,L|111:111,2,70,0|10|0,0:0|0:0|3:0,0:0:0:0:
69,268,56749,6,0,B|39:292|39:292|154:281,1,140,4|2,0:0|0:0,0:0:0:0:
224,279,57304,1,0,0:0:0:0:
284,212,57490,2,0,P|306:246|290:339,1,140,2|2,0:0|0:0,0:0:0:0:
224,279,58045,1,0,0:0:0:0:
284,212,58230,2,0,L|357:217,1,70,2|0,0:0|0:0,0:0:0:0:
393,142,58601,2,0,L|466:147,1,70,2|0,0:0|0:0,0:0:0:0:
374,58,58971,2,0,L|301:53,1,70,2|0,0:0|0:0,0:0:0:0:
244,111,59341,1,8,0:0:0:0:
208,34,59527,1,0,0:0:0:0:
119,100,59712,6,0,B|109:180|109:180|166:159,1,140,2|2,0:0|0:0,0:0:0:0:
245,136,60267,1,0,0:0:0:0:
302,197,60453,2,0,P|277:161|294:70,1,140,2|2,0:0|0:0,0:0:0:0:
361,22,61008,1,0,0:0:0:0:
418,83,61193,1,2,0:0:0:0:
485,33,61378,2,0,B|436:86|436:86|495:163,1,140,2|0,0:0|0:0,0:0:0:0:
418,206,61934,1,8,0:0:0:0:
494,262,62119,1,8,0:0:0:0:
372,352,62675,6,0,L|238:344,1,125.999996154785,4|0,0:0|0:0,0:0:0:0:
183,289,63230,1,0,0:0:0:0:
249,241,63415,2,0,B|277:223|277:223|275:114,1,125.999996154785,8|0,0:0|0:0,0:0:0:0:
276,48,63971,1,0,0:0:0:0:
195,62,64156,2,0,P|160:71|116:64,1,62.9999980773926,2|8,0:0|0:0,0:0:0:0:
63,111,64527,2,0,P|111:105|190:140,2,125.999996154785,0|8|0,0:0|0:0|0:0,0:0:0:0:
18,246,65638,6,0,L|11:372,1,125.999996154785,4|0,0:0|0:0,0:0:0:0:
104,333,66193,1,0,0:0:0:0:
104,333,66378,2,0,L|187:333,1,62.9999980773926,8|0,0:0|0:0,0:0:0:0:
283,263,66749,2,0,L|200:263,1,62.9999980773926,0|2,0:0|0:0,0:0:0:0:
174,194,67119,1,2,0:0:0:0:
328,187,67304,2,0,P|359:218|359:303,1,125.999996154785,8|2,0:0|0:0,0:0:0:0:
318,376,67860,2,0,L|461:367,1,125.999996154785,8|0,0:0|0:0,0:0:0:0:
328,187,68601,6,0,B|286:185|286:185|238:196|238:196|190:191,1,125.999996154785,4|0,0:0|0:0,0:0:0:0:
50,134,69341,2,0,P|41:69|68:8,1,125.999996154785,8|0,0:0|0:0,0:0:0:0:
221,55,70082,1,2,0:0:0:0:
221,55,70267,2,0,B|263:53|263:53|311:64|311:64|359:59,1,125.999996154785,0|0,0:0|0:0,0:0:0:0:
427,57,70823,1,8,0:0:0:0:
385,215,71193,1,0,0:0:0:0:
244,156,71564,6,0,P|150:163|99:253,2,195.999994018555,4|0|0,0:0|0:0|0:0,0:0:0:0:
452,296,74527,6,0,B|384:256|380:332|292:280,1,154.000004699707,4|8,0:0|0:0,0:0:0:0:
237,223,75082,1,0,0:0:0:0:
301,156,75267,2,0,L|381:164,1,77.0000023498536,2|2,0:0|0:0,0:0:0:0:
469,177,75638,1,8,0:0:0:0:
429,98,75823,1,0,0:0:0:0:
490,25,76008,6,0,L|413:17,1,77.0000023498536,2|0,0:0|0:0,0:0:0:0:
320,20,76378,1,8,0:0:0:0:
264,94,76564,1,0,0:0:0:0:
342,142,76749,2,0,P|353:181|349:230,1,77.0000023498536,2|2,0:0|0:0,0:0:0:0:
298,292,77119,1,8,0:0:0:0:
214,252,77304,1,0,0:0:0:0:
214,252,77397,1,0,0:0:0:0:
214,252,77490,6,0,L|211:175,1,77.0000023498536,2|0,0:0|0:0,0:0:0:0:
211,82,77860,1,8,0:0:0:0:
292,124,78045,1,0,0:0:0:0:
134,133,78230,2,0,L|57:136,1,77.0000023498536,2|2,0:0|0:0,0:0:0:0:
97,52,78601,1,8,0:0:0:0:
97,52,78786,1,0,0:0:0:0:
200,6,78971,6,0,P|211:44|209:91,1,77.0000023498536,2|0,0:0|0:0,0:0:0:0:
219,169,79341,2,0,P|272:161|298:143,1,77.0000023498536,8|0,0:0|0:0,0:0:0:0:
384,172,79712,1,2,0:0:0:0:
430,92,79897,1,2,0:0:0:0:
369,21,80082,1,8,0:0:0:0:
284,58,80267,1,0,0:0:0:0:
384,172,80453,6,0,P|410:207|385:318,1,154.000004699707,4|8,0:0|0:0,0:0:0:0:
248,231,81008,1,0,0:0:0:0:
248,231,81193,2,0,L|331:244,2,77.0000023498536,2|2|8,0:0|0:0|0:0,0:0:0:0:
173,266,81749,1,0,0:0:0:0:
221,336,81934,6,0,L|208:174,1,154.000004699707,4|8,0:0|0:0,0:0:0:0:
209,89,82490,2,0,B|267:79|267:79|311:85|311:85|373:77,1,154.000004699707,4|2,0:0|0:0,0:0:0:0:
429,143,83045,1,8,0:0:0:0:
493,61,83230,2,0,P|518:91|511:202,1,154.000004699707,4|0,0:0|0:0,0:0:0:0:
438,255,83786,2,0,L|358:261,1,77.0000023498536,8|0,0:0|0:0,0:0:0:0:
237,330,84156,2,0,L|317:336,1,77.0000023498536,2|2,0:0|0:0,0:0:0:0:
406,343,84527,1,8,0:0:0:0:
232,195,84897,6,0,L|327:212,2,77.0000023498536,4|0|8,0:0|0:0|0:0,0:0:0:0:
310,351,85453,2,0,P|284:295|310:207,1,154.000004699707,4|2,0:0|0:0,0:0:0:0:
368,139,86008,1,8,0:0:0:0:
368,139,86193,1,8,0:0:0:0:
290,54,86378,6,0,L|129:56,1,154.000004699707,4|8,0:0|0:0,0:0:0:0:
62,112,86934,1,0,0:0:0:0:
132,171,87119,2,0,P|141:212|134:251,1,77.0000023498536,2|2,0:0|0:0,0:0:0:0:
77,318,87490,1,8,0:0:0:0:
159,358,87675,1,0,0:0:0:0:
225,293,87860,6,0,L|305:304,1,77.0000023498536,2|0,0:0|0:0,0:0:0:0:
391,324,88230,1,8,0:0:0:0:
357,237,88415,1,0,0:0:0:0:
419,98,88601,2,0,P|429:135|426:174,1,77.0000023498536,2|2,0:0|0:0,0:0:0:0:
357,237,88971,1,8,0:0:0:0:
278,161,89156,1,0,0:0:0:0:
278,161,89249,1,0,0:0:0:0:
278,161,89341,6,0,P|233:152|195:153,1,77.0000023498536,2|0,0:0|0:0,0:0:0:0:
128,208,89712,1,8,0:0:0:0:
128,208,89897,1,0,0:0:0:0:
59,146,90082,2,0,L|52:64,1,77.0000023498536,2|2,0:0|0:0,0:0:0:0:
124,11,90453,1,8,0:0:0:0:
189,76,90638,1,0,0:0:0:0:
285,18,90823,6,0,L|368:31,1,77.0000023498536,2|0,0:0|0:0,0:0:0:0:
443,101,91193,2,0,L|360:114,1,77.0000023498536,8|0,0:0|0:0,0:0:0:0:
288,162,91564,1,8,0:0:0:0:
288,162,91749,1,2,0:0:0:0:
356,224,91934,1,8,0:0:0:0:
356,224,92119,1,2,0:0:0:0:
292,300,92304,6,0,B|200:256|196:340|100:292,1,188.999994232178,4|0,0:0|0:0,0:0:0:0:
54,243,93045,2,0,P|25:180|41:123,1,125.999996154785,8|0,0:0|0:0,0:0:0:0:
90,72,93601,1,0,0:0:0:0:
158,32,93786,2,0,L|222:45,2,62.9999980773926,2|2|2,0:0|0:0|0:0,0:0:0:0:
90,72,94341,1,10,0:0:0:0:
246,289,94897,1,2,3:0:0:0:
246,289,95267,5,4,0:0:0:0:
421,59,107119,6,0,B|427:98|427:98|421:144|421:144|435:212,1,140,4|8,0:0|0:0,0:0:0:0:
451,279,107675,1,2,0:0:0:0:
394,340,107860,2,0,P|342:363|266:325,1,140,0|8,0:0|0:0,0:0:0:0:
221,262,108415,2,0,P|207:224|209:191,1,70,2|0,0:0|0:0,0:0:0:0:
276,144,108786,2,0,P|290:182|288:215,1,70,2|8,0:0|0:0,0:0:0:0:
419,256,109156,2,0,L|350:267,1,70,2|2,0:0|0:0,0:0:0:0:
249,337,109527,1,0,0:0:0:0:
249,337,109712,2,0,L|318:347,1,70,8|0,0:0|0:0,0:0:0:0:
412,287,110082,6,0,L|397:136,1,140,4|8,0:0|0:0,0:0:0:0:
330,97,110638,1,2,0:0:0:0:
391,39,110823,2,0,L|240:54,1,140,0|8,0:0|0:0,0:0:0:0:
127,136,111378,2,0,P|117:171|122:206,1,70,2|0,0:0|0:0,0:0:0:0:
190,81,111749,2,0,P|225:72|253:50,1,70,2|8,0:0|0:0,0:0:0:0:
112,59,112119,2,0,P|86:32|53:19,1,70,2|2,0:0|0:0,0:0:0:0:
18,112,112490,1,8,0:0:0:0:
18,112,112675,2,0,L|27:182,1,70,8|0,0:0|0:0,0:0:0:0:
108,238,113045,6,0,P|173:230|246:275,1,140,4|8,0:0|0:0,0:0:0:0:
294,325,113601,1,2,0:0:0:0:
344,258,113786,2,0,L|336:113,1,140,0|8,0:0|0:0,0:0:0:0:
271,64,114341,2,0,L|200:73,1,70,2|0,0:0|0:0,0:0:0:0:
136,19,114712,2,0,L|66:10,1,70,2|8,0:0|0:0,0:0:0:0:
0,103,115082,2,0,L|69:94,1,70,2|2,0:0|0:0,0:0:0:0:
137,144,115453,1,0,0:0:0:0:
137,144,115638,2,0,P|147:178|142:222,1,70,8|0,0:0|0:0,0:0:0:0:
85,271,116008,6,0,P|137:244|223:249,1,140,6|8,0:0|0:0,0:0:0:0:
290,287,116564,1,2,0:0:0:0:
332,220,116749,2,0,L|321:378,1,140,0|8,0:0|0:0,0:0:0:0:
409,298,117304,1,4,0:0:0:0:
259,74,118971,6,0,L|111:82,1,140,2|8,0:0|0:0,0:0:0:0:
68,148,119527,2,0,L|76:222,1,70,0|2,0:0|0:0,0:0:0:0:
152,279,119897,2,0,L|160:205,2,70,0|8|0,0:0|0:0|0:0,0:0:0:0:
139,362,120453,1,2,0:0:0:0:
71,309,120638,2,0,L|-3:301,2,70,0|8|0,0:0|0:0|0:0,0:0:0:0:
123,243,121193,1,2,0:0:0:0:
123,243,121378,1,0,0:0:0:0:
77,172,121564,1,8,0:0:0:0:
120,100,121749,1,0,0:0:0:0:
248,48,121934,6,0,L|179:41,2,70,2|0|8,0:0|0:0|0:0,0:0:0:0:
288,123,122490,2,0,L|357:115,1,70,0|2,0:0|0:0,0:0:0:0:
407,47,122860,1,0,0:0:0:0:
461,110,123045,1,8,0:0:0:0:
454,193,123230,2,0,L|449:277,1,70,0|2,0:0|0:0,0:0:0:0:
370,324,123601,2,0,L|365:240,1,70,0|8,0:0|0:0,0:0:0:0:
308,192,123971,1,0,0:0:0:0:
236,235,124156,1,2,0:0:0:0:
168,185,124341,1,0,0:0:0:0:
168,185,124527,2,0,L|172:115,1,70,8|0,0:0|0:0,0:0:0:0:
307,45,124897,6,0,P|272:46|233:58,2,70,2|0|8,0:0|0:0|0:0,0:0:0:0:
358,111,125453,2,0,P|391:120|426:121,1,70,0|2,0:0|0:0,0:0:0:0:
486,179,125823,1,0,0:0:0:0:
481,262,126008,1,8,0:0:0:0:
476,345,126193,2,0,L|394:349,1,70,0|2,0:0|0:0,0:0:0:0:
327,262,126564,2,0,L|409:266,1,70,0|8,0:0|0:0,0:0:0:0:
449,200,126934,1,0,0:0:0:0:
390,139,127119,1,2,0:0:0:0:
448,76,127304,2,0,L|484:80,2,35,0|0|8,3:0|3:0|0:0,0:0:0:0:
388,16,127675,1,0,0:0:0:0:
255,82,127860,6,0,L|324:77,2,70,2|0|8,0:0|0:0|0:0,0:0:0:0:
180,121,128415,2,0,P|179:158|187:193,1,70,0|2,0:0|0:0,0:0:0:0:
235,258,128786,1,0,0:0:0:0:
172,314,128971,1,8,0:0:0:0:
239,364,129156,2,0,L|315:350,1,70,0|2,0:0|0:0,0:0:0:0:
369,293,129527,2,0,P|379:249|371:204,1,70,0|8,0:0|0:0,0:0:0:0:
335,151,129897,1,0,0:0:0:0:
390,88,130082,1,2,0:0:0:0:
321,40,130267,1,8,0:0:0:0:
321,40,130453,1,8,0:0:0:0:
79,109,132304,6,0,L|217:103,1,125.999996154785,4|0,0:0|0:0,0:0:0:0:
271,151,132860,1,0,0:0:0:0:
271,151,133045,2,0,P|296:198|275:274,1,125.999996154785,0|0,0:0|0:0,0:0:0:0:
225,329,133601,1,0,0:0:0:0:
225,329,133786,2,0,L|145:328,1,62.9999980773926,4|8,0:0|0:0,0:0:0:0:
101,248,134156,2,0,L|181:247,1,62.9999980773926,0|0,0:0|0:0,0:0:0:0:
225,167,134527,2,0,L|145:166,1,62.9999980773926,0|0,0:0|0:0,0:0:0:0:
101,86,134897,2,0,L|181:85,1,62.9999980773926,0|0,0:0|0:0,0:0:0:0:
235,24,135267,6,0,P|294:39|367:22,2,125.999996154785,4|0|0,0:0|0:0|0:0,0:0:0:0:
84,89,136378,2,0,L|95:166,1,62.9999980773926,0|0,0:0|0:0,0:0:0:0:
159,199,136749,2,0,L|156:248,3,41.9999987182618,2|0|0|0,0:0|3:0|3:0|3:0,0:0:0:0:
225,92,137490,1,8,0:0:0:0:
321,224,137860,1,0,0:0:0:0:
418,137,138230,6,0,L|411:288,1,125.999996154785,4|0,0:0|0:0,0:0:0:0:
347,314,138786,1,2,0:0:0:0:
405,371,138971,2,0,P|359:351|279:362,1,125.999996154785,8|0,0:0|0:0,0:0:0:0:
213,318,139527,1,0,3:0:0:0:
213,318,139619,1,0,3:0:0:0:
213,318,139712,1,2,0:0:0:0:
260,251,139897,2,0,L|252:117,1,125.999996154785,8|0,0:0|0:0,0:0:0:0:
247,43,140453,1,8,0:0:0:0:
247,43,140638,1,0,0:0:0:0:
322,74,140823,1,0,3:0:0:0:
394,36,141008,1,0,3:0:0:0:
458,95,141193,6,0,L|455:292,2,195.999994018555,4|0|0,0:0|0:0|0:0,0:0:0:0:
454,316,156008,6,0,L|367:320,1,62.9999980773926,2|0,0:0|0:0,0:0:0:0:
357,251,156378,2,0,L|270:255,1,62.9999980773926,2|0,0:0|0:0,0:0:0:0:
235,301,156749,2,0,P|217:263|227:225,1,62.9999980773926,2|0,0:0|0:0,0:0:0:0:
254,176,157119,1,2,0:0:0:0:
206,117,157304,1,0,0:0:0:0:
254,58,157490,6,0,L|346:65,2,62.9999980773926,2|0|2,0:0|0:0|0:0,0:0:0:0:
195,10,158045,1,0,0:0:0:0:
195,10,158230,2,0,L|103:17,1,62.9999980773926,2|0,0:0|0:0,0:0:0:0:
67,54,158601,1,2,0:0:0:0:
67,54,158786,1,0,0:0:0:0:
123,113,158971,6,0,P|137:145|138:183,1,62.9999980773926,2|0,0:0|0:0,0:0:0:0:
151,254,159341,2,0,P|116:250|82:231,1,62.9999980773926,2|0,0:0|0:0,0:0:0:0:
13,208,159712,2,0,P|33:179|66:160,1,62.9999980773926,2|0,0:0|0:0,0:0:0:0:
123,113,160082,1,2,0:0:0:0:
123,113,160267,1,0,0:0:0:0:
194,177,160453,6,0,L|187:253,1,62.9999980773926,2|0,0:0|0:0,0:0:0:0:
267,229,160823,2,0,L|260:305,1,62.9999980773926,2|0,0:0|0:0,0:0:0:0:
324,345,161193,1,2,0:0:0:0:
324,345,161378,1,0,0:0:0:0:
390,307,161564,1,2,0:0:0:0:
390,307,161749,1,0,0:0:0:0:
453,265,161934,6,0,L|443:137,1,125.999996154785,2|2,0:0|0:0,0:0:0:0:
399,77,162490,1,0,0:0:0:0:
399,77,162675,2,0,L|320:82,1,62.9999980773926,2|0,0:0|0:0,0:0:0:0:
221,15,163045,2,0,L|300:20,1,62.9999980773926,2|0,0:0|0:0,0:0:0:0:
340,101,163415,5,8,0:0:0:0:
256,146,163601,1,8,0:0:0:0:
333,199,163786,1,8,0:0:0:0:
252,247,163971,1,8,0:0:0:0:
168,200,164156,6,0,L|172:164,3,31.4999990386963,8|8|8|8,0:0|0:0|0:0|0:0,0:0:0:0:
144,152,164527,2,0,L|140:116,3,31.4999990386963,0|0|0|0,3:0|3:0|3:0|3:0,0:0:0:0:
168,92,164897,6,0,B|248:56|252:140|336:104,1,154.000004699707,4|8,0:0|0:0,0:0:0:0:
400,77,165453,1,0,0:0:0:0:
466,141,165638,2,0,P|483:179|482:224,1,77.0000023498536,2|2,0:0|0:0,0:0:0:0:
460,303,166008,1,8,0:0:0:0:
389,243,166193,1,0,0:0:0:0:
289,326,166378,6,0,L|369:322,1,77.0000023498536,2|0,0:0|0:0,0:0:0:0:
389,243,166749,1,8,0:0:0:0:
372,152,166934,1,0,0:0:0:0:
426,77,167119,2,0,P|388:65|343:65,1,77.0000023498536,2|2,0:0|0:0,0:0:0:0:
281,112,167490,1,8,0:0:0:0:
202,17,167675,1,0,0:0:0:0:
202,17,167767,1,0,0:0:0:0:
202,17,167860,6,0,L|198:98,1,77.0000023498536,2|0,0:0|0:0,0:0:0:0:
122,146,168230,1,8,0:0:0:0:
122,146,168415,1,0,0:0:0:0:
190,209,168601,2,0,L|186:290,1,77.0000023498536,2|2,0:0|0:0,0:0:0:0:
180,378,168971,1,8,0:0:0:0:
262,336,169156,1,0,0:0:0:0:
107,321,169341,6,0,P|99:286|111:238,1,77.0000023498536,2|0,0:0|0:0,0:0:0:0:
184,194,169712,2,0,P|157:218|110:232,1,77.0000023498536,8|0,0:0|0:0,0:0:0:0:
50,170,170082,1,2,0:0:0:0:
58,78,170267,1,2,0:0:0:0:
140,119,170453,1,8,0:0:0:0:
148,27,170638,1,0,3:0:0:0:
260,64,170823,6,0,B|213:75|213:75|338:81,1,154.000004699707,4|8,0:0|0:0,0:0:0:0:
388,20,171378,1,0,0:0:0:0:
388,20,171564,2,0,P|408:54|411:94,2,77.0000023498536,2|2|8,0:0|0:0|0:0,0:0:0:0:
319,81,172119,1,2,0:0:0:0:
373,168,172304,6,0,L|217:192,1,154.000004699707,4|8,0:0|0:0,0:0:0:0:
134,277,172860,2,0,L|290:301,1,154.000004699707,4|2,0:0|0:0,0:0:0:0:
348,368,173415,1,8,0:0:0:0:
291,204,173601,2,0,P|231:222|192:316,1,154.000004699707,4|2,0:0|0:0,0:0:0:0:
146,380,174156,2,0,L|57:370,1,77.0000023498536,8|2,0:0|0:0,0:0:0:0:
0,293,174527,2,0,L|89:283,1,77.0000023498536,0|2,0:0|0:0,0:0:0:0:
137,215,174897,1,8,0:0:0:0:
52,23,175267,6,0,L|60:103,2,77.0000023498536,4|2|8,0:0|0:0|0:0,0:0:0:0:
0,145,175823,2,0,L|163:133,1,154.000004699707,4|0,0:0|0:0,0:0:0:0:
245,124,176378,1,8,0:0:0:0:
245,124,176564,1,0,0:0:0:0:
364,52,176749,6,0,P|336:104|380:200,1,167.999994873047,4|8,0:0|0:0,0:0:0:0:
458,255,177304,1,2,0:0:0:0:
391,331,177490,2,0,L|297:320,1,83.9999974365235,8|2,0:0|0:0,0:0:0:0:
208,304,177860,1,8,0:0:0:0:
274,227,178045,1,2,0:0:0:0:
206,140,178230,6,0,L|112:151,1,83.9999974365235,8|0,0:0|0:0,0:0:0:0:
67,239,178601,1,8,0:0:0:0:
160,277,178786,1,2,0:0:0:0:
89,348,178971,2,0,P|67:313|64:266,1,83.9999974365235,8|2,0:0|0:0,0:0:0:0:
109,172,179341,1,8,0:0:0:0:
34,81,179527,1,0,3:0:0:0:
34,81,179619,1,0,3:0:0:0:
34,81,179712,6,0,L|121:75,1,83.9999974365235,4|0,0:0|0:0,0:0:0:0:
191,6,180082,1,8,0:0:0:0:
191,6,180267,1,2,0:0:0:0:
267,72,180453,2,0,L|273:159,1,83.9999974365235,8|2,0:0|0:0,0:0:0:0:
279,256,180823,1,8,0:0:0:0:
362,199,181008,1,2,0:0:0:0:
447,265,181193,6,0,P|466:226|466:177,1,83.9999974365235,4|2,0:0|0:0,0:0:0:0:
407,104,181564,2,0,L|316:109,1,83.9999974365235,8|2,0:0|0:0,0:0:0:0:
245,44,181934,1,8,0:0:0:0:
245,44,182119,1,0,0:0:0:0:
189,128,182304,1,8,0:0:0:0:
189,128,182490,1,2,0:0:0:0:
107,88,182675,6,0,L|248:108,1,125.999996154785,4|0,0:0|0:0,0:0:0:0:
294,168,183230,1,0,3:0:0:0:
294,168,183323,1,0,3:0:0:0:
294,168,183415,2,0,L|284:247,1,62.9999980773926,8|0,0:0|0:0,0:0:0:0:
275,305,183786,1,0,0:0:0:0:
332,353,183971,1,0,0:0:0:0:
408,263,184156,6,0,L|403:334,2,62.9999980773926,8|8|8,0:0|0:0|0:0,0:0:0:0:
414,182,184712,1,8,0:0:0:0:
312,70,185082,2,0,L|249:65,2,62.9999980773926,0|0|0,0:0|0:0|0:0,0:0:0:0:
256,192,185545,12,0,186749,0:0:0:0:
368,156,187119,6,0,L|360:296,1,140,4|8,0:0|0:0,0:0:0:0:
291,345,187675,2,0,L|256:348,2,35,0|0|2,0:0|0:0|0:0,0:0:0:0:
360,295,188045,1,2,0:0:0:0:
421,351,188230,2,0,P|457:359|497:350,1,70,8|0,0:0|0:0,0:0:0:0:
504,262,188601,6,0,L|486:118,1,140,2|8,0:0|0:0,0:0:0:0:
424,67,189156,1,0,0:0:0:0:
424,67,189249,1,0,0:0:0:0:
424,67,189341,2,0,L|342:71,1,70,2|2,0:0|0:0,0:0:0:0:
286,120,189712,2,0,L|204:116,1,70,8|0,0:0|0:0,0:0:0:0:
152,59,190082,6,0,P|180:92|182:194,1,140,4|8,0:0|0:0,0:0:0:0:
134,251,190638,2,0,L|87:250,2,35,0|0|2,0:0|0:0|0:0,0:0:0:0:
197,306,191008,1,2,0:0:0:0:
281,276,191193,2,0,L|273:373,1,70,8|0,0:0|0:0,0:0:0:0:
357,237,191564,6,0,P|301:194|227:210,1,140,2|8,0:0|0:0,0:0:0:0:
164,256,192119,2,0,L|152:204,2,35,0|0|2,0:0|0:0|0:0,0:0:0:0:
190,336,192490,1,2,0:0:0:0:
107,318,192675,1,8,0:0:0:0:
107,318,192860,1,0,0:0:0:0:
190,226,193045,6,0,B|202:184|202:184|197:135|197:135|207:86,1,140,4|8,0:0|0:0,0:0:0:0:
269,32,193601,1,0,0:0:0:0:
334,84,193786,2,0,L|409:81,1,70,2|2,0:0|0:0,0:0:0:0:
470,131,194156,1,8,0:0:0:0:
423,200,194341,1,0,0:0:0:0:
483,285,194527,6,0,P|430:255|348:269,1,140,4|8,0:0|0:0,0:0:0:0:
259,234,195082,2,0,P|259:294|312:358,1,140,4|2,0:0|0:0,0:0:0:0:
354,265,195638,1,8,0:0:0:0:
324,165,195823,6,0,L|168:185,1,140,4|2,0:0|0:0,0:0:0:0:
110,137,196378,2,0,P|94:100|93:63,1,70,8|2,0:0|0:0,0:0:0:0:
196,96,196749,2,0,P|236:100|268:118,1,70,2|2,0:0|0:0,0:0:0:0:
185,182,197119,2,0,P|160:214|129:233,1,70,8|0,0:0|0:0,0:0:0:0:
56,332,197490,6,0,L|51:259,2,70,6|2|8,0:0|0:0|0:0,0:0:0:0:
90,155,198045,2,0,L|77:309,1,140,4|2,0:0|0:0,0:0:0:0:
142,349,198601,1,8,0:0:0:0:
142,349,198786,1,8,0:0:0:0:
191,256,198971,6,0,P|219:280|236:380,1,140,4|8,0:0|0:0,0:0:0:0:
329,339,199527,1,0,0:0:0:0:
329,339,199619,1,0,0:0:0:0:
329,339,199712,2,0,L|431:338,1,70,2|2,0:0|0:0,0:0:0:0:
471,255,200082,2,0,L|369:254,1,70,8|0,0:0|0:0,0:0:0:0:
334,186,200453,6,0,B|325:114|325:114|346:39,1,140,2|8,0:0|0:0,0:0:0:0:
438,112,201008,1,0,0:0:0:0:
438,112,201101,1,0,0:0:0:0:
438,112,201193,2,0,L|427:197,1,70,2|2,0:0|0:0,0:0:0:0:
469,285,201564,2,0,L|384:274,1,70,8|0,0:0|0:0,0:0:0:0:
327,205,201934,6,0,L|166:225,1,140,4|8,0:0|0:0,0:0:0:0:
109,248,202490,1,0,0:0:0:0:
109,248,202582,1,0,0:0:0:0:
109,248,202675,2,0,P|128:279|127:315,1,70,2|2,0:0|0:0,0:0:0:0:
76,372,203045,2,0,P|93:340|125:322,1,70,8|0,0:0|0:0,0:0:0:0:
267,290,203415,6,0,L|190:280,1,70,2|2,0:0|0:0,0:0:0:0:
92,217,203786,2,0,L|161:207,1,70,8|0,0:0|0:0,0:0:0:0:
223,151,204156,1,8,0:0:0:0:
164,12,204527,1,8,0:0:0:0:
164,12,204712,1,0,0:0:0:0:
244,42,204897,6,0,P|293:57|391:21,1,146.999995513916,4|8,0:0|0:0,0:0:0:0:
445,80,205638,1,2,0:0:0:0:
445,80,205823,2,0,L|442:192,1,97.9999970092774,2|8,0:0|0:0,0:0:0:0:
382,232,206378,2,0,L|325:222,2,48.9999985046387,2|8|8,0:0|0:0|0:0,0:0:0:0:
435,292,206934,1,8,0:0:0:0:
256,360,207490,6,0,L|256:295,1,48.9999985046387,2|4,0:0|0:0,0:0:0:0:
