osu file format v14

[General]
AudioFilename: audio.mp3
AudioLeadIn: 0
PreviewTime: 74527
Countdown: 0
SampleSet: Soft
StackLeniency: 0.7
Mode: 0
LetterboxInBreaks: 0
WidescreenStoryboard: 0

[Editor]
DistanceSpacing: 1.5
BeatDivisor: 4
GridSize: 4
TimelineZoom: 1

[Metadata]
Title:SPiCa
TitleUnicode:SPiCa
Artist:Narae
ArtistUnicode:나래
Creator:timemon
Version:Insane
Source:
Tags:とくP TokuP Headphone Tokyo 初音ミク c76 へっどほんトーキョー kentax Hatsune Miku
BeatmapID:1406645
BeatmapSetID:664636

[Difficulty]
HPDrainRate:6
CircleSize:4
OverallDifficulty:8
ApproachRate:9
SliderMultiplier:1.62
SliderTickRate:1

[Events]
//Background and Video events
0,0,"63093148_p0.jpg",0,0
//Break Periods
2,144161,155408
//Storyboard Layer 0 (Background)
//Storyboard Layer 1 (Fail)
//Storyboard Layer 2 (Pass)
//Storyboard Layer 3 (Foreground)
//Storyboard Sound Samples

[TimingPoints]
3416,370.37037037037,4,2,2,35,1,0
3416,-166.666666666667,4,2,2,35,0,0
26564,-200,4,2,1,35,0,0
27119,-125,4,2,1,50,0,0
38971,-100,4,2,1,60,0,0
62675,-125,4,2,1,60,0,0
71564,-200,4,2,1,50,0,0
74527,-83.3333333333333,4,2,1,70,0,1
74804,-83.3333333333333,4,2,1,5,0,1
74897,-83.3333333333333,4,2,1,70,0,1
86008,-83.3333333333333,4,2,1,70,0,0
86378,-83.3333333333333,4,2,1,70,0,1
86656,-83.3333333333333,4,2,1,5,0,1
86749,-83.3333333333333,4,2,1,70,0,1
92304,-125,4,2,1,60,0,0
95267,-125,4,2,1,60,0,0
107119,-100,4,2,1,60,0,0
118971,-100,4,2,1,60,0,0
131934,-125,4,2,1,60,0,0
141193,-200,4,2,1,50,0,0
156008,-125,4,2,1,50,0,0
163415,-125,4,2,1,60,0,0
164897,-83.3333333333333,4,2,1,70,0,1
165175,-83.3333333333333,4,2,1,5,0,1
165267,-83.3333333333333,4,2,1,70,0,1
176378,-83.3333333333333,4,2,1,70,0,0
176749,-76.9230769230769,4,2,1,70,0,1
182675,-125,4,2,1,60,0,0
187119,-100,4,2,1,60,0,0
204897,-166.666666666667,4,2,1,60,0,0

[Colours]
Combo1 : 128,128,255
Combo2 : 255,149,202
Combo3 : 86,191,254
Combo4 : 255,128,128

[HitObjects]
257,95,3416,5,2,0:0:0:0:
265,102,3971,1,0,0:0:0:0:
265,102,4156,2,0,P|311:113|359:103,1,97.1999970336915,2|0,0:0|0:0,0:0:0:0:
424,144,4712,2,0,L|416:244,1,97.1999970336915
351,361,5453,2,0,L|343:264,2,97.1999970336915
269,329,6378,6,0,L|152:345,1,97.1999970336915,2|0,0:0|0:0,0:0:0:0:
107,299,6934,1,0,0:0:0:0:
145,231,7119,2,0,P|156:193|142:128,1,97.1999970336915,2|0,0:0|0:0,0:0:0:0:
43,67,7675,2,0,P|64:87|100:101,1,48.5999985168458,0|2,0:0|0:0,0:0:0:0:
242,123,8045,2,0,L|132:138,2,97.1999970336915
58,310,9341,6,0,B|71:261|71:261|66:203,1,97.1999970336915,2|0,0:0|0:0,0:0:0:0:
8,162,9897,1,0,0:0:0:0:
60,104,10082,2,0,P|106:94|157:116,2,97.1999970336915,2|0|2,0:0|0:0|0:0,0:0:0:0:
240,31,11564,1,2,0:0:0:0:
240,31,11934,2,0,L|227:98,1,48.5999985168458
309,116,12304,6,0,B|300:162|300:162|316:231,1,97.1999970336915,2|0,0:0|0:0,0:0:0:0:
372,259,12860,1,0,0:0:0:0:
319,316,13045,2,0,P|356:291|419:287,2,97.1999970336915,2|0|2,0:0|0:0|0:0,0:0:0:0:
319,316,14897,2,0,L|264:310,1,48.5999985168458
226,245,15267,6,0,L|110:255,1,97.1999970336915,2|0,0:0|0:0,0:0:0:0:
68,204,15823,1,0,0:0:0:0:
68,204,16008,2,0,P|50:165|66:101,1,97.1999970336915
114,58,16564,2,0,P|161:67|205:48,1,97.1999970336915,2|0,0:0|0:0,0:0:0:0:
372,44,17304,2,0,L|270:24,2,97.1999970336915
451,81,18230,6,0,P|468:104|459:185,1,97.1999970336915,2|0,0:0|0:0,0:0:0:0:
488,247,18786,1,0,0:0:0:0:
488,247,18971,2,0,P|459:250|393:201,1,97.1999970336915,2|0,0:0|0:0,0:0:0:0:
481,123,19527,2,0,L|466:174,1,48.5999985168458,0|2,0:0|0:0,0:0:0:0:
437,55,19897,2,0,L|331:34,2,97.1999970336915
169,86,21193,6,0,P|209:74|273:94,1,97.1999970336915,2|0,0:0|0:0,0:0:0:0:
314,144,21749,1,0,0:0:0:0:
314,144,21934,2,0,L|305:246,2,97.1999970336915,2|0|2,0:0|0:0|0:0,0:0:0:0:
314,144,23415,1,2,0:0:0:0:
167,22,23786,2,0,L|173:78,1,48.5999985168458
237,111,24156,6,0,P|254:141|249:222,1,97.1999970336915,2|0,0:0|0:0,0:0:0:0:
186,265,24712,1,0,0:0:0:0:
186,265,24897,2,0,P|203:235|276:199,1,97.1999970336915,2|0,0:0|0:0,0:0:0:0:
268,283,25453,1,0,0:0:0:0:
211,344,25638,1,2,0:0:0:0:
380,356,25823,2,0,L|274:366,1,97.1999970336915
179,271,26378,1,0,0:0:0:0:
251,205,26564,6,0,P|277:245|284:293,1,81
75,344,27119,6,0,B|124:341|124:341|166:357|166:357|230:355,1,129.6,4|0,0:0|0:0,0:0:0:0:
284,277,27675,1,0,0:0:0:0:
217,164,27860,2,0,P|172:209|191:287,1,129.6
225,359,28415,1,0,0:0:0:0:
299,236,28601,2,0,L|293:312,1,64.8,4|0,0:0|0:0,0:0:0:0:
376,292,28971,2,0,L|370:368,1,64.8
507,289,29341,2,0,L|513:213,1,64.8
436,159,29712,1,0,0:0:0:0:
436,159,29897,1,2,0:0:0:0:
419,362,30082,6,0,L|429:232,2,129.6,4|0|0,0:0|0:0|0:0,0:0:0:0:
316,168,31193,1,0,0:0:0:0:
316,168,31564,5,4,0:0:0:0:
253,102,31749,2,0,P|192:87|124:122,1,129.6,8|0,0:0|0:0,0:0:0:0:
58,171,32304,1,0,0:0:0:0:
144,212,32490,1,2,0:0:0:0:
88,326,32675,2,0,P|72:295|67:254,1,64.8,8|0,0:0|0:0,0:0:0:0:
264,301,33045,6,0,P|201:322|160:379,1,129.6,4|0,0:0|0:0,0:0:0:0:
262,207,33786,2,0,P|325:228|366:285,1,129.6
398,352,34341,1,0,3:0:0:0:
398,352,34434,1,0,3:0:0:0:
398,352,34527,6,0,L|399:205,1,129.6,4|0,0:0|0:0,0:0:0:0:
269,52,35267,2,0,L|269:181,1,129.6,2|0,0:0|0:0,0:0:0:0:
201,237,35823,1,0,0:0:0:0:
201,237,35915,1,0,0:0:0:0:
201,237,36008,2,0,P|241:265|319:254,1,129.6,4|0,0:0|0:0,0:0:0:0:
357,147,36564,2,0,L|360:206,2,32.4,0|0|0,3:0|3:0|3:0,3:0:0:0:
289,90,36934,1,0,0:0:0:0:
449,31,37119,2,0,L|398:29,3,32.4,0|0|0|0,3:0|3:0|3:0|3:0,3:0:0:0:
396,45,37490,6,0,B|391:80|391:80|401:124|401:124|395:174,1,129.6,4|8,0:0|0:0,0:0:0:0:
208,210,38045,1,0,0:0:0:0:
208,210,38230,2,0,B|278:203|278:203|351:239,1,129.6,2|2,0:0|0:0,0:0:0:0:
74,362,38971,6,0,P|46:285|101:208,1,162,2|2,0:0|0:0,0:0:0:0:
137,162,39527,1,0,0:0:0:0:
266,99,39712,2,0,P|213:161|119:152,1,162,2|2,0:0|0:0,0:0:0:0:
60,31,40267,2,0,P|54:68|62:118,1,81,0|2,0:0|0:0,0:0:0:0:
209,207,40638,2,0,P|215:170|207:120,1,81,0|2,0:0|0:0,0:0:0:0:
165,25,41008,2,0,L|257:13,1,81,0|2,0:0|0:0,0:0:0:0:
410,89,41378,2,0,L|318:77,2,81,2|2|2,0:0|0:0|0:0,0:0:0:0:
451,18,41934,6,0,B|442:69|442:69|453:116|453:116|446:180,1,162,2|2,0:0|0:0,0:0:0:0:
433,300,42490,1,0,0:0:0:0:
347,231,42675,2,0,P|394:283|418:393,1,162,2|2,0:0|0:0,0:0:0:0:
231,351,43230,2,0,P|273:346|315:325,1,81,0|2,0:0|0:0,0:0:0:0:
89,274,43601,2,0,P|125:290|165:295,1,81,0|2,0:0|0:0,0:0:0:0:
264,173,43971,2,0,P|247:211|244:258,1,81,0|2,0:0|0:0,0:0:0:0:
401,88,44341,2,0,P|368:111|344:144,2,81,2|2|2,0:0|0:0|0:0,0:0:0:0:
170,37,44897,6,0,L|346:31,1,162,2|2,0:0|0:0,0:0:0:0:
464,28,45453,1,0,0:0:0:0:
446,172,45638,2,0,B|401:198|401:198|400:73,1,162,2|2,0:0|0:0,0:0:0:0:
252,35,46193,2,0,L|339:31,1,81,0|2,0:0|0:0,0:0:0:0:
446,172,46564,2,0,L|359:168,1,81,0|2,0:0|0:0,0:0:0:0:
181,6,46934,2,0,P|173:44|194:98,2,81,0|2|0,0:0|0:0|0:0,0:0:0:0:
273,45,47490,1,2,0:0:0:0:
248,164,47675,1,2,0:0:0:0:
356,145,47860,6,0,B|247:163|247:163|304:178,1,162,2|2,0:0|0:0,0:0:0:0:
421,199,48415,1,0,0:0:0:0:
398,342,48601,2,0,P|440:271|395:174,1,162,2|2,0:0|0:0,0:0:0:0:
276,277,49156,2,0,P|319:263|356:260,1,81,0|2,0:0|0:0,0:0:0:0:
238,361,49527,2,0,P|204:330|183:300,1,81,0|2,0:0|0:0,0:0:0:0:
147,207,49897,1,0,0:0:0:0:
290,92,50082,1,2,0:0:0:0:
228,189,50267,1,8,0:0:0:0:
258,16,50453,1,8,0:0:0:0:
134,93,50638,1,0,3:0:0:0:
134,93,50730,1,0,3:0:0:0:
134,93,50823,6,0,B|216:52|220:128|312:84,1,162,4|2,0:0|0:0,0:0:0:0:
397,188,51378,1,0,0:0:0:0:
278,333,51564,2,0,P|253:255|302:172,1,162,2|2,0:0|0:0,0:0:0:0:
391,70,52119,2,0,P|369:103|308:133,1,81,0|2,0:0|0:0,0:0:0:0:
150,112,52490,2,0,P|189:114|246:152,1,81,0|2,0:0|0:0,0:0:0:0:
306,261,52860,2,0,P|288:225|292:157,1,81,0|2,0:0|0:0,0:0:0:0:
434,295,53230,1,2,0:0:0:0:
367,203,53415,1,10,0:0:0:0:
476,167,53601,1,2,0:0:0:0:
372,380,53786,6,0,P|301:365|211:373,1,162,2|2,0:0|0:0,0:0:0:0:
116,297,54341,1,0,0:0:0:0:
205,224,54527,2,0,B|239:196|239:196|231:73,1,162,2|2,0:0|0:0,0:0:0:0:
99,30,55082,2,0,L|106:127,1,81,0|2,0:0|0:0,0:0:0:0:
145,121,55360,1,0,0:0:0:0:
145,121,55453,2,0,L|138:218,1,81,0|2,0:0|0:0,0:0:0:0:
18,270,55823,2,0,B|102:238|110:314|198:262,1,162,2|0,0:0|0:0,0:0:0:0:
267,235,56378,1,10,0:0:0:0:
222,371,56564,1,0,3:0:0:0:
222,371,56656,1,0,3:0:0:0:
222,371,56749,6,0,L|391:358,1,162,4|2,0:0|0:0,0:0:0:0:
464,288,57304,1,0,0:0:0:0:
387,208,57490,2,0,B|432:188|432:188|421:319,1,162,2|2,0:0|0:0,0:0:0:0:
360,177,58045,1,0,0:0:0:0:
459,114,58230,2,0,P|491:135|511:187,1,81,2|0,0:0|0:0,0:0:0:0:
378,94,58601,2,0,P|395:57|428:35,1,81,2|0,0:0|0:0,0:0:0:0:
401,171,58971,2,0,P|361:173|325:156,1,81,2|0,0:0|0:0,0:0:0:0:
216,54,59341,1,8,0:0:0:0:
379,10,59527,1,0,0:0:0:0:
206,197,59712,6,0,P|179:137|224:47,1,162,2|2,0:0|0:0,0:0:0:0:
322,130,60267,1,0,0:0:0:0:
206,197,60453,2,0,P|271:203|326:287,1,162,2|2,0:0|0:0,0:0:0:0:
324,378,61008,1,0,0:0:0:0:
230,293,61193,1,2,0:0:0:0:
480,270,61378,2,0,B|408:313|392:233|316:282,1,162,2|0,0:0|0:0,0:0:0:0:
264,204,61934,1,8,0:0:0:0:
324,378,62119,1,8,0:0:0:0:
93,141,62675,6,0,L|229:133,1,129.6,4|0,0:0|0:0,0:0:0:0:
276,66,63230,1,0,0:0:0:0:
276,66,63415,2,0,B|318:85|318:85|408:67,1,129.6,8|0,0:0|0:0,0:0:0:0:
485,36,63971,1,0,0:0:0:0:
410,169,64156,2,0,P|369:165|336:143,1,64.8,2|8,0:0|0:0,0:0:0:0:
222,118,64527,2,0,P|263:114|296:92,1,64.8,0|2,0:0|0:0,0:0:0:0:
390,32,64897,2,0,P|397:64|395:100,1,64.8,8|0,0:0|0:0,0:0:0:0:
237,37,65267,1,0,0:0:0:0:
450,154,65638,6,0,P|411:172|331:142,1,129.6,4|0,0:0|0:0,0:0:0:0:
268,80,66193,1,0,0:0:0:0:
200,193,66378,2,0,P|203:150|269:95,1,129.6,8|0,0:0|0:0,0:0:0:0:
247,256,66934,2,0,P|219:270|187:271,1,64.8,2|2,0:0|0:0,0:0:0:0:
106,161,67304,2,0,L|118:242,1,64.8,8|0,0:0|0:0,0:0:0:0:
200,193,67675,1,2,0:0:0:0:
188,88,67860,2,0,L|108:87,1,64.8,8|0,0:0|0:0,0:0:0:0:
12,11,68230,2,0,L|92:10,1,64.8
216,60,68601,6,0,B|226:95|226:95|220:135|220:135|231:193,2,129.6,4|0|8,0:0|0:0|0:0,0:0:0:0:
165,249,69712,1,0,0:0:0:0:
165,249,70082,2,0,P|224:224|292:242,1,129.6,2|0,0:0|0:0,0:0:0:0:
438,129,70823,2,0,L|361:147,1,64.8,8|0,0:0|0:0,0:0:0:0:
512,61,71193,2,0,L|448:46,1,64.8
205,46,71564,6,0,P|282:29|356:60,2,162,4|0|0,0:0|0:0|0:0,0:0:0:0:
88,267,74527,6,0,P|160:287|227:255,1,145.799995550537,4|0,0:0|0:0,0:0:0:0:
244,240,74897,1,8,0:0:0:0:
129,129,75082,1,0,0:0:0:0:
296,37,75267,2,0,P|310:80|291:134,1,97.1999970336915,2|2,0:0|0:0,0:0:0:0:
222,259,75638,1,8,0:0:0:0:
196,84,75823,1,0,0:0:0:0:
400,168,76008,5,2,0:0:0:0:
129,129,76193,1,0,0:0:0:0:
363,93,76378,1,8,0:0:0:0:
154,203,76564,1,0,0:0:0:0:
286,51,76749,2,0,P|276:99|296:149,1,97.1999970336915,2|2,0:0|0:0,0:0:0:0:
371,240,77119,1,8,0:0:0:0:
202,328,77304,1,0,0:0:0:0:
202,328,77397,1,0,0:0:0:0:
202,328,77490,6,0,P|165:295|112:287,1,97.1999970336915,2|0,0:0|0:0,0:0:0:0:
2,251,77860,1,8,0:0:0:0:
174,143,78045,1,0,0:0:0:0:
121,383,78230,2,0,L|119:277,1,97.1999970336915,2|2,0:0|0:0,0:0:0:0:
121,72,78601,1,8,0:0:0:0:
225,215,78786,1,0,0:0:0:0:
303,37,78971,5,2,0:0:0:0:
174,143,79156,1,0,0:0:0:0:
315,298,79341,2,0,P|332:251|326:192,1,97.1999970336915,8|0,0:0|0:0,0:0:0:0:
282,27,79712,1,2,0:0:0:0:
329,204,79897,1,2,0:0:0:0:
329,204,79990,1,0,0:0:0:0:
329,204,80082,1,8,0:0:0:0:
441,66,80267,1,0,0:0:0:0:
387,287,80453,6,0,B|295:323|291:235|195:284,1,194.399994067383,4|8,0:0|0:0,0:0:0:0:
94,337,81008,1,0,0:0:0:0:
25,145,81193,2,0,L|14:247,1,97.1999970336915,2|2,0:0|0:0,0:0:0:0:
125,98,81564,1,8,0:0:0:0:
171,244,81749,1,0,0:0:0:0:
386,60,81934,5,4,0:0:0:0:
197,158,82119,1,0,0:0:0:0:
241,37,82304,1,8,0:0:0:0:
335,255,82490,1,4,0:0:0:0:
335,255,82860,5,2,0:0:0:0:
306,115,83045,1,8,0:0:0:0:
205,359,83230,1,4,0:0:0:0:
205,359,83601,1,2,0:0:0:0:
205,359,83786,6,0,L|302:355,1,97.1999970336915,8|2,0:0|0:0,0:0:0:0:
446,286,84156,2,0,L|348:282,1,97.1999970336915,2|2,0:0|0:0,0:0:0:0:
248,281,84527,1,8,0:0:0:0:
317,138,84712,1,0,0:0:0:0:
346,379,84897,5,4,0:0:0:0:
315,113,85082,1,0,0:0:0:0:
245,303,85267,1,8,0:0:0:0:
460,44,85453,2,0,B|360:88|346:-6|252:52,1,194.399994067383,4|0,0:0|0:0,0:0:0:0:
169,121,86008,1,8,0:0:0:0:
359,215,86193,1,8,0:0:0:0:
110,359,86378,6,0,L|104:214,1,145.799995550537,4|0,0:0|0:0,0:0:0:0:
103,187,86749,1,8,0:0:0:0:
276,249,86934,1,0,0:0:0:0:
190,48,87119,2,0,P|211:91|204:154,1,97.1999970336915,2|2,0:0|0:0,0:0:0:0:
168,265,87490,1,8,0:0:0:0:
352,193,87675,1,0,0:0:0:0:
223,335,87860,5,2,0:0:0:0:
295,119,88045,1,0,0:0:0:0:
411,267,88230,1,8,0:0:0:0:
198,185,88415,1,0,0:0:0:0:
460,193,88601,2,0,P|492:233|496:289,1,97.1999970336915,2|2,0:0|0:0,0:0:0:0:
392,127,88971,1,8,0:0:0:0:
264,344,89156,1,0,0:0:0:0:
264,344,89249,1,0,0:0:0:0:
264,344,89341,6,0,L|262:241,1,97.1999970336915,2|0,0:0|0:0,0:0:0:0:
260,122,89712,1,8,0:0:0:0:
142,222,89897,1,0,0:0:0:0:
404,224,90082,2,0,P|359:195|315:184,1,97.1999970336915,2|2,0:0|0:0,0:0:0:0:
142,222,90453,1,8,0:0:0:0:
236,330,90638,1,0,0:0:0:0:
260,122,90823,5,2,0:0:0:0:
137,316,91008,1,0,0:0:0:0:
49,122,91193,2,0,L|54:224,1,97.1999970336915,8|0,0:0|0:0,0:0:0:0:
137,316,91564,5,8,0:0:0:0:
178,127,91749,1,2,0:0:0:0:
246,313,91934,1,8,0:0:0:0:
176,106,92119,1,2,0:0:0:0:
246,313,92304,6,0,L|247:179,1,129.6,4|0,0:0|0:0,0:0:0:0:
301,127,92860,1,0,0:0:0:0:
244,68,93045,2,0,P|304:47|365:76,1,129.6,8|0,0:0|0:0,0:0:0:0:
413,133,93601,1,0,0:0:0:0:
322,373,93786,5,2,0:0:0:0:
475,215,93971,1,2,0:0:0:0:
296,223,94156,1,2,0:0:0:0:
481,304,94341,1,10,0:0:0:0:
481,304,94897,5,2,3:0:0:0:
396,76,95267,6,0,B|339:92|339:92|259:81,1,129.6,4|8,0:0|0:0,0:0:0:0:
206,36,95823,2,0,P|172:32|131:31,1,64.8,2|0,0:0|0:0,0:0:0:0:
29,92,96193,2,0,P|63:96|104:97,1,64.8,2|8,0:0|0:0,0:0:0:0:
259,159,96564,2,0,P|199:140|139:161,1,129.6,2|2,0:0|0:0,0:0:0:0:
106,233,97119,1,8,0:0:0:0:
42,121,97304,2,0,L|46:208,1,64.8,2|2,0:0|0:0,0:0:0:0:
53,297,97675,1,8,0:0:0:0:
138,161,97860,2,0,B|177:154|177:154|244:174,1,97.2,8|0,0:0|0:0,0:0:0:0:
250,187,98230,6,0,L|239:319,1,129.6,4|8,0:0|0:0,0:0:0:0:
311,371,98786,2,0,P|343:376|387:367,1,64.8,2|0,0:0|0:0,0:0:0:0:
423,302,99156,2,0,P|455:297|499:306,1,64.8,2|8,0:0|0:0,0:0:0:0:
360,235,99527,2,0,P|340:183|354:110,1,129.6,2|2,0:0|0:0,0:0:0:0:
396,44,100082,1,8,0:0:0:0:
249,17,100267,2,0,L|327:16,1,64.8,2|2,0:0|0:0,0:0:0:0:
464,99,100638,1,8,0:0:0:0:
340,192,100823,2,0,B|306:184|273:177|273:177|225:206,1,97.2,8|0,0:0|0:0,0:0:0:0:
233,222,101193,6,0,P|241:188|196:84,1,129.6,4|8,0:0|0:0,0:0:0:0:
126,32,101749,2,0,L|132:106,1,64.8,2|0,0:0|0:0,0:0:0:0:
52,102,102119,2,0,L|58:176,1,64.8,2|8,0:0|0:0,0:0:0:0:
218,237,102490,2,0,B|123:219|123:219|159:206,1,129.6,2|2,0:0|0:0,0:0:0:0:
266,173,103045,1,8,0:0:0:0:
149,109,103230,2,0,L|225:107,1,64.8,2|2,0:0|0:0,0:0:0:0:
301,27,103601,1,8,0:0:0:0:
186,2,103786,1,8,0:0:0:0:
35,143,104156,6,0,L|41:275,1,129.6,4|8,0:0|0:0,0:0:0:0:
47,362,104712,2,0,P|81:373|124:373,1,64.8,2|0,0:0|0:0,0:0:0:0:
216,255,105082,2,0,P|189:278|167:316,1,64.8,2|8,0:0|0:0,0:0:0:0:
117,150,105453,6,0,B|160:177|160:177|237:130,1,129.6,2|2,0:0|0:0,0:0:0:0:
289,89,106008,1,8,0:0:0:0:
370,217,106193,2,0,B|342:241|342:241|341:128,1,129.6,2|2,0:0|0:0,0:0:0:0:
355,33,106749,1,8,0:0:0:0:
141,85,106934,1,0,3:0:0:0:
141,85,107027,1,0,3:0:0:0:
141,85,107119,6,0,P|210:115|301:77,1,162,4|8,0:0|0:0,0:0:0:0:
355,33,107675,1,2,0:0:0:0:
413,97,107860,2,0,B|416:172|416:172|408:264,1,162,0|8,0:0|0:0,0:0:0:0:
263,319,108415,2,0,P|303:305|353:307,1,81,2|0,0:0|0:0,0:0:0:0:
176,335,108786,2,0,P|143:307|120:263,1,81,2|8,0:0|0:0,0:0:0:0:
256,191,109156,1,2,0:0:0:0:
202,255,109341,1,2,0:0:0:0:
185,62,109527,2,0,L|192:146,1,81,0|8,0:0|0:0,0:0:0:0:
259,33,109897,1,0,0:0:0:0:
103,15,110082,6,0,B|146:32|146:32|214:22|214:22|271:36,1,162,4|8,0:0|0:0,0:0:0:0:
354,52,110638,1,2,0:0:0:0:
295,263,110823,2,0,P|261:198|298:103,1,162,0|8,0:0|0:0,0:0:0:0:
391,269,111378,2,0,L|385:370,1,81,2|0,0:0|0:0,0:0:0:0:
474,184,111749,2,0,L|478:264,1,81,2|8,0:0|0:0,0:0:0:0:
401,93,112119,2,0,L|396:173,1,81,2|2,0:0|0:0,0:0:0:0:
341,32,112490,1,8,0:0:0:0:
480,65,112675,1,8,0:0:0:0:
396,173,112860,1,0,0:0:0:0:
248,151,113045,6,0,P|301:134|395:172,1,162,4|8,0:0|0:0,0:0:0:0:
304,293,113601,1,2,0:0:0:0:
195,370,113786,2,0,B|167:315|167:315|179:271|179:271|159:204,1,162,0|8,0:0|0:0,0:0:0:0:
120,97,114341,2,0,P|102:61|98:20,1,81,2|0,0:0|0:0,0:0:0:0:
205,132,114712,2,0,P|182:165|149:189,1,81,2|8,0:0|0:0,0:0:0:0:
236,41,115082,2,0,P|268:65|291:99,1,81,2|2,0:0|0:0,0:0:0:0:
119,118,115453,1,0,0:0:0:0:
119,118,115638,2,0,L|125:214,1,81,8|0,0:0|0:0,0:0:0:0:
282,247,116008,6,0,B|176:260|176:260|236:281,1,162,6|8,0:0|0:0,0:0:0:0:
328,319,116564,1,2,0:0:0:0:
366,101,116749,2,0,P|402:165|376:250,1,162,0|8,0:0|0:0,0:0:0:0:
256,372,117304,5,4,0:0:0:0:
255,362,118971,6,0,L|174:367,1,81,2|0,0:0|0:0,0:0:0:0:
100,303,119341,1,8,0:0:0:0:
162,164,119527,2,0,L|167:245,1,81,0|2,0:0|0:0,0:0:0:0:
174,366,119897,1,0,0:0:0:0:
12,288,120082,1,8,0:0:0:0:
80,227,120267,6,0,P|98:261|96:317,1,81,0|2,0:0|0:0,0:0:0:0:
11,178,120638,2,0,L|10:93,2,81,0|8|0,0:0|0:0|0:0,0:0:0:0:
80,227,121193,1,2,0:0:0:0:
170,114,121378,1,0,0:0:0:0:
10,97,121564,1,8,0:0:0:0:
88,215,121749,1,0,0:0:0:0:
176,99,121934,6,0,L|179:186,1,81,2|0,0:0|0:0,0:0:0:0:
182,273,122304,1,8,0:0:0:0:
262,135,122490,2,0,L|265:222,1,81,0|2,0:0|0:0,0:0:0:0:
386,319,122860,1,0,0:0:0:0:
386,319,123045,2,0,P|348:304|302:301,1,81,8|0,0:0|0:0,0:0:0:0:
153,359,123415,6,0,P|184:333|210:295,1,81,2|0,0:0|0:0,0:0:0:0:
252,228,123786,1,8,0:0:0:0:
63,189,123971,1,0,0:0:0:0:
181,133,124156,1,2,0:0:0:0:
134,284,124341,1,0,0:0:0:0:
181,133,124527,2,0,L|274:126,1,81,8|0,0:0|0:0,0:0:0:0:
395,63,124897,6,0,L|302:56,2,81,2|0|8,0:0|0:0|0:0,0:0:0:0:
455,200,125453,2,0,P|467:156|456:104,1,81,0|2,0:0|0:0,0:0:0:0:
379,153,125823,1,0,0:0:0:0:
384,318,126008,2,0,P|372:274|383:222,1,81,8|0,0:0|0:0,0:0:0:0:
308,372,126378,6,0,L|224:376,1,81,2|0,0:0|0:0,0:0:0:0:
156,320,126749,1,8,0:0:0:0:
294,207,126934,1,0,0:0:0:0:
250,302,127119,1,2,0:0:0:0:
219,147,127304,1,0,3:0:0:0:
219,147,127397,1,0,3:0:0:0:
219,147,127490,1,8,0:0:0:0:
372,270,127675,1,0,0:0:0:0:
139,355,127860,6,0,L|132:270,2,81,2|0|8,0:0|0:0|0:0,0:0:0:0:
219,147,128415,2,0,L|212:232,1,81,0|2,0:0|0:0,0:0:0:0:
140,76,128786,1,0,0:0:0:0:
227,61,128971,1,8,0:0:0:0:
314,46,129156,6,0,L|399:53,1,81,0|2,0:0|0:0,0:0:0:0:
462,120,129527,1,0,0:0:0:0:
462,120,129619,1,0,0:0:0:0:
462,120,129712,1,8,0:0:0:0:
347,261,129897,1,0,0:0:0:0:
473,210,130082,1,2,0:0:0:0:
331,168,130267,1,8,0:0:0:0:
364,365,130453,1,8,0:0:0:0:
106,50,132304,6,0,L|248:45,1,129.6,4|0,0:0|0:0,0:0:0:0:
289,102,132860,1,0,0:0:0:0:
236,158,133045,2,0,P|294:179|361:133,1,129.6
402,97,133601,1,0,0:0:0:0:
508,151,133786,6,0,L|439:162,1,64.8,4|8,0:0|0:0,0:0:0:0:
447,238,134156,2,0,L|378:249,1,64.8
322,335,134527,2,0,L|391:324,1,64.8
244,269,134897,2,0,L|313:258,1,64.8
323,176,135267,6,0,B|290:176|290:176|237:192|237:192|187:182,1,129.6,4|0,0:0|0:0,0:0:0:0:
36,117,136008,2,0,P|14:156|28:222,1,97.2
32,228,136378,2,0,L|110:219,1,64.8
191,289,136749,6,0,L|141:285,3,43.2,2|0|0|0,0:0|3:0|3:0|3:0,0:0:0:0:
342,353,137490,2,0,L|428:353,1,64.8,8|0,0:0|0:0,0:0:0:0:
512,276,137860,2,0,L|426:276,1,64.8
264,184,138230,6,0,B|349:137|369:237|465:185,1,194.4,4|2,0:0|0:0,0:0:0:0:
496,128,138971,1,8,0:0:0:0:
376,24,139341,2,0,L|284:28,1,64.8,0|0,0:0|3:0,0:0:0:0:
283,47,139619,1,0,3:0:0:0:
283,47,139712,2,0,L|287:139,2,64.8,2|8|0,0:0|0:0|0:0,0:0:0:0:
90,26,140453,1,8,0:0:0:0:
90,26,140823,1,0,3:0:0:0:
52,110,141008,1,0,3:0:0:0:
238,218,141193,6,0,P|162:191|83:205,2,162,4|0|0,0:0|0:0|0:0,0:0:0:0:
86,93,156008,6,0,L|84:163,1,64.8,2|0,0:0|0:0,0:0:0:0:
155,188,156378,2,0,L|153:258,1,64.8,2|0,0:0|0:0,0:0:0:0:
63,285,156749,2,0,P|98:274|145:283,1,64.8,2|0,0:0|0:0,0:0:0:0:
208,316,157119,1,2,0:0:0:0:
141,372,157304,1,0,0:0:0:0:
274,252,157490,6,0,P|289:212|290:173,2,64.8,2|0|2,0:0|0:0|0:0,0:0:0:0:
208,192,158045,1,0,0:0:0:0:
311,96,158230,2,0,P|268:103|234:121,1,64.8,2|0,0:0|0:0,0:0:0:0:
128,161,158601,1,2,0:0:0:0:
182,273,158786,1,0,0:0:0:0:
311,165,158971,6,0,L|307:240,2,64.8,2|0|2,0:0|0:0|0:0,0:0:0:0:
249,97,159527,1,0,0:0:0:0:
379,54,159712,2,0,P|340:41|294:38,1,64.8,2|0,0:0|0:0,0:0:0:0:
181,41,160082,1,2,0:0:0:0:
311,165,160267,1,0,0:0:0:0:
138,198,160453,5,2,0:0:0:0:
249,97,160638,1,0,0:0:0:0:
212,308,160823,1,2,0:0:0:0:
212,308,161193,2,0,L|286:303,1,64.8,2|0,0:0|0:0,0:0:0:0:
326,363,161564,2,0,L|400:368,1,64.8,2|0,0:0|0:0,0:0:0:0:
464,306,161934,6,0,P|478:270|451:173,1,129.6,2|2,0:0|0:0,0:0:0:0:
400,120,162490,1,0,0:0:0:0:
506,33,162675,2,0,L|440:40,1,64.8,2|0,0:0|0:0,0:0:0:0:
328,52,163045,1,2,0:0:0:0:
460,184,163230,1,0,0:0:0:0:
305,276,163415,5,8,0:0:0:0:
419,80,163601,1,8,0:0:0:0:
467,296,163786,1,8,0:0:0:0:
294,137,163971,1,8,0:0:0:0:
200,348,164156,5,8,0:0:0:0:
171,332,164249,1,8,0:0:0:0:
140,326,164341,1,8,0:0:0:0:
108,330,164434,1,8,0:0:0:0:
79,345,164527,5,0,3:0:0:0:
77,321,164619,1,0,3:0:0:0:
75,296,164712,1,0,3:0:0:0:
73,272,164804,1,0,3:0:0:0:
72,244,164897,6,0,B|132:240|132:240|176:256|176:256|248:248,1,145.799995550537,4|0,0:0|0:0,0:0:0:0:
240,249,165267,1,8,0:0:0:0:
147,114,165453,1,0,0:0:0:0:
283,16,165638,2,0,P|304:60|292:109,1,97.1999970336915,2|2,0:0|0:0,0:0:0:0:
240,249,166008,1,8,0:0:0:0:
405,194,166193,1,0,0:0:0:0:
364,357,166378,5,2,0:0:0:0:
307,176,166564,1,0,0:0:0:0:
453,283,166749,1,8,0:0:0:0:
262,341,166934,1,0,0:0:0:0:
397,118,167119,2,0,P|418:161|410:212,1,97.1999970336915,2|2,0:0|0:0,0:0:0:0:
308,40,167490,1,8,0:0:0:0:
198,272,167675,1,0,0:0:0:0:
198,272,167767,1,0,0:0:0:0:
198,272,167860,6,0,L|193:169,1,97.1999970336915,2|0,0:0|0:0,0:0:0:0:
199,22,168230,1,8,0:0:0:0:
55,194,168415,1,0,0:0:0:0:
256,129,168601,2,0,P|214:102|163:102,1,97.1999970336915,2|2,0:0|0:0,0:0:0:0:
198,272,168971,1,8,0:0:0:0:
339,188,169156,1,0,0:0:0:0:
167,82,169341,5,2,0:0:0:0:
333,13,169527,1,0,0:0:0:0:
179,249,169712,2,0,P|195:194|181:139,1,97.1999970336915,8|0,0:0|0:0,0:0:0:0:
139,11,170082,1,2,0:0:0:0:
268,202,170267,1,2,0:0:0:0:
329,41,170453,1,8,0:0:0:0:
100,108,170638,1,0,3:0:0:0:
100,108,170730,1,0,3:0:0:0:
100,108,170823,6,0,B|192:72|196:160|292:111,1,194.399994067383,4|8,0:0|0:0,0:0:0:0:
418,47,171378,1,0,0:0:0:0:
487,239,171564,2,0,L|498:137,1,97.1999970336915,2|2,0:0|0:0,0:0:0:0:
387,286,171934,1,8,0:0:0:0:
341,140,172119,1,2,0:0:0:0:
126,324,172304,5,4,0:0:0:0:
315,226,172490,1,0,0:0:0:0:
271,347,172675,1,8,0:0:0:0:
177,129,172860,1,4,0:0:0:0:
177,129,173230,5,2,0:0:0:0:
206,269,173415,1,8,0:0:0:0:
307,25,173601,1,4,0:0:0:0:
307,25,173971,1,2,0:0:0:0:
307,25,174156,6,0,L|209:28,1,97.1999970336915,8|2,0:0|0:0,0:0:0:0:
66,98,174527,2,0,L|166:102,1,97.1999970336915
264,103,174897,1,8,0:0:0:0:
195,246,175082,1,0,0:0:0:0:
166,5,175267,5,4,0:0:0:0:
197,271,175453,1,2,0:0:0:0:
267,81,175638,1,8,0:0:0:0:
52,340,175823,2,0,B|152:296|166:390|260:332,1,194.399994067383,4|0,0:0|0:0,0:0:0:0:
358,225,176378,1,8,0:0:0:0:
159,152,176564,1,0,0:0:0:0:
434,172,176749,6,0,P|449:227|426:287,1,105.299995179749,4|0,0:0|0:0,0:0:0:0:
355,359,177119,1,8,0:0:0:0:
309,124,177304,1,2,0:0:0:0:
156,252,177490,2,0,P|171:197|148:137,1,105.299995179749,8|2,0:0|0:0,0:0:0:0:
67,38,177860,1,8,0:0:0:0:
309,124,178045,1,2,0:0:0:0:
72,198,178230,5,8,0:0:0:0:
192,19,178415,1,0,0:0:0:0:
267,245,178601,1,8,0:0:0:0:
181,131,178786,1,2,0:0:0:0:
159,349,178971,2,0,L|170:231,1,105.299995179749,8|2,0:0|0:0,0:0:0:0:
192,19,179341,1,8,0:0:0:0:
349,139,179527,1,0,3:0:0:0:
349,139,179619,1,0,3:0:0:0:
349,139,179712,6,0,P|371:182|370:240,1,105.299995179749,4|0,0:0|0:0,0:0:0:0:
314,364,180082,1,8,0:0:0:0:
240,207,180267,1,2,0:0:0:0:
503,287,180453,2,0,P|450:285|404:308,1,105.299995179749,8|2,0:0|0:0,0:0:0:0:
240,207,180823,1,8,0:0:0:0:
367,94,181008,1,2,0:0:0:0:
303,284,181193,5,4,0:0:0:0:
276,115,181378,1,2,0:0:0:0:
512,157,181564,2,0,P|462:174|403:164,1,105.299995179749,8|2,0:0|0:0,0:0:0:0:
202,70,181934,1,8,0:0:0:0:
401,21,182119,1,0,0:0:0:0:
317,213,182304,1,8,0:0:0:0:
270,12,182490,1,2,0:0:0:0:
156,247,182675,6,0,P|129:192|147:123,1,129.6,4|0,0:0|0:0,0:0:0:0:
206,63,183230,1,0,3:0:0:0:
206,63,183323,1,0,3:0:0:0:
206,63,183415,2,0,L|343:81,1,129.6,8|0,0:0|0:0,0:0:0:0:
387,141,183971,1,0,0:0:0:0:
465,54,184156,5,8,0:0:0:0:
490,219,184341,1,8,0:0:0:0:
352,36,184527,1,8,0:0:0:0:
340,295,184712,1,8,0:0:0:0:
106,117,185082,5,0,0:0:0:0:
108,136,185267,1,0,0:0:0:0:
110,155,185453,1,0,0:0:0:0:
256,192,185545,12,0,186749,0:0:0:0:
381,249,187119,6,0,B|419:212|419:212|418:100,1,162,4|8,0:0|0:0,0:0:0:0:
348,51,187675,1,0,0:0:0:0:
348,51,187767,1,0,0:0:0:0:
348,51,187860,1,2,0:0:0:0:
288,128,188045,1,2,0:0:0:0:
471,173,188230,2,0,P|430:189|379:182,1,81,8|0,0:0|0:0,0:0:0:0:
198,285,188601,6,0,B|278:295|278:295|365:280,1,162,2|8,0:0|0:0,0:0:0:0:
470,208,189156,2,0,L|467:253,2,40.5,0|0|2,0:0|0:0|0:0,0:0:0:0:
458,335,189527,1,2,0:0:0:0:
404,151,189712,2,0,P|436:127|482:120,1,81,8|0,0:0|0:0,0:0:0:0:
188,57,190082,6,0,L|349:45,1,162,4|8,0:0|0:0,0:0:0:0:
403,152,190638,1,0,0:0:0:0:
403,152,190730,1,0,0:0:0:0:
403,152,190823,2,0,L|308:159,1,81,2|2,0:0|0:0,0:0:0:0:
226,198,191193,1,8,0:0:0:0:
314,278,191378,1,0,0:0:0:0:
227,360,191564,6,0,L|226:197,1,162,2|8,0:0|0:0,0:0:0:0:
226,85,192119,1,0,0:0:0:0:
226,85,192212,1,0,0:0:0:0:
226,85,192304,1,2,0:0:0:0:
121,159,192490,1,2,0:0:0:0:
300,207,192675,1,8,0:0:0:0:
160,301,192860,1,0,0:0:0:0:
330,134,193045,6,0,P|365:162|350:270,1,162,4|8,0:0|0:0,0:0:0:0:
239,320,193601,2,0,L|289:323,2,40.5,0|0|2,0:0|0:0|0:0,0:0:0:0:
166,232,193971,1,2,0:0:0:0:
95,307,194156,1,8,0:0:0:0:
84,158,194341,1,0,0:0:0:0:
239,320,194527,6,0,P|191:312|91:359,1,162,4|8,0:0|0:0,0:0:0:0:
294,216,195082,2,0,P|311:261|401:324,1,162,4|2,0:0|0:0,0:0:0:0:
490,196,195638,1,8,0:0:0:0:
301,58,195823,6,0,B|348:55|348:55|393:80|393:80|472:78,1,162,4|2,0:0|0:0,0:0:0:0:
478,168,196378,2,0,P|496:207|495:256,1,81,8|2,0:0|0:0,0:0:0:0:
377,368,196749,2,0,P|401:332|444:309,1,81,2|2,0:0|0:0,0:0:0:0:
275,245,197119,1,8,0:0:0:0:
466,63,197490,5,6,0:0:0:0:
272,103,197675,1,2,0:0:0:0:
411,177,197860,1,8,0:0:0:0:
267,16,198045,1,4,0:0:0:0:
267,16,198415,1,2,0:0:0:0:
369,91,198601,1,8,0:0:0:0:
264,186,198786,1,8,0:0:0:0:
69,97,198971,6,0,B|153:49|157:133|245:93,1,162,4|8,0:0|0:0,0:0:0:0:
369,91,199527,1,0,0:0:0:0:
369,91,199619,1,0,0:0:0:0:
369,91,199712,1,2,0:0:0:0:
277,15,199897,1,2,0:0:0:0:
443,134,200082,2,0,P|451:94|445:54,1,81,8|0,0:0|0:0,0:0:0:0:
312,227,200453,6,0,L|309:318,1,81,2|0,0:0|0:0,0:0:0:0:
316,133,200823,1,8,0:0:0:0:
398,275,201008,1,0,0:0:0:0:
398,275,201101,1,0,0:0:0:0:
398,275,201193,1,2,0:0:0:0:
229,203,201378,1,2,0:0:0:0:
417,163,201564,1,8,0:0:0:0:
301,351,201749,1,0,0:0:0:0:
301,351,201841,1,0,0:0:0:0:
301,351,201934,6,0,B|256:340|256:340|203:348|203:348|136:328,1,162,4|8,0:0|0:0,0:0:0:0:
33,254,202490,1,0,0:0:0:0:
33,254,202582,1,0,0:0:0:0:
33,254,202675,1,2,0:0:0:0:
153,170,202860,1,2,0:0:0:0:
143,330,203045,2,0,P|160:287|156:245,1,81,8|0,0:0|0:0,0:0:0:0:
126,82,203415,5,2,0:0:0:0:
301,134,203601,1,2,0:0:0:0:
210,32,203786,2,0,P|222:67|207:120,1,81,8|0,0:0|0:0,0:0:0:0:
263,224,204156,6,0,L|406:207,1,121.5,8|0,0:0|0:0,0:0:0:0:
419,185,204527,2,0,L|276:168,1,121.5,8|0,0:0|0:0,0:0:0:0:
285,141,204897,6,0,P|261:177|305:265,1,145.799995550537,4|8,0:0|0:0,0:0:0:0:
355,309,205638,1,2,0:0:0:0:
301,358,205823,2,0,L|183:354,1,97.1999970336915,2|8,0:0|0:0,0:0:0:0:
131,300,206378,1,2,0:0:0:0:
131,270,206563,1,8,0:0:0:0:
132,241,206748,1,8,0:0:0:0:
132,212,206934,2,0,L|139:64,1,145.799995550537,8|2,0:0|0:0,0:0:0:0:
210,23,207675,5,4,0:0:0:0:
