osu file format v14

[General]
AudioFilename: SPiCa.mp3
AudioLeadIn: 0
PreviewTime: 74527
Countdown: 0
SampleSet: None
StackLeniency: 0.7
Mode: 3
LetterboxInBreaks: 0
SpecialStyle: 0
WidescreenStoryboard: 1

[Editor]
Bookmarks: 173786
DistanceSpacing: 1
BeatDivisor: 4
GridSize: 4
TimelineZoom: 1.4

[Metadata]
Title:SPiCa
TitleUnicode:SPiCa
Artist:Narae
ArtistUnicode:Narae
Creator:17VA
Version:NM
Source:Toku-P
Tags:Hatsune Miku Narae Vocaloid Vocaloid2 Asgard Star Stream
BeatmapID:1830576
BeatmapSetID:875956

[Difficulty]
HPDrainRate:8
CircleSize:7
OverallDifficulty:6
ApproachRate:3
SliderMultiplier:0.8
SliderTickRate:2

[Events]
//Background and Video events
0,0,"bg.jpg",0,0
//Break Periods
//Storyboard Layer 0 (Background)
//Storyboard Layer 1 (Fail)
//Storyboard Layer 2 (Pass)
//Storyboard Layer 3 (Foreground)
//Storyboard Sound Samples

[TimingPoints]
3416,370.37037037037,4,2,0,0,1,0
74527,-100,4,1,0,0,0,1
95267,-100,4,1,0,0,0,0
164897,-100,4,1,0,0,0,1
187119,-100,4,1,0,0,0,0

[Colours]
Combo1 : 255,0,128
Combo2 : 128,255,255
Combo3 : 128,128,192
Combo4 : 176,255,98

[HitObjects]
475,192,3416,5,0,0:0:0:0:
475,192,4156,1,0,0:0:0:0:
475,192,4897,1,0,0:0:0:0:
475,192,5638,1,0,0:0:0:0:
182,192,6378,1,0,0:0:0:0:
182,192,7119,1,0,0:0:0:0:
182,192,7860,1,0,0:0:0:0:
182,192,8601,1,0,0:0:0:0:
402,192,9341,1,0,0:0:0:0:
402,192,10082,1,0,0:0:0:0:
402,192,10823,1,0,0:0:0:0:
402,192,11564,1,0,0:0:0:0:
109,192,12304,1,0,0:0:0:0:
109,192,13045,1,0,0:0:0:0:
109,192,13786,1,0,0:0:0:0:
475,192,15267,1,0,0:0:0:0:
475,192,16007,1,0,0:0:0:0:
475,192,16748,1,0,0:0:0:0:
475,192,17489,1,0,0:0:0:0:
182,192,18229,1,0,0:0:0:0:
182,192,18970,1,0,0:0:0:0:
182,192,19711,1,0,0:0:0:0:
182,192,20452,1,0,0:0:0:0:
402,192,21192,1,0,0:0:0:0:
402,192,21933,1,0,0:0:0:0:
402,192,22674,1,0,0:0:0:0:
402,192,23415,1,0,0:0:0:0:
109,192,24155,1,0,0:0:0:0:
109,192,24896,1,0,0:0:0:0:
109,192,25637,1,0,0:0:0:0:
36,192,27119,1,0,0:0:0:0:
182,192,27119,128,0,28601:0:0:0:0:
329,192,28601,128,0,30082:0:0:0:0:
109,192,30082,128,0,30453:0:0:0:0:
182,192,30453,128,0,30823:0:0:0:0:
256,192,30823,128,0,31193:0:0:0:0:
329,192,31193,128,0,31564:0:0:0:0:
36,192,31564,128,0,33045:0:0:0:0:
475,192,31564,1,0,0:0:0:0:
402,192,33045,128,0,34527:0:0:0:0:
109,192,34527,128,0,36008:0:0:0:0:
329,192,36008,128,0,37490:0:0:0:0:
36,192,37490,1,0,0:0:0:0:
182,192,37490,1,0,0:0:0:0:
475,192,37860,1,0,0:0:0:0:
329,192,38045,1,0,0:0:0:0:
109,192,38230,128,0,38971:0:0:0:0:
402,192,38601,128,0,38971:0:0:0:0:
256,192,38971,1,0,0:0:0:0:
36,192,38971,1,0,0:0:0:0:
36,192,39341,1,0,0:0:0:0:
36,192,39712,1,0,0:0:0:0:
36,192,40082,1,0,0:0:0:0:
329,192,40453,1,0,0:0:0:0:
329,192,40823,1,0,0:0:0:0:
329,192,41193,1,0,0:0:0:0:
329,192,41564,1,0,0:0:0:0:
109,192,41934,1,0,0:0:0:0:
109,192,42304,1,0,0:0:0:0:
109,192,42675,1,0,0:0:0:0:
109,192,43045,1,0,0:0:0:0:
402,192,43415,1,0,0:0:0:0:
402,192,43786,1,0,0:0:0:0:
402,192,44156,1,0,0:0:0:0:
402,192,44527,1,0,0:0:0:0:
182,192,44527,128,0,44897:0:0:0:0:
36,192,44897,1,0,0:0:0:0:
256,192,44897,1,0,0:0:0:0:
36,192,45267,1,0,0:0:0:0:
36,192,45638,1,0,0:0:0:0:
36,192,46008,1,0,0:0:0:0:
402,192,46378,1,0,0:0:0:0:
402,192,46749,1,0,0:0:0:0:
402,192,47119,1,0,0:0:0:0:
402,192,47490,1,0,0:0:0:0:
109,192,47490,128,0,47860:0:0:0:0:
36,192,47860,1,0,0:0:0:0:
256,192,47860,1,0,0:0:0:0:
36,192,48230,1,0,0:0:0:0:
36,192,48601,1,0,0:0:0:0:
36,192,48971,1,0,0:0:0:0:
329,192,49341,1,0,0:0:0:0:
329,192,49712,1,0,0:0:0:0:
329,192,50082,1,0,0:0:0:0:
182,192,50267,1,0,0:0:0:0:
36,192,50267,1,0,0:0:0:0:
182,192,50453,1,0,0:0:0:0:
36,192,50453,1,0,0:0:0:0:
402,192,50638,1,0,0:0:0:0:
256,192,50730,1,0,0:0:0:0:
109,192,50823,1,0,0:0:0:0:
329,192,51008,1,0,0:0:0:0:
182,192,51193,1,0,0:0:0:0:
402,192,51378,1,0,0:0:0:0:
109,192,51564,1,0,0:0:0:0:
329,192,51749,1,0,0:0:0:0:
182,192,51934,1,0,0:0:0:0:
402,192,52119,1,0,0:0:0:0:
109,192,52304,1,0,0:0:0:0:
256,192,52490,1,0,0:0:0:0:
109,192,52675,1,0,0:0:0:0:
256,192,52860,1,0,0:0:0:0:
402,192,53045,1,0,0:0:0:0:
256,192,53230,1,0,0:0:0:0:
402,192,53415,1,0,0:0:0:0:
256,192,53601,1,0,0:0:0:0:
402,192,53786,1,0,0:0:0:0:
182,192,53971,1,0,0:0:0:0:
329,192,54156,1,0,0:0:0:0:
109,192,54341,1,0,0:0:0:0:
402,192,54527,1,0,0:0:0:0:
182,192,54712,1,0,0:0:0:0:
329,192,54897,1,0,0:0:0:0:
109,192,55082,1,0,0:0:0:0:
402,192,55267,1,0,0:0:0:0:
182,192,55453,1,0,0:0:0:0:
402,192,55638,1,0,0:0:0:0:
182,192,55823,1,0,0:0:0:0:
109,192,56008,1,0,0:0:0:0:
329,192,56193,1,0,0:0:0:0:
109,192,56378,1,0,0:0:0:0:
329,192,56564,1,0,0:0:0:0:
36,192,56749,1,0,0:0:0:0:
182,192,56749,1,0,0:0:0:0:
329,192,57119,1,0,0:0:0:0:
475,192,57119,1,0,0:0:0:0:
109,192,57490,1,0,0:0:0:0:
109,192,57675,1,0,0:0:0:0:
329,192,57860,1,0,0:0:0:0:
475,192,57860,1,0,0:0:0:0:
182,192,58230,1,0,0:0:0:0:
36,192,58415,1,0,0:0:0:0:
256,192,58601,1,0,0:0:0:0:
109,192,58786,1,0,0:0:0:0:
329,192,58971,1,0,0:0:0:0:
475,192,59156,1,0,0:0:0:0:
256,192,59341,1,0,0:0:0:0:
402,192,59527,1,0,0:0:0:0:
36,192,59712,1,0,0:0:0:0:
182,192,59712,1,0,0:0:0:0:
36,192,60082,1,0,0:0:0:0:
182,192,60082,1,0,0:0:0:0:
329,192,60453,1,0,0:0:0:0:
475,192,60453,1,0,0:0:0:0:
329,192,60823,1,0,0:0:0:0:
475,192,60823,1,0,0:0:0:0:
109,192,61193,1,0,0:0:0:0:
402,192,61378,1,0,0:0:0:0:
109,192,61564,1,0,0:0:0:0:
402,192,61749,1,0,0:0:0:0:
36,192,61934,1,0,0:0:0:0:
182,192,61934,1,0,0:0:0:0:
36,192,62119,1,0,0:0:0:0:
182,192,62119,1,0,0:0:0:0:
329,192,62675,128,0,63230:0:0:0:0:
256,192,63230,128,0,63415:0:0:0:0:
182,192,63415,128,0,64156:0:0:0:0:
36,192,64156,128,0,64527:0:0:0:0:
402,192,64527,128,0,64897:0:0:0:0:
109,192,64897,128,0,65267:0:0:0:0:
475,192,65267,128,0,65638:0:0:0:0:
182,192,65638,128,0,66378:0:0:0:0:
36,192,66008,128,0,66378:0:0:0:0:
109,192,66378,128,0,67119:0:0:0:0:
402,192,66749,128,0,67119:0:0:0:0:
329,192,67119,128,0,67860:0:0:0:0:
475,192,67119,1,0,0:0:0:0:
36,192,67860,128,0,68601:0:0:0:0:
182,192,68230,128,0,68601:0:0:0:0:
109,192,68601,128,0,69341:0:0:0:0:
402,192,69341,128,0,70082:0:0:0:0:
256,192,69712,128,0,70082:0:0:0:0:
329,192,70082,128,0,70823:0:0:0:0:
109,192,70823,128,0,71193:0:0:0:0:
256,192,71193,128,0,71564:0:0:0:0:
402,192,71564,128,0,73045:0:0:0:0:
36,192,71564,1,0,0:0:0:0:
182,192,71564,1,0,0:0:0:0:
475,192,72304,128,0,73045:0:0:0:0:
182,192,72304,1,0,0:0:0:0:
109,192,73045,1,0,0:0:0:0:
256,192,73045,1,0,0:0:0:0:
36,192,73045,1,0,0:0:0:0:
36,192,74527,1,0,0:0:0:0:
329,192,74897,1,0,0:0:0:0:
475,192,74897,1,0,0:0:0:0:
36,192,75267,1,0,0:0:0:0:
36,192,75453,1,0,0:0:0:0:
329,192,75638,1,0,0:0:0:0:
475,192,75638,1,0,0:0:0:0:
402,192,76008,1,0,0:0:0:0:
109,192,76378,1,0,0:0:0:0:
256,192,76378,1,0,0:0:0:0:
402,192,76749,1,0,0:0:0:0:
402,192,76934,1,0,0:0:0:0:
109,192,77119,1,0,0:0:0:0:
256,192,77119,1,0,0:0:0:0:
36,192,77490,1,0,0:0:0:0:
182,192,77860,1,0,0:0:0:0:
475,192,77860,1,0,0:0:0:0:
36,192,78230,1,0,0:0:0:0:
36,192,78415,1,0,0:0:0:0:
182,192,78601,1,0,0:0:0:0:
475,192,78601,1,0,0:0:0:0:
402,192,78971,1,0,0:0:0:0:
109,192,79156,1,0,0:0:0:0:
402,192,79341,128,0,79712:0:0:0:0:
256,192,79712,1,0,0:0:0:0:
475,192,79897,1,0,0:0:0:0:
182,192,80082,1,0,0:0:0:0:
402,192,80267,1,0,0:0:0:0:
109,192,80453,128,0,81934:0:0:0:0:
36,192,80453,1,0,0:0:0:0:
329,192,80823,1,0,0:0:0:0:
475,192,80823,1,0,0:0:0:0:
36,192,81193,1,0,0:0:0:0:
36,192,81378,1,0,0:0:0:0:
329,192,81564,1,0,0:0:0:0:
475,192,81564,1,0,0:0:0:0:
256,192,81749,1,0,0:0:0:0:
182,192,81934,1,0,0:0:0:0:
402,192,81934,1,0,0:0:0:0:
36,192,82119,1,0,0:0:0:0:
256,192,82119,1,0,0:0:0:0:
109,192,82304,1,0,0:0:0:0:
329,192,82304,1,0,0:0:0:0:
256,192,82490,1,0,0:0:0:0:
475,192,82490,1,0,0:0:0:0:
402,192,82860,1,0,0:0:0:0:
109,192,83045,1,0,0:0:0:0:
329,192,83230,128,0,84527:0:0:0:0:
475,192,83230,1,0,0:0:0:0:
36,192,83601,1,0,0:0:0:0:
402,192,83786,1,0,0:0:0:0:
109,192,83971,1,0,0:0:0:0:
402,192,84156,1,0,0:0:0:0:
182,192,84341,1,0,0:0:0:0:
256,192,84527,1,0,0:0:0:0:
475,192,84527,1,0,0:0:0:0:
36,192,84527,1,0,0:0:0:0:
402,192,84897,1,0,0:0:0:0:
109,192,85082,1,0,0:0:0:0:
329,192,85267,1,0,0:0:0:0:
475,192,85453,1,0,0:0:0:0:
182,192,85638,1,0,0:0:0:0:
36,192,85823,1,0,0:0:0:0:
402,192,86008,1,0,0:0:0:0:
109,192,86193,1,0,0:0:0:0:
329,192,86378,1,0,0:0:0:0:
475,192,86378,1,0,0:0:0:0:
36,192,86749,1,0,0:0:0:0:
182,192,86749,1,0,0:0:0:0:
329,192,87119,1,0,0:0:0:0:
475,192,87119,1,0,0:0:0:0:
475,192,87304,1,0,0:0:0:0:
36,192,87490,1,0,0:0:0:0:
182,192,87490,1,0,0:0:0:0:
402,192,87860,1,0,0:0:0:0:
256,192,87860,1,0,0:0:0:0:
109,192,88045,1,0,0:0:0:0:
329,192,88230,1,0,0:0:0:0:
182,192,88415,1,0,0:0:0:0:
329,192,88601,1,0,0:0:0:0:
475,192,88601,1,0,0:0:0:0:
36,192,88786,1,0,0:0:0:0:
256,192,88971,1,0,0:0:0:0:
402,192,88971,1,0,0:0:0:0:
109,192,89156,1,0,0:0:0:0:
182,192,89341,1,0,0:0:0:0:
329,192,89341,1,0,0:0:0:0:
475,192,89527,1,0,0:0:0:0:
109,192,89712,1,0,0:0:0:0:
256,192,89712,1,0,0:0:0:0:
402,192,89897,1,0,0:0:0:0:
36,192,90082,1,0,0:0:0:0:
182,192,90082,1,0,0:0:0:0:
329,192,90267,1,0,0:0:0:0:
109,192,90453,1,0,0:0:0:0:
475,192,90453,1,0,0:0:0:0:
329,192,90638,1,0,0:0:0:0:
36,192,90823,1,0,0:0:0:0:
256,192,90823,1,0,0:0:0:0:
109,192,91008,1,0,0:0:0:0:
329,192,91008,1,0,0:0:0:0:
182,192,91193,1,0,0:0:0:0:
402,192,91193,1,0,0:0:0:0:
475,192,91193,1,0,0:0:0:0:
475,192,91564,1,0,0:0:0:0:
329,192,91749,1,0,0:0:0:0:
36,192,91934,1,0,0:0:0:0:
182,192,92119,1,0,0:0:0:0:
109,192,92304,1,0,0:0:0:0:
402,192,92304,1,0,0:0:0:0:
256,192,92860,1,0,0:0:0:0:
109,192,93045,1,0,0:0:0:0:
402,192,93045,1,0,0:0:0:0:
182,192,93415,1,0,0:0:0:0:
329,192,93601,1,0,0:0:0:0:
36,192,93786,1,0,0:0:0:0:
182,192,93786,1,0,0:0:0:0:
329,192,93971,1,0,0:0:0:0:
475,192,93971,1,0,0:0:0:0:
109,192,94156,1,0,0:0:0:0:
402,192,94341,1,0,0:0:0:0:
256,192,94897,1,0,0:0:0:0:
109,192,95267,1,0,0:0:0:0:
402,192,95267,1,0,0:0:0:0:
109,192,95638,1,0,0:0:0:0:
402,192,95638,1,0,0:0:0:0:
182,192,95823,1,0,0:0:0:0:
329,192,95823,1,0,0:0:0:0:
182,192,96193,1,0,0:0:0:0:
329,192,96193,1,0,0:0:0:0:
256,192,96564,1,0,0:0:0:0:
256,192,96934,1,0,0:0:0:0:
256,192,97304,1,0,0:0:0:0:
36,192,97675,1,0,0:0:0:0:
182,192,97675,1,0,0:0:0:0:
329,192,97860,1,0,0:0:0:0:
475,192,97860,1,0,0:0:0:0:
402,192,98230,1,0,0:0:0:0:
109,192,98230,1,0,0:0:0:0:
109,192,98601,1,0,0:0:0:0:
402,192,98601,1,0,0:0:0:0:
329,192,98786,1,0,0:0:0:0:
182,192,98786,1,0,0:0:0:0:
182,192,99156,1,0,0:0:0:0:
329,192,99156,1,0,0:0:0:0:
36,192,99527,1,0,0:0:0:0:
475,192,99527,1,0,0:0:0:0:
36,192,99897,1,0,0:0:0:0:
475,192,99897,1,0,0:0:0:0:
36,192,100267,1,0,0:0:0:0:
475,192,100267,1,0,0:0:0:0:
109,192,100638,1,0,0:0:0:0:
182,192,100638,1,0,0:0:0:0:
402,192,100823,1,0,0:0:0:0:
329,192,100823,1,0,0:0:0:0:
36,192,101193,1,0,0:0:0:0:
256,192,101193,1,0,0:0:0:0:
475,192,101193,1,0,0:0:0:0:
36,192,101564,1,0,0:0:0:0:
256,192,101564,1,0,0:0:0:0:
475,192,101564,1,0,0:0:0:0:
109,192,101749,1,0,0:0:0:0:
402,192,101749,1,0,0:0:0:0:
109,192,102119,1,0,0:0:0:0:
402,192,102119,1,0,0:0:0:0:
182,192,102490,1,0,0:0:0:0:
329,192,102490,1,0,0:0:0:0:
182,192,102860,1,0,0:0:0:0:
329,192,102860,1,0,0:0:0:0:
182,192,103230,1,0,0:0:0:0:
329,192,103230,1,0,0:0:0:0:
36,192,103601,1,0,0:0:0:0:
256,192,103601,1,0,0:0:0:0:
256,192,103786,1,0,0:0:0:0:
475,192,103786,1,0,0:0:0:0:
36,192,104156,1,0,0:0:0:0:
475,192,104156,1,0,0:0:0:0:
256,192,104156,1,0,0:0:0:0:
256,192,104527,1,0,0:0:0:0:
36,192,104527,1,0,0:0:0:0:
475,192,104527,1,0,0:0:0:0:
182,192,104712,1,0,0:0:0:0:
329,192,104712,1,0,0:0:0:0:
329,192,105082,1,0,0:0:0:0:
182,192,105082,1,0,0:0:0:0:
402,192,105453,1,0,0:0:0:0:
109,192,105453,1,0,0:0:0:0:
402,192,105823,1,0,0:0:0:0:
109,192,105823,1,0,0:0:0:0:
109,192,106193,128,0,106749:0:0:0:0:
402,192,106193,128,0,106749:0:0:0:0:
329,192,106564,1,0,0:0:0:0:
182,192,106564,1,0,0:0:0:0:
475,192,106749,1,0,0:0:0:0:
36,192,106749,1,0,0:0:0:0:
109,192,107119,1,0,0:0:0:0:
329,192,107304,1,0,0:0:0:0:
182,192,107490,1,0,0:0:0:0:
329,192,107675,1,0,0:0:0:0:
36,192,107860,1,0,0:0:0:0:
402,192,108045,1,0,0:0:0:0:
182,192,108230,1,0,0:0:0:0:
402,192,108415,1,0,0:0:0:0:
109,192,108601,1,0,0:0:0:0:
475,192,108786,1,0,0:0:0:0:
256,192,108971,1,0,0:0:0:0:
475,192,109156,1,0,0:0:0:0:
36,192,109341,1,0,0:0:0:0:
402,192,109527,1,0,0:0:0:0:
109,192,109712,1,0,0:0:0:0:
475,192,109897,1,0,0:0:0:0:
182,192,110082,1,0,0:0:0:0:
36,192,110267,1,0,0:0:0:0:
256,192,110453,1,0,0:0:0:0:
109,192,110638,1,0,0:0:0:0:
329,192,110823,1,0,0:0:0:0:
475,192,111008,1,0,0:0:0:0:
256,192,111193,1,0,0:0:0:0:
402,192,111378,1,0,0:0:0:0:
36,192,111564,1,0,0:0:0:0:
182,192,111749,1,0,0:0:0:0:
475,192,111934,1,0,0:0:0:0:
329,192,112119,1,0,0:0:0:0:
109,192,112304,1,0,0:0:0:0:
256,192,112490,1,0,0:0:0:0:
475,192,112675,1,0,0:0:0:0:
329,192,112860,1,0,0:0:0:0:
36,192,113045,1,0,0:0:0:0:
182,192,113045,1,0,0:0:0:0:
475,192,113230,1,0,0:0:0:0:
109,192,113415,1,0,0:0:0:0:
402,192,113601,1,0,0:0:0:0:
182,192,113786,1,0,0:0:0:0:
329,192,113971,1,0,0:0:0:0:
109,192,114156,1,0,0:0:0:0:
402,192,114341,1,0,0:0:0:0:
182,192,114527,1,0,0:0:0:0:
36,192,114712,1,0,0:0:0:0:
329,192,114897,1,0,0:0:0:0:
109,192,115082,1,0,0:0:0:0:
475,192,115267,1,0,0:0:0:0:
256,192,115453,1,0,0:0:0:0:
402,192,115638,1,0,0:0:0:0:
182,192,115823,1,0,0:0:0:0:
329,192,116008,1,0,0:0:0:0:
475,192,116008,1,0,0:0:0:0:
182,192,116193,1,0,0:0:0:0:
36,192,116378,1,0,0:0:0:0:
329,192,116564,1,0,0:0:0:0:
475,192,116749,1,0,0:0:0:0:
109,192,116934,1,0,0:0:0:0:
402,192,117119,1,0,0:0:0:0:
36,192,117304,1,0,0:0:0:0:
182,192,117304,1,0,0:0:0:0:
402,192,118971,1,0,0:0:0:0:
182,192,119156,1,0,0:0:0:0:
329,192,119341,1,0,0:0:0:0:
475,192,119527,1,0,0:0:0:0:
109,192,119712,1,0,0:0:0:0:
256,192,119897,1,0,0:0:0:0:
402,192,120082,1,0,0:0:0:0:
182,192,120267,1,0,0:0:0:0:
329,192,120453,1,0,0:0:0:0:
182,192,120638,1,0,0:0:0:0:
36,192,120823,1,0,0:0:0:0:
402,192,121008,1,0,0:0:0:0:
256,192,121193,1,0,0:0:0:0:
109,192,121378,1,0,0:0:0:0:
329,192,121564,1,0,0:0:0:0:
475,192,121749,1,0,0:0:0:0:
182,192,121934,1,0,0:0:0:0:
402,192,121934,1,0,0:0:0:0:
36,192,122119,1,0,0:0:0:0:
256,192,122304,1,0,0:0:0:0:
475,192,122490,1,0,0:0:0:0:
182,192,122675,1,0,0:0:0:0:
36,192,122860,1,0,0:0:0:0:
329,192,123045,1,0,0:0:0:0:
475,192,123230,1,0,0:0:0:0:
256,192,123415,1,0,0:0:0:0:
109,192,123601,1,0,0:0:0:0:
329,192,123786,1,0,0:0:0:0:
475,192,123971,1,0,0:0:0:0:
182,192,124156,1,0,0:0:0:0:
36,192,124341,1,0,0:0:0:0:
256,192,124527,1,0,0:0:0:0:
475,192,124712,1,0,0:0:0:0:
109,192,124897,1,0,0:0:0:0:
402,192,125082,1,0,0:0:0:0:
256,192,125267,1,0,0:0:0:0:
109,192,125453,1,0,0:0:0:0:
402,192,125638,1,0,0:0:0:0:
182,192,125823,1,0,0:0:0:0:
329,192,126008,1,0,0:0:0:0:
475,192,126193,1,0,0:0:0:0:
256,192,126378,1,0,0:0:0:0:
36,192,126564,1,0,0:0:0:0:
182,192,126749,1,0,0:0:0:0:
329,192,126934,1,0,0:0:0:0:
109,192,127119,1,0,0:0:0:0:
475,192,127119,1,0,0:0:0:0:
182,192,127304,1,0,0:0:0:0:
402,192,127304,1,0,0:0:0:0:
36,192,127490,1,0,0:0:0:0:
329,192,127490,1,0,0:0:0:0:
109,192,127675,1,0,0:0:0:0:
256,192,127675,1,0,0:0:0:0:
182,192,127860,1,0,0:0:0:0:
402,192,128045,1,0,0:0:0:0:
256,192,128230,1,0,0:0:0:0:
109,192,128415,1,0,0:0:0:0:
329,192,128601,1,0,0:0:0:0:
182,192,128786,1,0,0:0:0:0:
36,192,128971,1,0,0:0:0:0:
475,192,129156,1,0,0:0:0:0:
329,192,129341,1,0,0:0:0:0:
109,192,129527,1,0,0:0:0:0:
256,192,129712,1,0,0:0:0:0:
402,192,129897,1,0,0:0:0:0:
182,192,130082,1,0,0:0:0:0:
36,192,130267,1,0,0:0:0:0:
329,192,130453,1,0,0:0:0:0:
475,192,130453,1,0,0:0:0:0:
109,192,132304,128,0,133786:0:0:0:0:
402,192,132304,128,0,133786:0:0:0:0:
256,192,132304,1,0,0:0:0:0:
329,192,133786,128,0,135267:0:0:0:0:
475,192,133786,128,0,135267:0:0:0:0:
256,192,133786,1,0,0:0:0:0:
36,192,135267,128,0,136748:0:0:0:0:
182,192,135267,128,0,136748:0:0:0:0:
256,192,135267,1,0,0:0:0:0:
402,192,136749,128,0,137490:0:0:0:0:
256,192,136749,1,0,0:0:0:0:
475,192,137490,128,0,138230:0:0:0:0:
329,192,137860,128,0,138230:0:0:0:0:
109,192,138230,128,0,138971:0:0:0:0:
256,192,138230,1,0,0:0:0:0:
36,192,138971,128,0,139712:0:0:0:0:
182,192,139341,128,0,139712:0:0:0:0:
402,192,139712,128,0,140453:0:0:0:0:
256,192,139712,1,0,0:0:0:0:
256,192,140453,128,0,140823:0:0:0:0:
109,192,140453,1,0,0:0:0:0:
36,192,140823,128,0,141193:0:0:0:0:
182,192,141008,128,0,141193:0:0:0:0:
329,192,141193,1,0,0:0:0:0:
475,192,141193,1,0,0:0:0:0:
109,192,141564,1,0,0:0:0:0:
256,192,141934,1,0,0:0:0:0:
402,192,141934,1,0,0:0:0:0:
109,192,142304,1,0,0:0:0:0:
329,192,142675,1,0,0:0:0:0:
475,192,142675,1,0,0:0:0:0:
182,192,142675,1,0,0:0:0:0:
36,192,144156,1,0,0:0:0:0:
182,192,144341,1,0,0:0:0:0:
256,192,144527,1,0,0:0:0:0:
402,192,144712,1,0,0:0:0:0:
475,192,144897,1,0,0:0:0:0:
329,192,145082,1,0,0:0:0:0:
109,192,145267,1,0,0:0:0:0:
256,192,145453,1,0,0:0:0:0:
402,192,145638,1,0,0:0:0:0:
182,192,145823,1,0,0:0:0:0:
36,192,146008,1,0,0:0:0:0:
329,192,146193,1,0,0:0:0:0:
475,192,146378,1,0,0:0:0:0:
256,192,146564,1,0,0:0:0:0:
402,192,146749,1,0,0:0:0:0:
182,192,146934,1,0,0:0:0:0:
329,192,147119,1,0,0:0:0:0:
36,192,147304,1,0,0:0:0:0:
402,192,147490,1,0,0:0:0:0:
182,192,147675,1,0,0:0:0:0:
475,192,147860,1,0,0:0:0:0:
329,192,147860,1,0,0:0:0:0:
256,192,148045,1,0,0:0:0:0:
182,192,148230,1,0,0:0:0:0:
109,192,148415,1,0,0:0:0:0:
36,192,148601,1,0,0:0:0:0:
402,192,148601,1,0,0:0:0:0:
256,192,148601,1,0,0:0:0:0:
329,192,148786,1,0,0:0:0:0:
182,192,148971,1,0,0:0:0:0:
256,192,149156,1,0,0:0:0:0:
329,192,149218,1,0,0:0:0:0:
402,192,149280,1,0,0:0:0:0:
109,192,149341,1,0,0:0:0:0:
475,192,149341,1,0,0:0:0:0:
256,192,149527,1,0,0:0:0:0:
36,192,149712,1,0,0:0:0:0:
182,192,149897,1,0,0:0:0:0:
329,192,150082,1,0,0:0:0:0:
109,192,150267,1,0,0:0:0:0:
256,192,150453,1,0,0:0:0:0:
402,192,150638,1,0,0:0:0:0:
475,192,150823,1,0,0:0:0:0:
182,192,151008,1,0,0:0:0:0:
329,192,151193,1,0,0:0:0:0:
36,192,151378,1,0,0:0:0:0:
402,192,151564,1,0,0:0:0:0:
256,192,151749,1,0,0:0:0:0:
109,192,151934,1,0,0:0:0:0:
329,192,152119,128,0,152490:0:0:0:0:
475,192,152490,1,0,0:0:0:0:
256,192,152675,1,0,0:0:0:0:
402,192,152860,128,0,154156:0:0:0:0:
329,192,152860,1,0,0:0:0:0:
36,192,153230,1,0,0:0:0:0:
182,192,153415,1,0,0:0:0:0:
329,192,153601,1,0,0:0:0:0:
475,192,153786,128,0,154156:0:0:0:0:
182,192,154156,128,0,154527:0:0:0:0:
36,192,154527,1,0,0:0:0:0:
475,192,154527,1,0,0:0:0:0:
256,192,154712,1,0,0:0:0:0:
402,192,154897,1,0,0:0:0:0:
109,192,155082,128,0,156008:0:0:0:0:
182,192,155082,1,0,0:0:0:0:
475,192,155453,1,0,0:0:0:0:
329,192,155638,1,0,0:0:0:0:
475,192,155823,1,0,0:0:0:0:
329,192,156008,128,0,157490:0:0:0:0:
36,192,156008,1,0,0:0:0:0:
36,192,156378,1,0,0:0:0:0:
36,192,156749,1,0,0:0:0:0:
36,192,157119,1,0,0:0:0:0:
256,192,157490,128,0,158971:0:0:0:0:
36,192,157490,1,0,0:0:0:0:
36,192,157860,1,0,0:0:0:0:
36,192,158230,1,0,0:0:0:0:
36,192,158601,1,0,0:0:0:0:
329,192,158971,128,0,160453:0:0:0:0:
36,192,158971,1,0,0:0:0:0:
36,192,159341,1,0,0:0:0:0:
36,192,159712,1,0,0:0:0:0:
36,192,160082,1,0,0:0:0:0:
182,192,160453,128,0,161193:0:0:0:0:
36,192,160453,1,0,0:0:0:0:
36,192,160823,1,0,0:0:0:0:
475,192,161193,128,0,161564:0:0:0:0:
36,192,161193,1,0,0:0:0:0:
36,192,161564,1,0,0:0:0:0:
329,192,161564,128,0,161934:0:0:0:0:
36,192,161934,1,0,0:0:0:0:
256,192,161934,128,0,162490:0:0:0:0:
36,192,162304,1,0,0:0:0:0:
402,192,162490,128,0,162675:0:0:0:0:
36,192,162675,1,0,0:0:0:0:
182,192,162675,128,0,163415:0:0:0:0:
36,192,163045,1,0,0:0:0:0:
256,192,163415,1,0,0:0:0:0:
36,192,163415,1,0,0:0:0:0:
329,192,163601,1,0,0:0:0:0:
475,192,163601,1,0,0:0:0:0:
109,192,163786,1,0,0:0:0:0:
329,192,163971,1,0,0:0:0:0:
475,192,163971,1,0,0:0:0:0:
36,192,164156,128,0,164897:0:0:0:0:
256,192,164897,1,0,0:0:0:0:
402,192,164897,1,0,0:0:0:0:
109,192,165082,1,0,0:0:0:0:
329,192,165267,1,0,0:0:0:0:
475,192,165267,1,0,0:0:0:0:
182,192,165453,1,0,0:0:0:0:
256,192,165638,1,0,0:0:0:0:
402,192,165638,1,0,0:0:0:0:
36,192,165823,1,0,0:0:0:0:
182,192,166008,1,0,0:0:0:0:
329,192,166008,1,0,0:0:0:0:
475,192,166193,1,0,0:0:0:0:
109,192,166378,1,0,0:0:0:0:
402,192,166378,1,0,0:0:0:0:
256,192,166564,1,0,0:0:0:0:
182,192,166749,1,0,0:0:0:0:
329,192,166749,1,0,0:0:0:0:
256,192,166934,1,0,0:0:0:0:
36,192,167119,1,0,0:0:0:0:
182,192,167119,1,0,0:0:0:0:
109,192,167304,1,0,0:0:0:0:
256,192,167304,1,0,0:0:0:0:
329,192,167490,1,0,0:0:0:0:
475,192,167490,1,0,0:0:0:0:
256,192,167675,1,0,0:0:0:0:
402,192,167675,1,0,0:0:0:0:
36,192,167860,1,0,0:0:0:0:
182,192,168045,1,0,0:0:0:0:
329,192,168230,1,0,0:0:0:0:
475,192,168230,1,0,0:0:0:0:
182,192,168415,1,0,0:0:0:0:
402,192,168601,1,0,0:0:0:0:
109,192,168786,1,0,0:0:0:0:
475,192,168971,1,0,0:0:0:0:
329,192,168971,1,0,0:0:0:0:
182,192,169156,1,0,0:0:0:0:
402,192,169341,1,0,0:0:0:0:
109,192,169527,1,0,0:0:0:0:
329,192,169712,1,0,0:0:0:0:
402,192,169712,128,0,170082:0:0:0:0:
36,192,170082,1,0,0:0:0:0:
182,192,170082,1,0,0:0:0:0:
109,192,170267,1,0,0:0:0:0:
256,192,170267,1,0,0:0:0:0:
329,192,170453,1,0,0:0:0:0:
475,192,170453,1,0,0:0:0:0:
256,192,170638,1,0,0:0:0:0:
402,192,170638,1,0,0:0:0:0:
36,192,170823,1,0,0:0:0:0:
182,192,171008,1,0,0:0:0:0:
329,192,171193,1,0,0:0:0:0:
475,192,171193,1,0,0:0:0:0:
109,192,171378,1,0,0:0:0:0:
256,192,171564,1,0,0:0:0:0:
402,192,171749,1,0,0:0:0:0:
36,192,171934,1,0,0:0:0:0:
182,192,171934,1,0,0:0:0:0:
329,192,172119,1,0,0:0:0:0:
402,192,172304,1,0,0:0:0:0:
182,192,172304,1,0,0:0:0:0:
256,192,172489,1,0,0:0:0:0:
36,192,172489,1,0,0:0:0:0:
329,192,172674,1,0,0:0:0:0:
109,192,172674,1,0,0:0:0:0:
256,192,172860,1,0,0:0:0:0:
475,192,172860,1,0,0:0:0:0:
402,192,173230,1,0,0:0:0:0:
109,192,173415,1,0,0:0:0:0:
329,192,173600,128,0,174897:0:0:0:0:
475,192,173600,1,0,0:0:0:0:
36,192,173971,1,0,0:0:0:0:
402,192,174156,1,0,0:0:0:0:
109,192,174341,1,0,0:0:0:0:
402,192,174526,1,0,0:0:0:0:
182,192,174711,1,0,0:0:0:0:
256,192,174897,1,0,0:0:0:0:
475,192,174897,1,0,0:0:0:0:
36,192,174897,1,0,0:0:0:0:
329,192,175267,1,0,0:0:0:0:
402,192,175267,1,0,0:0:0:0:
109,192,175453,1,0,0:0:0:0:
182,192,175453,1,0,0:0:0:0:
329,192,175638,1,0,0:0:0:0:
402,192,175638,1,0,0:0:0:0:
329,192,175823,128,0,176193:0:0:0:0:
36,192,175823,128,0,176749:0:0:0:0:
475,192,175823,128,0,176749:0:0:0:0:
182,192,175823,1,0,0:0:0:0:
256,192,176193,128,0,176378:0:0:0:0:
182,192,176378,128,0,176564:0:0:0:0:
256,192,176564,128,0,176749:0:0:0:0:
109,192,176749,1,0,0:0:0:0:
402,192,176749,1,0,0:0:0:0:
256,192,176934,1,0,0:0:0:0:
182,192,177119,1,0,0:0:0:0:
329,192,177119,1,0,0:0:0:0:
256,192,177304,1,0,0:0:0:0:
36,192,177490,1,0,0:0:0:0:
182,192,177490,1,0,0:0:0:0:
256,192,177675,1,0,0:0:0:0:
329,192,177860,1,0,0:0:0:0:
475,192,177860,1,0,0:0:0:0:
256,192,178045,1,0,0:0:0:0:
109,192,178230,1,0,0:0:0:0:
402,192,178230,1,0,0:0:0:0:
256,192,178415,1,0,0:0:0:0:
182,192,178601,1,0,0:0:0:0:
475,192,178601,1,0,0:0:0:0:
256,192,178786,1,0,0:0:0:0:
36,192,178971,1,0,0:0:0:0:
329,192,178971,1,0,0:0:0:0:
256,192,179156,1,0,0:0:0:0:
182,192,179341,1,0,0:0:0:0:
475,192,179341,1,0,0:0:0:0:
256,192,179527,1,0,0:0:0:0:
36,192,179712,1,0,0:0:0:0:
402,192,179712,1,0,0:0:0:0:
182,192,179712,1,0,0:0:0:0:
256,192,179897,1,0,0:0:0:0:
329,192,180082,1,0,0:0:0:0:
475,192,180082,1,0,0:0:0:0:
109,192,180082,1,0,0:0:0:0:
256,192,180267,1,0,0:0:0:0:
36,192,180453,1,0,0:0:0:0:
182,192,180453,1,0,0:0:0:0:
256,192,180638,1,0,0:0:0:0:
329,192,180823,1,0,0:0:0:0:
475,192,180823,1,0,0:0:0:0:
256,192,181008,1,0,0:0:0:0:
109,192,181193,1,0,0:0:0:0:
402,192,181193,1,0,0:0:0:0:
256,192,181378,1,0,0:0:0:0:
36,192,181564,1,0,0:0:0:0:
182,192,181564,1,0,0:0:0:0:
475,192,181564,1,0,0:0:0:0:
329,192,181749,1,0,0:0:0:0:
109,192,181934,1,0,0:0:0:0:
402,192,181934,1,0,0:0:0:0:
256,192,182119,1,0,0:0:0:0:
36,192,182304,1,0,0:0:0:0:
329,192,182304,1,0,0:0:0:0:
475,192,182304,1,0,0:0:0:0:
182,192,182490,1,0,0:0:0:0:
109,192,182675,128,0,182860:0:0:0:0:
402,192,182860,128,0,183415:0:0:0:0:
475,192,183230,128,0,183415:0:0:0:0:
182,192,183415,128,0,184156:0:0:0:0:
256,192,183415,1,0,0:0:0:0:
256,192,183786,1,0,0:0:0:0:
36,192,184156,1,0,0:0:0:0:
475,192,184156,1,0,0:0:0:0:
256,192,184156,1,0,0:0:0:0:
109,192,184341,1,0,0:0:0:0:
402,192,184341,1,0,0:0:0:0:
182,192,184527,1,0,0:0:0:0:
329,192,184527,1,0,0:0:0:0:
109,192,184712,1,0,0:0:0:0:
402,192,184712,1,0,0:0:0:0:
182,192,186749,1,0,0:0:0:0:
329,192,186749,1,0,0:0:0:0:
36,192,187119,1,0,0:0:0:0:
182,192,187119,1,0,0:0:0:0:
256,192,187490,1,0,0:0:0:0:
329,192,187490,1,0,0:0:0:0:
475,192,187490,1,0,0:0:0:0:
36,192,187860,1,0,0:0:0:0:
182,192,187860,1,0,0:0:0:0:
36,192,188045,1,0,0:0:0:0:
256,192,188230,1,0,0:0:0:0:
329,192,188230,1,0,0:0:0:0:
475,192,188230,1,0,0:0:0:0:
36,192,188601,128,0,188786:0:0:0:0:
402,192,188601,1,0,0:0:0:0:
182,192,188786,128,0,188971:0:0:0:0:
329,192,188971,128,0,189156:0:0:0:0:
475,192,189156,128,0,189341:0:0:0:0:
109,192,189341,128,0,189527:0:0:0:0:
256,192,189527,128,0,189712:0:0:0:0:
402,192,189712,128,0,189897:0:0:0:0:
256,192,189897,128,0,190082:0:0:0:0:
36,192,190082,128,0,190638:0:0:0:0:
182,192,190082,128,0,190638:0:0:0:0:
256,192,190453,1,0,0:0:0:0:
402,192,190638,128,0,191008:0:0:0:0:
109,192,191008,128,0,191378:0:0:0:0:
256,192,191193,1,0,0:0:0:0:
402,192,191378,128,0,191564:0:0:0:0:
182,192,191564,128,0,192304:0:0:0:0:
36,192,191564,1,0,0:0:0:0:
329,192,191934,128,0,192119:0:0:0:0:
256,192,191934,1,0,0:0:0:0:
36,192,192119,128,0,192304:0:0:0:0:
402,192,192304,128,0,193045:0:0:0:0:
475,192,192304,1,0,0:0:0:0:
329,192,192490,1,0,0:0:0:0:
256,192,192675,1,0,0:0:0:0:
109,192,192675,1,0,0:0:0:0:
36,192,193045,1,0,0:0:0:0:
182,192,193045,1,0,0:0:0:0:
109,192,193230,1,0,0:0:0:0:
256,192,193323,1,0,0:0:0:0:
475,192,193415,1,0,0:0:0:0:
402,192,193508,1,0,0:0:0:0:
329,192,193601,1,0,0:0:0:0:
256,192,193693,1,0,0:0:0:0:
402,192,193786,1,0,0:0:0:0:
329,192,193878,1,0,0:0:0:0:
256,192,193971,1,0,0:0:0:0:
182,192,194064,1,0,0:0:0:0:
329,192,194156,1,0,0:0:0:0:
256,192,194249,1,0,0:0:0:0:
182,192,194341,1,0,0:0:0:0:
109,192,194434,1,0,0:0:0:0:
36,192,194527,128,0,195823:0:0:0:0:
329,192,194527,1,0,0:0:0:0:
256,192,194527,128,0,194897:0:0:0:0:
402,192,194897,1,0,0:0:0:0:
475,192,194897,1,0,0:0:0:0:
182,192,195082,1,0,0:0:0:0:
329,192,195082,128,0,195453:0:0:0:0:
402,192,195453,1,0,0:0:0:0:
109,192,195638,1,0,0:0:0:0:
329,192,195823,1,0,0:0:0:0:
256,192,195823,1,0,0:0:0:0:
475,192,195823,1,0,0:0:0:0:
182,192,196193,1,0,0:0:0:0:
402,192,196378,1,0,0:0:0:0:
475,192,196378,1,0,0:0:0:0:
109,192,196564,1,0,0:0:0:0:
329,192,196749,1,0,0:0:0:0:
402,192,196749,1,0,0:0:0:0:
182,192,196934,1,0,0:0:0:0:
402,192,197119,1,0,0:0:0:0:
475,192,197119,1,0,0:0:0:0:
109,192,197304,1,0,0:0:0:0:
329,192,197490,1,0,0:0:0:0:
475,192,197490,1,0,0:0:0:0:
36,192,197675,1,0,0:0:0:0:
182,192,197675,1,0,0:0:0:0:
109,192,197860,1,0,0:0:0:0:
256,192,197860,1,0,0:0:0:0:
402,192,198045,128,0,198601:0:0:0:0:
182,192,198415,1,0,0:0:0:0:
36,192,198601,1,0,0:0:0:0:
329,192,198601,1,0,0:0:0:0:
36,192,198786,1,0,0:0:0:0:
329,192,198786,1,0,0:0:0:0:
475,192,198971,128,0,199712:0:0:0:0:
109,192,198971,1,0,0:0:0:0:
256,192,199341,1,0,0:0:0:0:
402,192,199341,1,0,0:0:0:0:
36,192,199341,1,0,0:0:0:0:
182,192,199712,128,0,200453:0:0:0:0:
109,192,199712,1,0,0:0:0:0:
109,192,199897,1,0,0:0:0:0:
329,192,200082,1,0,0:0:0:0:
475,192,200082,1,0,0:0:0:0:
256,192,200267,1,0,0:0:0:0:
36,192,200453,1,0,0:0:0:0:
182,192,200638,1,0,0:0:0:0:
329,192,200823,1,0,0:0:0:0:
475,192,200823,1,0,0:0:0:0:
256,192,201008,1,0,0:0:0:0:
36,192,201193,1,0,0:0:0:0:
182,192,201193,1,0,0:0:0:0:
256,192,201378,1,0,0:0:0:0:
329,192,201564,1,0,0:0:0:0:
475,192,201564,1,0,0:0:0:0:
256,192,201749,1,0,0:0:0:0:
109,192,201934,128,0,202304:0:0:0:0:
402,192,201934,128,0,202304:0:0:0:0:
182,192,202304,1,0,0:0:0:0:
329,192,202304,1,0,0:0:0:0:
36,192,202490,128,0,202860:0:0:0:0:
475,192,202490,128,0,202860:0:0:0:0:
256,192,202675,1,0,0:0:0:0:
182,192,202860,128,0,203230:0:0:0:0:
329,192,202860,128,0,203230:0:0:0:0:
256,192,203045,1,0,0:0:0:0:
475,192,203230,128,0,203415:0:0:0:0:
36,192,203230,128,0,203415:0:0:0:0:
256,192,203415,1,0,0:0:0:0:
109,192,203786,1,0,0:0:0:0:
402,192,203786,1,0,0:0:0:0:
329,192,204156,1,0,0:0:0:0:
475,192,204156,1,0,0:0:0:0:
256,192,204341,1,0,0:0:0:0:
36,192,204527,1,0,0:0:0:0:
182,192,204527,1,0,0:0:0:0:
256,192,204712,1,0,0:0:0:0:
109,192,204897,1,0,0:0:0:0:
402,192,204897,1,0,0:0:0:0:
256,192,205453,1,0,0:0:0:0:
109,192,205638,1,0,0:0:0:0:
402,192,205638,1,0,0:0:0:0:
256,192,205823,1,0,0:0:0:0:
109,192,206008,1,0,0:0:0:0:
402,192,206008,1,0,0:0:0:0:
256,192,206193,1,0,0:0:0:0:
36,192,206378,1,0,0:0:0:0:
182,192,206378,1,0,0:0:0:0:
329,192,206564,1,0,0:0:0:0:
475,192,206564,1,0,0:0:0:0:
36,192,206749,1,0,0:0:0:0:
182,192,206749,1,0,0:0:0:0:
329,192,206934,1,0,0:0:0:0:
475,192,206934,1,0,0:0:0:0:
109,192,207490,1,0,0:0:0:0:
402,192,207490,1,0,0:0:0:0:
329,192,207675,128,0,213786:0:0:0:0:
182,192,207675,128,0,213786:0:0:0:0:
