osu file format v14

[General]
AudioFilename: tiger.mp3
AudioLeadIn: 0
PreviewTime: 62889
Countdown: 0
SampleSet: Normal
StackLeniency: 0.7
Mode: 1
LetterboxInBreaks: 0
WidescreenStoryboard: 0

[Editor]
DistanceSpacing: 0.6
BeatDivisor: 4
GridSize: 4
TimelineZoom: 1

[Metadata]
Title:Horangpungnyuga
TitleUnicode:호랑풍류가
Artist:Narae
ArtistUnicode:나래
Creator:Sylphi
Version:Kantan
Source:나와 호랑이님
Tags:상록수 SQUARE MUSIQ MVZ Production My Tiger's O2Jam Light Novel Underflow Genocide PatZar
BeatmapID:794949
BeatmapSetID:361884

[Difficulty]
HPDrainRate:9
CircleSize:2
OverallDifficulty:3
ApproachRate:5
SliderMultiplier:1.4
SliderTickRate:1

[Events]
//Background and Video events
0,0,"1.jpg",0,50
Video,0,"25.mp4"
//Break Periods
//Storyboard Layer 0 (Background)
//Storyboard Layer 1 (Fail)
//Storyboard Layer 2 (Pass)
//Storyboard Layer 3 (Foreground)
//Storyboard Sound Samples

[TimingPoints]
264,375,4,1,0,80,1,0
51264,-100,4,1,0,50,0,0
57264,-100,4,1,0,65,0,0
63264,-100,4,1,0,80,0,1
93264,-100,4,1,0,80,0,0

[HitObjects]
256,192,264,5,4,0:0:0:0:
256,192,1014,1,4,0:0:0:0:
256,192,1764,1,4,0:0:0:0:
256,192,3264,1,6,0:0:0:0:
256,192,4014,1,0,0:0:0:0:
256,192,4389,1,0,0:0:0:0:
256,192,4764,1,2,0:0:0:0:
256,192,6264,1,2,0:0:0:0:
256,192,7014,1,2,0:0:0:0:
256,192,7389,1,0,0:0:0:0:
256,192,7764,1,2,0:0:0:0:
256,192,9264,1,6,0:0:0:0:
256,192,10014,1,0,0:0:0:0:
256,192,10389,1,0,0:0:0:0:
256,192,10764,1,2,0:0:0:0:
256,192,12264,1,2,0:0:0:0:
256,192,13014,1,2,0:0:0:0:
256,192,13389,1,0,0:0:0:0:
256,192,13764,1,4,0:0:0:0:
256,192,15264,1,4,0:0:0:0:
256,192,16014,1,2,0:0:0:0:
256,192,16764,1,2,0:0:0:0:
256,192,17514,1,0,0:0:0:0:
256,192,17889,1,2,0:0:0:0:
256,192,18264,1,2,0:0:0:0:
256,192,19014,1,2,0:0:0:0:
256,192,19764,1,0,0:0:0:0:
256,192,20514,1,2,0:0:0:0:
256,192,20889,1,0,0:0:0:0:
256,192,21264,1,2,0:0:0:0:
256,192,22014,1,0,0:0:0:0:
256,192,22764,1,2,0:0:0:0:
256,192,23514,1,0,0:0:0:0:
256,192,23889,1,2,0:0:0:0:
256,192,24264,1,2,0:0:0:0:
256,192,25014,1,0,0:0:0:0:
256,192,25764,1,2,0:0:0:0:
256,192,27264,1,4,0:0:0:0:
256,192,28014,1,2,0:0:0:0:
256,192,28764,1,2,0:0:0:0:
256,192,29514,1,0,0:0:0:0:
256,192,29889,1,2,0:0:0:0:
256,192,30264,1,2,0:0:0:0:
256,192,31014,1,2,0:0:0:0:
256,192,31764,1,0,0:0:0:0:
256,192,32514,1,2,0:0:0:0:
256,192,32889,1,0,0:0:0:0:
256,192,33264,1,2,0:0:0:0:
256,192,34014,1,0,0:0:0:0:
256,192,34764,1,2,0:0:0:0:
256,192,35514,1,0,0:0:0:0:
256,192,35889,1,2,0:0:0:0:
256,192,36264,1,2,0:0:0:0:
256,192,37014,1,0,0:0:0:0:
256,192,37764,1,2,0:0:0:0:
256,192,39264,1,4,0:0:0:0:
256,192,40014,1,2,0:0:0:0:
256,192,40576,1,2,0:0:0:0:
256,192,41514,1,0,0:0:0:0:
256,192,41889,1,2,0:0:0:0:
256,192,42264,1,0,0:0:0:0:
256,192,43014,1,2,0:0:0:0:
256,192,43764,1,0,0:0:0:0:
256,192,45264,1,4,0:0:0:0:
256,192,46014,1,2,0:0:0:0:
256,192,46576,1,0,0:0:0:0:
256,192,47514,1,2,0:0:0:0:
256,192,47889,1,2,0:0:0:0:
256,192,48264,1,0,0:0:0:0:
256,192,49014,1,0,0:0:0:0:
256,192,49764,1,2,0:0:0:0:
256,192,50514,1,2,0:0:0:0:
256,192,51264,1,0,0:0:0:0:
256,192,52764,1,0,0:0:0:0:
256,192,54264,1,2,0:0:0:0:
256,192,55014,1,2,0:0:0:0:
256,192,55764,1,0,0:0:0:0:
256,192,57264,1,0,0:0:0:0:
256,192,58014,1,2,0:0:0:0:
256,192,58764,1,2,0:0:0:0:
256,192,60264,1,2,0:0:0:0:
256,192,61014,1,2,0:0:0:0:
256,192,61764,1,4,0:0:0:0:
256,192,63264,1,4,0:0:0:0:
256,192,64014,1,2,0:0:0:0:
256,192,64764,1,2,0:0:0:0:
256,192,65139,1,0,0:0:0:0:
256,192,65514,1,2,0:0:0:0:
256,192,66264,1,0,0:0:0:0:
256,192,67014,1,2,0:0:0:0:
256,192,67389,1,2,0:0:0:0:
256,192,67764,1,0,0:0:0:0:
256,192,69264,1,0,0:0:0:0:
256,192,70014,1,2,0:0:0:0:
256,192,70764,1,2,0:0:0:0:
256,192,71139,1,0,0:0:0:0:
256,192,71514,1,2,0:0:0:0:
256,192,72264,1,0,0:0:0:0:
256,192,73014,1,2,0:0:0:0:
256,192,73389,1,2,0:0:0:0:
256,192,73764,1,4,0:0:0:0:
256,192,75264,1,4,0:0:0:0:
256,192,76014,1,2,0:0:0:0:
256,192,76764,1,2,0:0:0:0:
256,192,77139,1,0,0:0:0:0:
256,192,77514,1,2,0:0:0:0:
256,192,78264,1,0,0:0:0:0:
256,192,79014,1,2,0:0:0:0:
256,192,79389,1,2,0:0:0:0:
256,192,79764,1,0,0:0:0:0:
256,192,81264,1,0,0:0:0:0:
256,192,82014,1,2,0:0:0:0:
256,192,82764,1,2,0:0:0:0:
256,192,83139,1,0,0:0:0:0:
256,192,83514,1,2,0:0:0:0:
256,192,84264,1,0,0:0:0:0:
256,192,85014,1,2,0:0:0:0:
256,192,85389,1,0,0:0:0:0:
256,192,85764,1,4,0:0:0:0:
256,192,87264,1,4,0:0:0:0:
256,192,88014,1,2,0:0:0:0:
256,192,88389,1,0,0:0:0:0:
256,192,88764,1,4,0:0:0:0:
256,192,90264,1,4,0:0:0:0:
256,192,91014,1,2,0:0:0:0:
256,192,91389,1,0,0:0:0:0:
256,192,91764,1,6,0:0:0:0:
256,192,92514,1,4,0:0:0:0:
256,192,93264,1,6,0:0:0:0:
256,192,96264,1,6,0:0:0:0:
256,192,97014,1,0,0:0:0:0:
256,192,97389,1,0,0:0:0:0:
256,192,97764,1,2,0:0:0:0:
256,192,99264,1,2,0:0:0:0:
256,192,100014,1,2,0:0:0:0:
256,192,100389,1,0,0:0:0:0:
256,192,100764,1,2,0:0:0:0:
256,192,102264,1,6,0:0:0:0:
256,192,103014,1,0,0:0:0:0:
256,192,103389,1,0,0:0:0:0:
256,192,103764,1,2,0:0:0:0:
256,192,105264,1,4,0:0:0:0:
256,192,106014,1,4,0:0:0:0:
256,192,106764,1,4,0:0:0:0:
256,192,107514,1,4,0:0:0:0:
256,192,107889,1,2,0:0:0:0:
