osu file format v14

[General]
AudioFilename: audio.mp3
AudioLeadIn: 0
PreviewTime: 63067
Countdown: 0
SampleSet: Soft
StackLeniency: 0.2
Mode: 0
LetterboxInBreaks: 0
WidescreenStoryboard: 0

[Editor]
Bookmarks: 71317,83505
DistanceSpacing: 2.7
BeatDivisor: 4
GridSize: 4
TimelineZoom: 2.2

[Metadata]
Title:Horangpungnyuga
TitleUnicode:호랑풍류가
Artist:Narae
ArtistUnicode:나래
Creator:-ClariS-
Version:Koiyuki's Insane
Source:나와 호랑이님
Tags:상록수 lunala Rin_Sa wyrio Byakuya Koiyuki mtbbsben Minakami_Yuki Kanor yf_bmp Firika Horang Pungryuga
BeatmapID:2028782
BeatmapSetID:961362

[Difficulty]
HPDrainRate:6
CircleSize:4
OverallDifficulty:7.5
ApproachRate:9
SliderMultiplier:1.6
SliderTickRate:1

[Events]
//Background and Video events
0,0,"BG.jpg",0,0
Video,0,"PV.avi"
//Break Periods
2,51455,56655
//Storyboard Layer 0 (Background)
//Storyboard Layer 1 (Fail)
//Storyboard Layer 2 (Pass)
//Storyboard Layer 3 (Foreground)
//Storyboard Layer 4 (Overlay)
//Storyboard Sound Samples

[TimingPoints]
255,375,4,2,3,50,1,0
3255,-100,4,2,3,80,0,0
15255,-100,4,2,3,60,0,0
39255,-100,4,2,3,50,0,0
48255,-100,4,2,3,60,0,0
48630,-100,4,2,3,70,0,0
49005,-100,4,2,3,80,0,0
49380,-100,4,2,3,90,0,0
49755,-100,4,2,3,100,0,0
51255,-100,4,2,3,70,0,0
57255,-200,4,2,3,50,0,0
61567,-200,4,2,3,70,0,0
61755,-83.3333333333333,4,2,3,80,0,0
62598,-100,4,2,3,60,0,0
63255,-100,4,2,3,100,0,1
91755,-133.333333333333,4,2,3,100,0,1
94755,-133.333333333333,4,2,3,100,0,0
95317,-133.333333333333,4,2,3,5,0,0
95505,-133.333333333333,4,2,3,80,0,0

[Colours]
Combo1 : 255,128,192
Combo2 : 86,252,86
Combo3 : 0,255,255
Combo4 : 192,192,192

[HitObjects]
204,316,255,6,0,P|186:322|169:333,1,40,8|0,0:0|0:0,0:0:0:0:
278,246,536,1,8,0:0:0:0:
291,261,630,2,0,P|328:275|376:271,1,80,0|8,0:0|0:0,0:0:0:0:
506,231,1005,6,0,L|511:275,1,40,12|0,0:0|0:0,0:0:0:0:
451,107,1286,1,8,0:0:0:0:
436,120,1380,2,0,L|426:203,1,80,0|8,0:0|0:0,0:0:0:0:
371,39,1755,6,0,P|395:32|417:23,1,40,8|0,0:0|0:0,0:0:0:0:
303,122,2036,1,8,0:0:0:0:
291,105,2130,2,0,P|252:85|201:79,1,80,0|8,0:0|0:0,0:0:0:0:
28,118,2505,5,2,0:3:0:0:
135,33,2692,1,0,0:0:0:0:
23,124,2880,1,10,0:3:0:0:
220,166,3067,1,0,0:0:0:0:
18,130,3255,6,0,P|60:118|120:112,1,80,2|0,0:3|0:0,0:0:0:0:
166,291,3630,2,0,P|127:302|88:308,1,80,8|0,0:3|0:0,0:0:0:0:
220,166,4005,5,2,0:3:0:0:
172,286,4192,1,0,0:0:0:0:
306,147,4380,1,10,0:3:0:0:
345,334,4567,1,0,0:0:0:0:
487,259,4755,6,0,P|487:299|478:347,1,80,2|0,0:3|0:0,0:0:0:0:
256,368,5130,2,0,P|256:329|263:289,1,80,8|0,0:3|0:0,0:0:0:0:
392,128,5505,5,2,0:3:0:0:
220,166,5692,1,0,0:0:0:0:
398,132,5880,1,10,0:3:0:0:
260,70,6067,1,0,0:0:0:0:
404,136,6255,6,0,P|440:120|479:110,1,80,2|0,0:3|0:0,0:0:0:0:
339,315,6630,2,0,P|300:305|264:290,1,80,8|0,0:3|0:0,0:0:0:0:
260,70,7005,5,2,0:3:0:0:
324,218,7192,1,0,0:0:0:0:
179,106,7380,1,10,0:3:0:0:
133,317,7567,1,2,0:3:0:0:
193,184,7755,6,0,P|189:144|179:106,1,80,2|0,0:3|0:0,0:0:0:0:
6,22,8130,2,0,P|10:61|20:100,1,80,8|0,0:3|0:0,0:0:0:0:
191,191,8505,5,2,0:3:0:0:
67,252,8692,1,0,0:0:0:0:
189,198,8880,1,10,0:3:0:0:
20,100,9067,1,0,0:0:0:0:
132,317,9255,6,0,P|97:335|58:344,1,80,2|0,0:3|0:0,0:0:0:0:
187,205,9630,2,0,P|225:213|261:232,1,80,8|0,0:3|0:0,0:0:0:0:
400,365,10005,5,2,0:3:0:0:
477,262,10192,1,0,0:0:0:0:
291,314,10380,1,10,0:3:0:0:
408,362,10567,1,0,0:0:0:0:
261,232,10755,6,0,P|266:189|279:141,1,80,2|0,0:3|0:0,0:0:0:0:
461,43,11130,2,0,P|456:86|443:134,1,80,8|0,0:3|0:0,0:0:0:0:
280,148,11505,5,2,0:3:0:0:
375,61,11692,1,0,0:0:0:0:
285,142,11880,1,10,0:3:0:0:
494,195,12067,1,0,0:0:0:0:
289,136,12255,6,0,P|250:142|211:151,1,80,2|0,0:3|0:0,0:0:0:0:
415,210,12630,2,0,P|454:203|493:194,1,80,8|0,0:3|0:0,0:0:0:0:
302,10,13005,5,8,0:3:0:0:
261,232,13192,1,8,0:3:0:0:
447,121,13380,1,8,0:3:0:0:
233,68,13567,1,8,0:3:0:0:
334,287,13755,6,0,P|342:326|347:365,1,80,4|0,0:0|0:0,0:0:0:0:
409,244,14036,1,0,0:0:0:0:
425,257,14130,2,0,P|433:296|438:335,1,80,8|0,0:3|0:0,0:0:0:0:
85,335,14505,6,0,P|88:315|92:295,1,40,8|0,0:0|0:0,0:0:0:0:
160,377,14786,1,8,0:0:0:0:
176,365,14880,2,0,P|181:326|190:287,1,80,0|8,0:0|0:0,0:0:0:0:
27,227,15255,5,12,0:3:0:0:
41,213,15348,2,0,P|39:173|26:135,1,80
14,119,15630,2,0,L|93:129,1,80,8|0,0:0|0:0,0:0:0:0:
210,46,16005,1,8,0:3:0:0:
193,35,16098,2,0,L|146:44,2,40
276,101,16380,2,0,P|288:63|290:23,1,80,8|0,0:0|0:0,0:0:0:0:
510,131,16755,5,8,0:3:0:0:
490,127,16848,1,0,0:0:0:0:
470,123,16942,1,0,0:0:0:0:
450,119,17036,1,0,0:0:0:0:
429,115,17130,2,0,P|392:130|353:141,1,80,8|0,0:0|0:0,0:0:0:0:
241,327,17505,1,8,0:3:0:0:
258,338,17598,2,0,P|294:322|333:311,1,80
390,254,17880,2,0,L|438:268,1,40,8|0,0:0|0:0,0:0:0:0:
486,322,18067,2,0,L|495:360,1,40
349,322,18255,5,12,0:3:0:0:
333,310,18348,2,0,P|294:321|258:338,1,80
241,327,18630,2,0,P|194:314|156:294,1,80,8|0,0:0|0:0,0:0:0:0:
57,183,19005,1,8,0:3:0:0:
68,167,19098,2,0,L|64:117,2,40
20,252,19380,2,0,P|10:297|7:343,1,80,8|0,0:0|0:0,0:0:0:0:
150,180,19755,5,8,0:3:0:0:
148,160,19848,1,0,0:0:0:0:
146,140,19942,1,0,0:0:0:0:
145,120,20036,1,0,0:0:0:0:
142,99,20130,2,0,P|152:54|155:8,1,80,8|0,0:0|0:0,0:0:0:0:
312,171,20505,1,8,0:3:0:0:
297,157,20598,2,0,P|287:112|284:66,1,80
380,8,20880,2,0,L|375:48,1,40,8|0,0:0|0:0,0:0:0:0:
448,83,21067,2,0,L|423:114,1,40
294,61,21255,5,12,0:3:0:0:
284,78,21348,2,0,P|287:118|297:157,1,80
312,170,21630,2,0,P|351:177|389:189,1,80,8|0,0:0|0:0,0:0:0:0:
466,330,22005,1,8,0:3:0:0:
481,317,22098,2,0,L|476:270,2,40
395,363,22380,2,0,P|355:356|317:344,1,80,8|0,0:0|0:0,0:0:0:0:
130,298,22755,5,8,0:3:0:0:
110,300,22848,1,0,0:0:0:0:
91,308,22942,1,0,0:0:0:0:
76,322,23036,1,0,0:0:0:0:
65,337,23130,2,0,P|57:299|36:265,1,80,8|0,0:0|0:0,0:0:0:0:
103,84,23505,1,8,0:3:0:0:
85,74,23598,2,0,P|93:112|114:146,1,80
176,198,23880,1,8,0:0:0:0:
21,157,24067,1,0,0:0:0:0:
235,121,24255,5,4,0:3:0:0:
225,103,24348,2,0,L|322:111,1,80,2|0,0:0|0:0,0:0:0:0:
372,155,24630,1,8,0:0:0:0:
282,11,24817,1,0,0:0:0:0:
176,198,25005,2,0,L|186:236,1,40,8|0,0:3|0:0,0:0:0:0:
260,203,25192,2,0,L|270:241,1,40
114,146,25380,1,8,0:0:0:0:
65,337,25567,1,0,0:0:0:0:
196,274,25755,6,0,L|186:236,1,40,8|0,0:3|0:0,0:0:0:0:
280,279,25942,2,0,L|270:241,1,40
304,109,26130,1,8,0:0:0:0:
114,146,26317,1,0,0:0:0:0:
282,11,26505,1,10,0:0:0:0:
265,21,26598,2,0,L|211:13,2,40,0|0|10,0:0|0:0|0:0,0:0:0:0:
359,42,26880,2,0,P|396:28|435:20,1,80,0|10,0:0|0:0,0:0:0:0:
189,97,27255,5,12,0:3:0:0:
176,81,27348,2,0,P|139:67|100:59,1,80
83,46,27630,2,0,L|96:131,1,80,8|0,0:0|0:0,0:0:0:0:
11,298,28005,1,8,0:3:0:0:
14,278,28098,1,0,0:0:0:0:
17,258,28192,1,0,0:0:0:0:
20,238,28286,1,0,0:0:0:0:
23,218,28380,1,8,0:0:0:0:
201,180,28567,1,0,0:0:0:0:
83,349,28755,5,8,0:3:0:0:
96,334,28848,2,0,L|102:294,2,40
170,373,29130,2,0,P|207:359|246:351,1,80,8|0,0:0|0:0,0:0:0:0:
374,241,29505,1,8,0:3:0:0:
357,251,29598,2,0,L|302:242,1,40
506,316,29786,1,0,0:0:0:0:
491,302,29880,2,0,L|400:316,1,80,8|0,0:0|0:0,0:0:0:0:
239,227,30255,5,12,0:3:0:0:
223,212,30348,2,0,P|211:175|208:135,1,80
223,121,30630,2,0,P|235:83|238:43,1,80,8|0,0:0|0:0,0:0:0:0:
70,51,31005,1,8,0:3:0:0:
90,54,31099,1,0,0:0:0:0:
110,57,31193,1,0,0:0:0:0:
130,60,31287,1,0,0:0:0:0:
150,64,31380,1,8,0:0:0:0:
321,19,31567,1,0,0:0:0:0:
451,138,31755,5,8,0:3:0:0:
468,127,31848,2,0,L|514:132,2,40
401,76,32130,2,0,P|367:97|330:111,1,80,8|0,0:0|0:0,0:0:0:0:
150,64,32505,1,8,0:3:0:0:
167,73,32598,2,0,L|161:16,1,40
69,123,32786,1,0,0:0:0:0:
53,110,32880,2,0,L|62:201,1,80,8|0,0:0|0:0,0:0:0:0:
112,341,33255,5,12,0:3:0:0:
120,358,33348,2,0,P|82:344|42:339,1,80
24,349,33630,2,0,L|16:269,1,80,8|0,0:0|0:0,0:0:0:0:
159,197,34005,1,8,0:3:0:0:
178,196,34098,1,0,0:0:0:0:
198,191,34192,1,0,0:0:0:0:
216,182,34286,1,0,0:0:0:0:
232,170,34380,1,8,0:0:0:0:
60,189,34567,1,0,0:0:0:0:
211,281,34755,5,8,0:3:0:0:
198,296,34848,2,0,L|202:343,2,40
289,306,35130,2,0,L|296:226,1,80,8|0,0:0|0:0,0:0:0:0:
150,64,35505,1,8,0:3:0:0:
167,73,35598,2,0,L|171:113,1,40
60,189,35786,1,0,0:0:0:0:
76,177,35880,2,0,P|38:162|-3:160,1,80,8|0,0:0|0:0,0:0:0:0:
228,9,36255,5,12,0:3:0:0:
245,18,36348,2,0,L|254:108,1,80,2|0,0:0|0:0,0:0:0:0:
223,175,36630,1,8,0:0:0:0:
387,75,36817,1,0,0:0:0:0:
500,260,37005,2,0,L|496:220,1,40,8|0,0:3|0:0,0:0:0:0:
415,246,37192,2,0,L|411:206,1,40
472,89,37380,1,8,0:0:0:0:
330,232,37567,1,0,0:0:0:0:
492,180,37755,6,0,L|496:220,1,40,8|0,0:3|0:0,0:0:0:0:
407,166,37942,2,0,L|411:206,1,40
423,361,38130,1,8,0:0:0:0:
330,232,38317,1,0,0:0:0:0:
472,89,38505,1,10,0:0:0:0:
467,69,38598,2,0,L|471:29,2,40,0|0|10,0:0|0:0|0:0,0:0:0:0:
386,74,38880,2,0,P|348:66|313:46,1,80,0|10,0:0|0:0,0:0:0:0:
160,94,39255,5,4,0:3:0:0:
226,22,39442,1,0,0:0:0:0:
227,29,39536,1,0,0:0:0:0:
228,36,39630,1,10,0:0:0:0:
80,68,39817,2,0,L|75:107,1,40
64,55,40005,2,0,L|52:151,1,80
93,306,40380,1,10,0:0:0:0:
14,260,40567,1,0,0:0:0:0:
18,253,40661,1,0,0:0:0:0:
24,247,40755,6,0,P|57:225|95:214,1,80
169,178,41036,1,0,0:0:0:0:
177,178,41130,2,0,P|215:185|250:204,1,80,10|0,0:0|0:0,0:0:0:0:
328,231,41411,1,0,0:0:0:0:
333,237,41505,1,0,0:0:0:0:
259,342,41692,1,2,0:0:0:0:
320,151,41880,1,10,0:0:0:0:
455,298,42067,1,0,0:0:0:0:
449,317,42161,1,0,0:0:0:0:
442,335,42255,6,0,P|432:277|453:222,1,120
509,164,42630,1,10,0:0:0:0:
338,243,42817,5,0,0:0:0:0:
455,98,43005,1,0,0:0:0:0:
333,237,43192,1,0,0:0:0:0:
401,32,43380,1,10,0:0:0:0:
328,231,43567,1,0,0:0:0:0:
393,34,43755,5,0,0:0:0:0:
409,195,43942,1,0,0:0:0:0:
385,36,44130,1,10,0:0:0:0:
490,159,44317,1,0,0:0:0:0:
377,38,44505,1,0,0:0:0:0:
216,76,44692,1,2,0:0:0:0:
222,80,44786,1,0,0:0:0:0:
228,84,44880,2,0,L|287:66,1,40,10|0,0:0|0:0,0:0:0:0:
140,20,45067,2,0,L|130:73,1,40,2|0,0:0|0:0,0:0:0:0:
159,186,45255,5,4,0:3:0:0:
83,125,45442,1,0,0:0:0:0:
84,133,45535,1,0,0:0:0:0:
85,141,45630,1,10,0:0:0:0:
246,177,45817,2,0,L|238:216,1,40
263,167,46005,2,0,L|243:273,1,80
95,324,46380,1,10,0:0:0:0:
16,365,46567,1,0,0:0:0:0:
12,358,46661,1,0,0:0:0:0:
8,350,46755,6,0,P|6:310|19:272,1,80
178,291,47036,1,0,0:0:0:0:
181,298,47130,2,0,P|182:337|169:375,1,80,10|0,0:0|0:0,0:0:0:0:
95,233,47411,1,0,0:0:0:0:
114,236,47505,1,2,0:0:0:0:
263,167,47692,1,2,0:0:0:0:
71,151,47880,1,10,0:0:0:0:
306,252,48067,1,0,0:0:0:0:
313,250,48161,1,0,0:0:0:0:
320,248,48255,6,0,L|375:257,3,40,2|0|0|0,0:0|0:0|0:0|0:0,0:0:0:0:
422,310,48630,2,0,L|457:266,3,40,8|0|0|0,0:0|0:0|0:0|0:0,0:0:0:0:
496,212,49005,5,2,0:0:0:0:
495,204,49098,1,0,0:0:0:0:
494,195,49192,1,0,0:0:0:0:
493,186,49286,1,0,0:0:0:0:
492,177,49380,2,0,L|504:121,1,40,8|0,0:0|0:0,0:0:0:0:
419,49,49567,2,0,L|410:88,1,40
315,132,49755,5,2,0:0:0:0:
283,155,49848,1,0,0:0:0:0:
244,161,49942,1,0,0:0:0:0:
206,148,50036,1,0,0:0:0:0:
180,119,50130,1,10,0:0:0:0:
170,81,50223,1,0,0:0:0:0:
180,42,50317,1,0,0:0:0:0:
207,13,50411,1,0,0:0:0:0:
244,0,50505,1,4,0:3:0:0:
253,81,51255,5,4,0:0:0:0:
259,303,57255,6,0,P|216:288|177:284,1,80,4|2,0:0|0:0,0:0:0:0:
26,252,58005,2,0,P|65:246|103:233,1,80,0|2,0:0|0:0,0:0:0:0:
160,177,58567,1,0,0:0:0:0:
197,104,58755,6,0,L|191:18,1,80,0|2,0:0|0:0,0:0:0:0:
361,216,59505,2,0,L|367:130,1,80,0|2,0:0|0:0,0:0:0:0:
355,295,60255,5,2,0:0:0:0:
371,56,60630,1,2,0:0:0:0:
491,195,61005,1,2,0:0:0:0:
416,147,61380,1,2,0:0:0:0:
361,216,61567,1,0,0:0:0:0:
491,195,61755,6,0,P|422:181|361:215,1,143.999995605469,6|0,0:0|0:0,0:0:0:0:
299,277,62130,6,0,B|274:248|274:212|274:212|260:246|212:270,1,143.999995605469,2|0,0:0|0:0,0:0:0:0:
250,349,62505,5,2,0:0:0:0:
264,362,62598,2,0,L|365:350,1,80
422,345,62880,5,2,0:0:0:0:
491,195,63067,1,0,0:0:0:0:
297,277,63255,6,0,P|278:243|272:203,1,80,4|8,0:0|0:0,0:0:0:0:
354,15,63630,1,8,0:3:0:0:
276,61,63817,1,8,0:0:0:0:
280,67,63911,1,0,0:0:0:0:
284,73,64005,2,0,P|228:51|179:53,1,80,0|8,0:0|0:0,0:0:0:0:
106,128,64380,1,8,0:3:0:0:
39,70,64567,1,8,0:0:0:0:
45,65,64660,1,0,0:0:0:0:
51,60,64755,6,0,L|57:17,1,40
110,134,64942,2,0,L|104:173,1,40,8|0,0:0|0:0,0:0:0:0:
18,199,65130,1,8,0:3:0:0:
201,150,65317,1,8,0:0:0:0:
205,158,65411,1,0,0:0:0:0:
209,165,65505,2,0,L|197:245,1,80,0|8,0:0|0:0,0:0:0:0:
22,205,65880,1,8,0:3:0:0:
115,370,66066,1,8,0:0:0:0:
112,362,66161,1,0,0:0:0:0:
109,354,66255,6,0,B|170:346|170:346|205:356|205:356|278:343,1,160,4|8,0:0|0:3,0:0:0:0:
351,371,66817,1,8,0:0:0:0:
510,333,67005,2,0,P|474:316|435:311,1,80,0|8,0:0|0:0,0:0:0:0:
428,314,67286,1,0,0:0:0:0:
422,319,67379,1,8,0:3:0:0:
493,177,67567,1,8,0:0:0:0:
492,169,67661,1,0,0:0:0:0:
490,161,67755,5,2,0:0:0:0:
299,260,67942,1,8,0:0:0:0:
421,226,68130,1,8,0:3:0:0:
226,195,68317,1,8,0:0:0:0:
394,96,68505,5,0,0:0:0:0:
399,101,68692,2,0,L|406:152,1,40,10|0,0:0|0:0,0:0:0:0:
299,260,68880,1,8,0:3:0:0:
304,255,69067,2,0,L|311:204,1,40,10|0,0:0|0:0,0:0:0:0:
204,35,69255,6,0,L|214:114,1,80,4|8,0:0|0:0,0:0:0:0:
44,209,69630,1,8,0:3:0:0:
114,154,69817,1,8,0:0:0:0:
109,147,69911,1,0,0:0:0:0:
103,139,70005,2,0,P|67:122|27:119,1,80,0|8,0:0|0:0,0:0:0:0:
113,362,70380,1,8,0:3:0:0:
183,305,70567,1,8,0:0:0:0:
189,310,70661,1,0,0:0:0:0:
195,315,70755,6,0,L|190:264,1,40
113,362,70942,2,0,L|108:311,1,40,8|0,0:0|0:0,0:0:0:0:
44,209,71130,1,8,0:3:0:0:
265,258,71317,1,8,0:0:0:0:
271,263,71411,1,0,0:0:0:0:
277,268,71505,2,0,L|267:166,1,80,0|8,0:0|0:0,0:0:0:0:
204,35,71880,1,8,0:3:0:0:
20,93,72067,1,8,0:0:0:0:
15,86,72161,1,0,0:0:0:0:
10,79,72255,6,0,B|98:54|78:139|186:103,1,160,4|8,0:0|0:0,0:0:0:0:
204,35,72817,1,0,0:0:0:0:
276,192,73005,2,0,L|268:112,1,80,0|8,0:0|0:0,0:0:0:0:
267,104,73286,1,0,0:0:0:0:
266,96,73380,1,10,0:0:0:0:
120,188,73567,1,8,0:0:0:0:
400,260,73755,5,4,0:0:0:0:
36,341,74130,1,6,0:0:0:0:
476,43,74505,1,12,0:0:0:0:
461,56,74598,2,0,L|466:112,2,40,8|2|8,0:0|0:0|0:0,0:0:0:0:
374,22,74880,2,0,L|382:102,1,80,8|0,0:3|0:0,0:0:0:0:
490,261,75255,6,0,P|438:233|378:238,1,120,4|0,0:0|0:0,0:0:0:0:
369,254,75630,2,0,L|364:310,1,40,8|0,0:3|0:0,0:0:0:0:
422,354,75817,1,8,0:0:0:0:
285,319,76005,2,0,P|244:323|187:354,1,80,0|8,0:0|0:0,0:0:0:0:
167,199,76380,2,0,L|170:159,1,40,8|0,0:3|0:0,0:0:0:0:
86,240,76567,1,8,0:0:0:0:
83,232,76661,1,0,0:0:0:0:
80,224,76755,6,0,L|87:144,1,80,0|8,0:0|0:0,0:0:0:0:
114,67,77036,1,0,0:0:0:0:
109,60,77130,2,0,P|69:63|32:78,1,80,8|8,0:3|0:0,0:0:0:0:
252,178,77505,2,0,B|300:158|300:158|390:173,1,120
382,182,77880,2,0,L|377:126,1,40,8|0,0:3|0:0,0:0:0:0:
337,66,78067,1,8,0:0:0:0:
337,58,78160,1,0,0:0:0:0:
339,50,78255,6,0,P|411:64|480:13,1,160,4|8,0:0|0:3,0:0:0:0:
382,182,78817,1,8,0:0:0:0:
460,139,79005,2,0,L|467:218,1,80,0|8,0:0|0:0,0:0:0:0:
465,226,79286,1,0,0:0:0:0:
463,233,79380,1,8,0:3:0:0:
314,352,79567,1,8,0:0:0:0:
316,345,79661,1,0,0:0:0:0:
318,338,79755,5,2,0:0:0:0:
407,324,79942,1,10,0:0:0:0:
161,293,80130,2,0,L|166:237,1,40,8|0,0:3|0:0,0:0:0:0:
250,279,80317,1,10,0:0:0:0:
174,129,80505,5,0,0:0:0:0:
154,377,80692,1,10,0:0:0:0:
167,213,80880,2,0,L|164:253,1,40,8|0,0:3|0:0,0:0:0:0:
250,279,81067,1,10,0:0:0:0:
78,227,81255,6,0,L|87:106,1,120,4|0,0:0|0:0,0:0:0:0:
94,88,81630,2,0,P|78:98|59:105,1,40,8|0,0:3|0:0,0:0:0:0:
0,46,81817,1,8,0:0:0:0:
174,128,82005,2,0,P|209:110|248:101,1,80,0|8,0:0|0:0,0:0:0:0:
78,227,82380,2,0,L|23:233,1,40,8|0,0:3|0:0,0:0:0:0:
122,293,82567,1,8,0:0:0:0:
115,298,82661,1,0,0:0:0:0:
108,303,82755,6,0,L|28:311,1,80,0|8,0:0|0:0,0:0:0:0:
163,364,83036,1,0,0:0:0:0:
170,359,83130,2,0,P|207:339|251:330,1,80,8|8,0:3|0:0,0:0:0:0:
434,307,83505,2,0,P|372:299|327:262,1,120
321,246,83880,2,0,L|329:183,1,40,8|0,0:3|0:0,0:0:0:0:
389,150,84067,1,8,0:0:0:0:
387,142,84161,1,0,0:0:0:0:
385,134,84255,6,0,B|325:123|325:123|284:134|284:134|209:121,1,160,4|8,0:0|0:3,0:0:0:0:
326,206,84817,1,8,0:0:0:0:
272,46,85005,2,0,L|192:33,1,80,0|8,0:0|0:0,0:0:0:0:
185,36,85286,1,0,0:0:0:0:
177,38,85380,1,10,0:0:0:0:
354,14,85567,1,8,0:0:0:0:
231,239,85755,5,4,0:0:0:0:
56,54,86130,1,6,0:0:0:0:
456,330,86505,1,12,0:0:0:0:
472,318,86598,2,0,L|482:258,2,40,8|2|8,0:0|0:0|0:0,0:0:0:0:
378,295,86880,2,0,P|338:299|301:314,1,80,8|0,0:0|0:0,0:0:0:0:
490,193,87255,6,0,P|446:185|378:145,1,120,4|0,0:0|0:0,0:0:0:0:
369,131,87630,2,0,L|376:179,1,40,8|0,0:3|0:0,0:0:0:0:
438,80,87817,1,8,0:0:0:0:
305,20,88005,1,0,0:0:0:0:
440,72,88192,1,8,0:0:0:0:
255,140,88380,2,0,P|216:126|173:120,1,80,8|8,0:3|0:0,0:0:0:0:
14,96,88755,6,0,P|53:89|91:76,1,80,4|8,0:0|0:0,0:0:0:0:
96,70,89036,1,0,0:0:0:0:
100,63,89130,1,6,0:0:0:0:
197,208,89317,1,8,0:0:0:0:
194,215,89411,1,0,0:0:0:0:
191,222,89505,2,0,L|197:276,1,40,12|8,0:0|0:0,0:0:0:0:
106,202,89692,2,0,L|112:256,1,40,2|8,0:0|0:0,0:0:0:0:
21,182,89880,1,8,0:0:0:0:
177,120,90067,1,8,0:0:0:0:
68,348,90255,6,0,P|107:334|150:328,1,80,4|8,0:0|0:0,0:0:0:0:
349,256,90630,1,8,0:3:0:0:
191,222,90817,1,8,0:0:0:0:
357,254,91005,1,8,0:3:0:0:
145,328,91192,1,8,0:0:0:0:
365,252,91380,1,8,0:3:0:0:
106,202,91567,1,8,0:0:0:0:
373,250,91755,6,0,P|433:224|489:214,1,120.000004577637,8|8,0:3|0:3,0:0:0:0:
177,120,92505,2,0,P|118:108|63:84,1,120.000004577637,8|8,0:3|0:3,0:0:0:0:
256,290,93255,1,6,0:0:0:0:
256,192,93348,12,0,95317,0:0:0:0:
339,220,95505,5,2,0:3:0:0:
284,109,95692,1,2,0:3:0:0:
173,164,95879,1,2,0:3:0:0:
228,275,96067,1,2,0:3:0:0:
256,192,96255,5,4,0:0:0:0:
