osu file format v14

[General]
AudioFilename: audio.mp3
AudioLeadIn: 0
PreviewTime: 63067
Countdown: 0
SampleSet: Soft
StackLeniency: 0.4
Mode: 0
LetterboxInBreaks: 0
WidescreenStoryboard: 0

[Editor]
Bookmarks: 15255,27255,39255,51255,57255,63255,93255,95505
DistanceSpacing: 1
BeatDivisor: 4
GridSize: 4
TimelineZoom: 2.2

[Metadata]
Title:Horangpungnyuga
TitleUnicode:호랑풍류가
Artist:Narae
ArtistUnicode:나래
Creator:-ClariS-
Version:Byakuya's Insane
Source:나와 호랑이님
Tags:상록수 lunala Rin_Sa wyrio Byakuya Koiyuki mtbbsben Minakami_Yuki Kanor yf_bmp Firika Horang Pungryuga
BeatmapID:2019743
BeatmapSetID:961362

[Difficulty]
HPDrainRate:4
CircleSize:4.5
OverallDifficulty:7
ApproachRate:8.5
SliderMultiplier:2.2
SliderTickRate:1

[Events]
//Background and Video events
0,0,"BG.jpg",0,0
Video,0,"PV.avi"
//Break Periods
2,51255,56580
//Storyboard Layer 0 (Background)
//Storyboard Layer 1 (Fail)
//Storyboard Layer 2 (Pass)
//Storyboard Layer 3 (Foreground)
//Storyboard Layer 4 (Overlay)
//Storyboard Sound Samples

[TimingPoints]
255,375,4,2,3,50,1,0
2505,-83.3333333333333,4,2,3,50,0,0
3255,-83.3333333333333,4,2,3,80,0,0
15255,-100,4,2,3,60,0,0
15348,-100,4,2,3,60,0,0
24255,-83.3333333333333,4,2,3,60,0,0
25755,-100,4,2,3,60,0,0
38880,-142.857142857143,4,2,3,60,0,0
39255,-142.857142857143,4,2,3,50,0,0
48255,-142.857142857143,4,2,3,60,0,0
48630,-142.857142857143,4,2,3,70,0,0
49005,-142.857142857143,4,2,3,80,0,0
49380,-142.857142857143,4,2,3,90,0,0
49755,-142.857142857143,4,2,3,100,0,0
61567,-100,4,2,92,65,0,0
61661,-100,4,2,93,65,0,0
61755,-142.857142857143,4,2,92,65,0,0
62505,-142.857142857143,4,2,92,65,0,0
62880,-83.3333333333333,4,2,92,65,0,0
63067,-83.3333333333333,4,2,92,65,0,0
63255,-100,4,2,92,70,0,1
63630,-100,4,2,92,70,0,1
64005,-100,4,2,92,70,0,1
65880,-100,4,2,92,70,0,1
66255,-100,4,2,92,70,0,1
67380,-100,4,2,92,70,0,1
67755,-100,4,2,92,70,0,1
69630,-100,4,2,92,70,0,1
70005,-100,4,2,92,70,0,1
71880,-100,4,2,92,70,0,1
72255,-100,4,2,92,70,0,1
73755,-200,4,2,92,100,0,1
75067,-100,4,2,92,100,0,1
75630,-100,4,2,92,70,0,1
76005,-100,4,2,92,70,0,1
77880,-100,4,2,92,70,0,1
78255,-100,4,2,92,70,0,1
79380,-100,4,2,92,70,0,1
81255,-100,4,2,92,70,0,1
81630,-100,4,2,92,70,0,1
82005,-100,4,2,92,70,0,1
83880,-100,4,2,92,70,0,1
84255,-100,4,2,92,70,0,1
85755,-200,4,2,92,100,0,1
87255,-100,4,2,92,70,0,1
87630,-100,4,2,92,70,0,1
88380,-100,4,2,92,70,0,1
88755,-200,4,2,92,70,0,1
90255,-100,4,2,92,70,0,1
90630,-100,4,2,92,70,0,1
91380,-100,4,2,92,70,0,1
91755,-200,4,2,92,70,0,1
93255,-100,4,2,90,65,0,1
95505,-100,4,2,90,65,0,0

[Colours]
Combo1 : 255,128,192
Combo2 : 86,252,86
Combo3 : 0,255,255
Combo4 : 192,192,192

[HitObjects]
114,140,255,5,8,0:0:0:0:
114,140,348,1,2,0:0:0:0:
0,89,536,1,0,0:0:0:0:
0,89,630,2,0,B|85:75|85:75|66:84|61:95,1,110,2|2,0:0|0:0,0:0:0:0:
114,140,1005,5,12,0:0:0:0:
114,140,1098,1,2,0:0:0:0:
125,266,1286,1,0,0:0:0:0:
125,266,1380,2,0,B|70:199|70:199|87:211|99:210,1,110,2|2,0:0|0:0,0:0:0:0:
114,140,1755,5,8,0:0:0:0:
114,140,1848,1,2,0:0:0:0:
114,140,1942,2,0,P|144:131|170:136,1,55,0|0,0:0|0:0,0:0:0:0:
215,189,2130,2,0,P|245:198|271:193,1,55,2|0,0:0|0:0,0:0:0:0:
390,136,2317,1,2,0:0:0:0:
390,136,2411,1,0,0:0:0:0:
390,136,2505,6,0,B|343:118|296:127|296:127|316:135|325:147,1,131.99999597168,2|0,0:3|0:0,0:0:0:0:
394,223,2880,1,2,0:3:0:0:
465,306,3067,1,0,0:0:0:0:
497,236,3255,6,0,B|460:223|414:230|439:253|393:260|355:247,1,131.99999597168,2|0,0:3|0:0,0:0:0:0:
208,255,3630,1,8,0:3:0:0:
223,249,3723,2,0,P|258:252|281:275,1,65.9999979858399,0|0,0:0|0:0,0:0:0:0:
155,313,4005,2,0,P|130:257|158:195,1,131.99999597168,2|0,0:3|0:0,0:0:0:0:
245,117,4380,1,10,0:3:0:0:
219,120,4473,2,0,P|186:112|163:82,1,65.9999979858399,0|0,0:0|0:0,0:0:0:0:
49,51,4755,6,0,B|73:38|102:45|102:45|132:71|160:61|160:61|146:57|137:49,1,131.99999597168,2|0,0:3|0:0,0:0:0:0:
76,119,5130,1,8,0:3:0:0:
78,135,5223,2,0,L|83:200,1,65.9999979858399,0|0,0:0|0:0,0:0:0:0:
161,286,5505,2,0,B|109:293|74:272|74:272|99:278|121:262,1,131.99999597168,2|0,0:3|0:0,0:0:0:0:
221,235,5880,1,10,0:3:0:0:
232,256,5973,2,0,P|239:292|227:325,1,65.9999979858399,0|0,0:0|0:0,0:0:0:0:
83,383,6255,5,2,0:3:0:0:
168,361,6442,1,0,0:0:0:0:
95,293,6630,1,8,0:3:0:0:
95,293,6723,2,0,P|56:292|29:305,1,65.9999979858399,0|0,0:0|0:0,0:0:0:0:
153,350,7005,1,2,0:3:0:0:
224,285,7192,1,2,0:3:0:0:
318,354,7380,1,10,0:3:0:0:
318,354,7473,2,0,P|284:352|252:369,1,65.9999979858399,0|2,0:0|0:3,0:0:0:0:
434,331,7755,6,0,B|392:313|364:315|364:315|336:339|289:332,1,131.99999597168,2|0,0:3|0:0,0:0:0:0:
306,198,8130,1,8,0:3:0:0:
306,198,8223,2,0,B|320:231|320:231|312:269,1,65.9999979858399,0|0,0:0|0:0,0:0:0:0:
203,134,8505,2,0,B|271:153|261:105|339:125,1,131.99999597168,2|0,0:3|0:0,0:0:0:0:
432,192,8880,1,10,0:3:0:0:
432,192,8973,1,0,0:0:0:0:
432,192,9067,1,0,0:0:0:0:
456,113,9255,6,0,B|427:101|398:112|398:112|396:102|396:102|367:115|336:107,1,131.99999597168,2|0,0:3|0:0,0:0:0:0:
260,0,9630,1,8,0:3:0:0:
260,0,9723,2,0,P|292:0|320:21,1,65.9999979858399,0|0,0:0|0:0,0:0:0:0:
218,63,10005,2,0,B|166:53|169:73|119:61|119:61|136:57|152:52,1,131.99999597168,2|0,0:3|0:0,0:0:0:0:
310,44,10380,1,10,0:3:0:0:
313,64,10473,1,0,0:0:0:0:
309,86,10567,1,0,0:0:0:0:
235,158,10755,6,0,B|247:167|263:170|263:170|233:172|208:181|208:181|182:165|158:168,1,131.99999597168,2|0,0:3|0:0,0:0:0:0:
0,176,11130,1,8,0:3:0:0:
17,174,11223,2,0,B|51:171|51:171|78:192,1,65.9999979858399,0|0,0:0|0:0,0:0:0:0:
33,362,11505,2,0,B|0:329|0:329|22:240,1,131.99999597168,2|0,0:3|0:0,0:0:0:0:
107,234,11880,1,10,0:3:0:0:
107,234,11973,1,0,0:0:0:0:
107,234,12067,1,0,0:0:0:0:
219,284,12255,6,0,B|142:268|158:319|78:304,1,131.99999597168,2|0,0:3|0:0,0:0:0:0:
269,224,12629,1,8,0:3:0:0:
269,224,12723,2,0,P|294:249|300:284,1,65.9999979858399,0|0,0:0|0:0,0:0:0:0:
194,215,13005,5,8,0:3:0:0:
233,88,13192,1,8,0:3:0:0:
171,137,13380,1,8,0:3:0:0:
245,92,13567,1,8,0:3:0:0:
386,26,13755,6,0,B|341:33|316:16|316:16|284:5|243:19|243:19|276:18|299:39,1,197.99999395752,4|0,0:0|0:0,0:0:0:0:
291,33,14130,1,12,0:0:0:0:
340,167,14317,2,0,B|352:139|352:139|341:103,1,65.9999979858399,0|0,0:0|0:0,0:0:0:0:
252,175,14505,1,4,0:0:0:0:
254,184,14598,1,0,0:0:0:0:
256,193,14692,1,0,0:0:0:0:
258,202,14786,1,0,0:0:0:0:
260,211,14880,1,8,0:3:0:0:
221,273,15067,1,4,0:2:0:0:
171,327,15255,5,4,0:3:0:0:
171,327,15348,2,0,L|56:320,1,110,2|0,0:0|0:0,0:0:0:0:
32,319,15630,2,0,B|10:269|10:269|27:209,1,110,2|0,0:0|0:0,0:0:0:0:
123,227,16005,1,0,0:0:0:0:
123,227,16098,2,0,L|69:223,1,55,0|0,0:0|0:0,0:0:0:0:
3,149,16286,1,0,0:0:0:0:
3,149,16380,2,0,P|29:143|58:150,1,55,2|0,0:0|0:0,0:0:0:0:
120,121,16567,2,0,L|177:119,1,55,0|0,0:0|0:0,0:0:0:0:
247,102,16755,5,0,0:0:0:0:
247,102,16848,2,0,B|256:131|256:131|249:162,2,55,0|0|0,0:0|0:0|0:0,0:0:0:0:
183,52,17130,2,0,P|176:21|185:-5,1,55,2|0,0:0|0:0,0:0:0:0:
280,24,17317,2,0,L|341:25,1,55,0|0,0:0|0:0,0:0:0:0:
454,42,17505,5,8,0:0:0:0:
441,53,17598,2,0,B|409:39|389:43|389:43|360:60|325:55,1,110,0|0,0:0|0:0,0:0:0:0:
323,89,17880,1,10,0:0:0:0:
408,123,18067,2,0,B|416:152|416:152|408:180,1,55,0|0,0:0|0:0,0:0:0:0:
352,221,18255,5,4,0:3:0:0:
352,221,18348,2,0,P|327:271|348:323,1,110,2|0,0:0|0:0,0:0:0:0:
336,346,18630,2,0,L|455:342,1,110,2|0,0:0|0:0,0:0:0:0:
512,249,19005,5,0,0:0:0:0:
512,249,19098,2,0,L|458:246,1,55,0|0,0:0|0:0,0:0:0:0:
282,322,19286,1,0,0:0:0:0:
282,322,19380,2,0,L|344:317,1,55,2|0,0:0|0:0,0:0:0:0:
459,278,19567,2,0,L|397:273,1,55,0|0,0:0|0:0,0:0:0:0:
297,222,19755,5,0,0:0:0:0:
297,222,19848,2,0,L|351:220,2,55,0|0|0,0:0|0:0|0:0,0:0:0:0:
237,158,20130,2,0,P|210:154|183:161,1,55,2|0,0:0|0:0,0:0:0:0:
140,216,20317,2,0,P|113:220|86:213,1,55,0|0,0:0|0:0,0:0:0:0:
48,128,20505,1,8,0:0:0:0:
48,128,20598,2,0,B|132:113|132:113|119:127|118:143,1,110,0|0,0:0|0:0,0:0:0:0:
117,147,20880,1,10,0:0:0:0:
4,210,21067,2,0,L|11:271,1,55,0|0,0:0|0:0,0:0:0:0:
34,278,21255,5,4,0:3:0:0:
34,278,21348,2,0,P|42:337|12:381,1,110,2|0,0:0|0:0,0:0:0:0:
8,375,21630,2,0,P|58:361|117:388,1,110,2|0,0:0|0:0,0:0:0:0:
217,328,22005,1,0,0:0:0:0:
217,328,22098,2,0,P|185:326|159:339,1,55,0|0,0:0|0:0,0:0:0:0:
270,384,22286,1,0,0:0:0:0:
270,384,22380,2,0,L|333:378,1,55,2|0,0:0|0:0,0:0:0:0:
289,310,22567,2,0,B|296:279|296:279|287:249,1,55,0|0,0:0|0:0,0:0:0:0:
228,217,22755,5,0,0:0:0:0:
228,217,22848,2,0,P|219:189|224:158,2,55,0|0|0,0:0|0:0|0:0,0:0:0:0:
294,184,23130,2,0,L|362:180,3,55,2|0|0|0,0:0|0:0|0:0|0:0,0:0:0:0:
364,141,23505,1,8,0:0:0:0:
364,141,23598,2,0,B|399:125|437:134|417:148|451:157|477:149,1,110,0|0,0:0|0:0,0:0:0:0:
483,135,23880,1,10,0:0:0:0:
394,204,24067,1,0,0:0:0:0:
333,302,24255,5,10,0:3:0:0:
333,302,24348,2,0,B|374:305|398:286|398:286|423:308|459:300,1,131.99999597168,2|0,0:0|0:0,0:0:0:0:
471,278,24630,1,2,0:0:0:0:
399,368,24817,1,0,0:0:0:0:
276,353,25005,1,0,0:0:0:0:
271,341,25098,2,0,B|238:329|211:345|211:345|209:341|209:341|211:345|211:345|184:360|150:347,1,131.99999597168,0|0,0:0|0:0,0:0:0:0:
18,291,25380,2,0,B|53:296|75:286|75:286|97:275|123:286|123:286|105:292|94:309,1,131.99999597168,8|0,0:0|0:0,0:0:0:0:
155,360,25755,5,0,0:0:0:0:
158,373,25848,1,0,0:0:0:0:
41,221,26036,1,0,0:0:0:0:
41,221,26130,2,0,P|25:168|48:118,1,110,8|0,0:0|0:0,0:0:0:0:
194,127,26504,5,10,0:3:0:0:
184,112,26598,1,2,0:0:0:0:
109,175,26786,1,0,0:0:0:0:
115,178,26879,1,2,0:0:0:0:
196,226,27067,1,4,0:0:0:0:
137,316,27255,5,4,0:3:0:0:
137,316,27348,2,0,P|193:310|236:343,1,110,2|0,0:0|0:0,0:0:0:0:
111,340,27630,2,0,L|108:225,1,110,2|0,0:0|0:0,0:0:0:0:
16,136,28005,5,0,0:0:0:0:
33,148,28098,1,0,0:0:0:0:
134,164,28286,1,0,0:0:0:0:
134,164,28380,2,0,B|100:148|74:164|74:164|46:176|14:166,1,110,2|0,0:0|0:0,0:0:0:0:
178,102,28754,1,0,0:0:0:0:
178,102,28848,2,0,P|203:126|208:157,1,55,0|0,0:0|0:0,0:0:0:0:
134,38,29036,1,0,0:0:0:0:
134,38,29130,2,0,P|160:25|189:26,1,55,2|0,0:0|0:0,0:0:0:0:
60,42,29317,1,0,0:0:0:0:
27,169,29505,5,8,0:0:0:0:
27,169,29598,2,0,P|78:180|128:156,1,110,0|0,0:0|0:0,0:0:0:0:
141,147,29880,2,0,P|192:136|242:160,1,110,10|0,0:0|0:0,0:0:0:0:
345,150,30255,5,4,0:3:0:0:
345,150,30348,2,0,L|335:262,1,110,2|0,0:0|0:0,0:0:0:0:
312,274,30630,1,2,0:0:0:0:
458,340,30817,1,0,0:0:0:0:
362,374,31005,5,0,0:0:0:0:
362,374,31098,2,0,L|367:320,1,55,0|0,0:0|0:0,0:0:0:0:
452,285,31286,1,0,0:0:0:0:
452,285,31380,2,0,L|457:339,1,55,2|0,0:0|0:0,0:0:0:0:
463,372,31567,1,0,0:0:0:0:
376,241,31755,5,0,0:0:0:0:
375,219,31848,1,0,0:0:0:0:
478,187,32036,1,0,0:0:0:0:
478,187,32130,2,0,B|431:208|431:208|373:192,1,110,2|0,0:0|0:0,0:0:0:0:
330,112,32505,1,8,0:0:0:0:
330,112,32598,2,0,P|295:111|272:126,2,55,0|0|0,0:0|0:0|0:0,0:0:0:0:
426,124,32880,2,0,P|449:70|428:23,1,110,10|0,0:0|0:0,0:0:0:0:
301,13,33255,5,4,0:3:0:0:
301,13,33348,2,0,L|410:11,1,110,2|0,0:0|0:0,0:0:0:0:
282,40,33630,2,0,B|262:52|233:55|233:55|203:40|165:45,1,110,2|0,0:0|0:0,0:0:0:0:
134,130,34005,1,0,0:0:0:0:
134,130,34098,2,0,L|189:121,1,55,0|0,0:0|0:0,0:0:0:0:
83,192,34286,1,0,0:0:0:0:
83,192,34380,2,0,B|38:200|3:191|3:191|19:178|30:164,1,110,2|0,0:0|0:0,0:0:0:0:
90,5,34755,5,0,0:0:0:0:
90,5,34848,2,0,L|88:66,1,55,0|0,0:0|0:0,0:0:0:0:
20,94,35036,1,0,0:0:0:0:
20,94,35129,2,0,P|14:125|22:155,1,55,2|0,0:0|0:0,0:0:0:0:
83,192,35317,1,0,0:0:0:0:
83,192,35411,1,0,0:0:0:0:
83,192,35505,2,0,L|74:322,1,110,8|0,0:0|0:0,0:0:0:0:
5,319,35786,1,0,0:0:0:0:
5,319,35880,2,0,B|45:340|95:332|69:304|122:297|165:321,1,165,10|0,0:0|0:0,0:0:0:0:
185,345,36255,5,10,0:3:0:0:
185,345,36348,1,2,0:0:0:0:
296,295,36536,1,0,0:0:0:0:
296,295,36630,2,0,P|350:279|401:303,1,110,2|0,0:0|0:0,0:0:0:0:
467,232,37005,1,0,0:0:0:0:
477,252,37098,1,0,0:0:0:0:
346,362,37286,1,0,0:0:0:0:
346,362,37380,1,8,0:0:0:0:
225,268,37567,1,0,0:0:0:0:
287,159,37755,5,0,0:0:0:0:
287,159,37848,2,0,L|283:218,1,55,0|0,0:0|0:0,0:0:0:0:
202,137,38036,1,0,0:0:0:0:
202,137,38130,2,0,L|198:82,1,55,8|0,0:0|0:0,0:0:0:0:
295,169,38317,2,0,L|291:228,1,55,0|0,0:0|0:0,0:0:0:0:
191,130,38505,6,0,L|187:75,1,55,10|2,0:3|0:0,0:0:0:0:
303,20,38786,1,0,0:0:0:0:
307,22,38880,2,0,P|270:7|229:17,1,76.9999976501466,2|4,0:0|0:0,0:0:0:0:
170,74,39255,5,4,0:3:0:0:
157,73,39630,1,2,0:0:0:0:
144,72,40005,1,4,0:3:0:0:
131,71,40380,1,2,0:0:0:0:
0,24,40755,5,4,0:3:0:0:
0,24,40848,2,0,L|7:76,1,38.4999988250733,0|0,0:0|0:0,0:0:0:0:
77,0,41037,1,0,0:0:0:0:
77,0,41130,2,0,L|70:52,1,38.4999988250733,2|0,0:0|0:0,0:0:0:0:
64,119,41317,1,0,0:0:0:0:
64,119,41411,1,0,0:0:0:0:
64,119,41505,2,0,L|56:200,1,76.9999976501466,4|0,0:3|0:0,0:0:0:0:
72,297,41880,1,2,0:0:0:0:
32,206,42067,1,0,0:0:0:0:
130,217,42255,5,4,0:3:0:0:
153,213,42630,1,2,0:0:0:0:
176,209,43005,1,4,0:3:0:0:
199,205,43380,1,2,0:0:0:0:
301,273,43755,6,0,B|269:261|241:264|241:264|217:279|188:276,1,115.49999647522,4|0,0:3|0:0,0:0:0:0:
182,298,44130,2,0,P|170:338|180:372,1,76.9999976501466,2|0,0:0|0:0,0:0:0:0:
260,335,44505,1,4,0:3:0:0:
348,194,44692,1,2,0:0:0:0:
334,199,44786,1,0,0:0:0:0:
320,204,44880,1,2,0:0:0:0:
497,243,45067,1,0,0:0:0:0:
359,312,45255,5,4,0:3:0:0:
373,317,45629,1,2,0:0:0:0:
387,322,46005,1,4,0:3:0:0:
401,327,46380,1,2,0:0:0:0:
498,223,46755,5,4,0:3:0:0:
498,223,46848,2,0,L|450:229,1,38.4999988250733,0|0,0:0|0:0,0:0:0:0:
512,137,47036,1,0,0:0:0:0:
512,137,47129,2,0,L|468:159,1,38.4999988250733,2|0,0:0|0:0,0:0:0:0:
322,173,47317,1,0,0:0:0:0:
322,173,47411,1,0,0:0:0:0:
322,173,47505,2,0,P|362:163|397:177,1,76.9999976501466,4|0,0:3|0:0,0:0:0:0:
440,287,47880,5,2,0:0:0:0:
376,337,48067,1,0,0:0:0:0:
308,322,48255,1,4,0:3:0:0:
308,322,48348,1,0,0:0:0:0:
308,322,48442,1,0,0:0:0:0:
295,241,48630,5,12,0:3:0:0:
231,191,48817,1,0,0:0:0:0:
163,206,49005,1,4,0:3:0:0:
163,206,49098,1,0,0:0:0:0:
163,206,49192,1,0,0:0:0:0:
98,250,49380,2,0,P|59:261|25:249,1,76.9999976501466,12|0,0:3|0:0,0:0:0:0:
100,163,49755,5,12,0:3:0:0:
126,135,49848,1,0,0:0:0:0:
162,125,49942,1,0,0:0:0:0:
199,135,50036,1,0,0:0:0:0:
225,162,50130,1,12,0:3:0:0:
268,174,50223,1,0,0:0:0:0:
311,159,50317,1,0,0:0:0:0:
339,123,50411,1,0,0:0:0:0:
341,77,50505,1,6,0:0:0:0:
497,50,57255,5,0,3:2:0:0:
413,31,58005,1,0,3:2:0:0:
337,93,58755,5,0,3:2:0:0:
497,50,59317,1,0,3:2:0:0:
413,31,59505,1,0,3:2:0:0:
337,93,60255,5,0,3:2:0:0:
409,81,60630,1,0,3:0:0:0:
480,113,61005,5,0,3:0:0:0:
408,101,61380,1,0,3:1:0:0:
347,143,61567,1,8,1:0:0:0:
348,154,61661,1,0,0:0:0:0:
349,165,61755,2,0,B|371:223|327:219|354:287,1,115.49999647522,6|0,3:2|0:0,0:0:0:0:
412,328,62130,2,0,B|411:312|417:290|417:290|402:339|354:345,1,115.49999647522,4|0,0:1|0:0,0:0:0:0:
297,322,62505,6,0,L|256:317,1,38.4999988250733,4|0,1:1|1:0,0:0:0:0:
141,263,62786,1,0,0:0:0:0:
141,263,62880,2,0,B|179:252|179:252|218:260,1,65.9999979858399,8|0,0:1|0:0,0:0:0:0:
181,337,63067,2,0,B|143:348|143:348|104:340,1,65.9999979858399,8|0,0:1|0:0,0:0:0:0:
28,330,63255,6,0,B|33:342|5:341|-6:332|-6:312|-6:312|20:283|30:242|13:199,1,165,4|0,3:2|2:1,0:0:0:0:
20,54,63630,2,0,B|28:85|28:85|23:111,1,55,6|0,3:3|3:0,0:0:0:0:
2,178,63817,2,0,B|69:191|54:150|120:162|120:162|96:168|83:182,1,165,10|0,1:1|0:0,0:0:0:0:
133,230,64192,5,10,1:1:0:0:
82,124,64380,1,2,3:3:0:0:
201,35,64567,1,10,1:1:0:0:
201,35,64661,1,8,0:1:0:0:
201,35,64754,2,0,L|195:91,1,55,6|0,3:3|0:0,0:0:0:0:
272,95,64942,2,0,L|266:151,1,55,10|0,1:1|0:0,0:0:0:0:
262,184,65130,5,2,3:3:0:0:
159,313,65317,1,10,1:1:0:0:
159,313,65411,1,8,0:1:0:0:
159,313,65505,2,0,L|161:251,1,55,6|0,3:3|0:0,0:0:0:0:
249,352,65692,2,0,P|256:321|247:298,1,55,10|0,1:1|2:1,0:0:0:0:
333,237,65880,2,0,P|325:259|329:291,1,55,2|0,3:3|3:0,0:0:0:0:
404,195,66067,1,10,1:1:0:0:
512,263,66255,6,0,B|464:251|453:294|396:271|396:271|421:273|445:260,1,165,6|0,3:3|0:0,0:0:0:0:
463,244,66630,2,0,P|480:188|459:141,1,110,2|10,3:3|1:1,0:0:0:0:
458,116,66911,1,8,0:1:0:0:
463,88,67005,1,6,3:3:0:0:
349,202,67192,1,10,1:1:0:0:
497,340,67380,1,2,3:3:0:0:
497,340,67473,1,0,3:0:0:0:
497,340,67567,1,10,1:1:0:0:
391,360,67755,5,6,3:3:0:0:
384,334,67942,1,10,0:1:0:0:
267,313,68130,5,2,3:3:0:0:
273,286,68317,1,10,0:1:0:0:
195,230,68505,5,2,3:3:0:0:
213,209,68692,1,8,0:2:0:0:
170,125,68880,5,2,3:3:0:0:
282,109,69067,1,10,0:1:0:0:
282,109,69161,1,8,0:1:0:0:
282,109,69255,2,0,B|248:83|212:86|212:86|170:123|116:105,1,165,6|0,3:1|0:0,0:0:0:0:
107,0,69630,2,0,P|134:11|151:35,1,55,6|0,3:3|3:0,0:0:0:0:
0,101,69817,2,0,B|-4:92|-17:84|-17:84|27:66|58:93|58:93|95:109|122:91,1,165,10|0,1:1|0:0,0:0:0:0:
87,67,70192,5,10,1:1:0:0:
97,178,70380,1,2,3:3:0:0:
110,290,70567,1,10,1:1:0:0:
110,290,70661,1,8,0:1:0:0:
110,290,70755,2,0,L|117:355,1,55,6|0,3:3|0:0,0:0:0:0:
23,257,70942,2,0,L|30:322,1,55,10|0,1:1|0:0,0:0:0:0:
162,209,71130,2,0,P|170:181|167:155,1,55,2|0,3:3|0:0,0:0:0:0:
201,298,71317,5,10,1:1:0:0:
97,178,71505,1,6,3:3:0:0:
97,178,71598,1,8,0:1:0:0:
97,178,71693,2,0,L|35:177,1,55,10|0,1:1|2:1,0:0:0:0:
107,44,71880,2,0,L|112:98,1,55,2|0,3:3|3:0,0:0:0:0:
97,178,72067,1,10,1:1:0:0:
217,99,72255,6,0,B|266:98|266:98|295:108|295:108|322:97|322:97|381:94,1,165,6|0,3:3|0:0,0:0:0:0:
403,74,72630,1,2,3:3:0:0:
506,142,72817,1,10,1:1:0:0:
487,32,73005,1,6,3:3:0:0:
499,157,73192,1,10,1:1:0:0:
501,13,73380,1,2,3:3:0:0:
501,13,73473,1,8,0:1:0:0:
501,13,73567,1,10,1:1:0:0:
395,164,73755,6,0,P|384:224|406:273,2,110,4|2|4,3:1|3:2|1:1,0:0:0:0:
408,168,74598,1,0,1:0:0:0:
419,175,74692,1,0,1:2:0:0:
368,290,74880,1,8,0:1:0:0:
193,330,75067,2,0,P|219:322|250:328,1,55,8|0,0:2|0:0,0:0:0:0:
262,335,75255,6,0,B|266:264|247:213|247:213|256:240|280:248,1,165,4|0,3:2|2:1,0:0:0:0:
181,321,75630,2,0,L|116:315,1,55,6|0,3:3|3:0,0:0:0:0:
68,369,75817,2,0,B|102:317|102:317|70:211,1,165,10|0,1:1|0:0,0:0:0:0:
47,204,76192,5,10,1:1:0:0:
6,297,76380,1,2,3:3:0:0:
159,133,76567,1,10,1:1:0:0:
159,133,76661,1,8,0:1:0:0:
159,133,76755,2,0,L|154:195,1,55,6|0,3:3|0:0,0:0:0:0:
79,100,76942,2,0,L|74:45,1,55,10|0,1:1|0:0,0:0:0:0:
153,215,77130,5,6,3:3:0:0:
290,79,77317,1,10,1:1:0:0:
290,79,77411,1,8,0:1:0:0:
290,79,77505,2,0,P|261:67|228:72,1,55,6|0,3:3|0:0,0:0:0:0:
297,164,77692,2,0,P|303:195|324:214,1,55,10|0,1:1|2:1,0:0:0:0:
371,110,77880,1,2,3:3:0:0:
489,34,78067,1,10,1:1:0:0:
489,34,78161,1,8,0:1:0:0:
489,34,78255,6,0,B|482:73|474:99|474:99|490:113|500:136|500:136|502:168|493:193,1,165,6|0,3:3|0:0,0:0:0:0:
371,162,78630,2,0,P|396:154|426:156,1,55,2|0,3:3|3:0,0:0:0:0:
430,229,78817,1,10,1:1:0:0:
313,347,79005,1,6,3:3:0:0:
382,324,79192,1,10,1:1:0:0:
229,305,79380,1,2,3:3:0:0:
298,328,79567,1,10,1:1:0:0:
119,354,79755,5,6,3:3:0:0:
143,344,79942,1,10,0:1:0:0:
26,291,80130,5,2,3:3:0:0:
51,294,80317,1,10,0:1:0:0:
0,193,80505,5,2,3:3:0:0:
20,208,80692,1,8,0:2:0:0:
170,169,80880,1,2,3:3:0:0:
89,56,81067,1,10,0:1:0:0:
89,56,81161,1,8,1:0:0:0:
89,56,81255,6,0,B|111:91|96:125|96:125|86:147|86:147|82:187|101:226,1,165,6|0,3:1|0:0,0:0:0:0:
224,170,81630,2,0,L|165:168,1,55,6|0,3:3|3:0,0:0:0:0:
198,251,81817,2,0,P|266:246|304:166,1,165,10|0,1:1|0:0,0:0:0:0:
300,135,82192,5,10,1:1:0:0:
106,223,82380,1,2,3:3:0:0:
208,88,82567,1,10,1:1:0:0:
208,88,82661,1,8,0:1:0:0:
208,88,82755,6,0,L|210:153,1,55,6|0,3:3|0:0,0:0:0:0:
300,135,82942,2,0,L|298:200,1,55,10|0,1:1|0:0,0:0:0:0:
198,251,83130,1,6,3:3:0:0:
315,310,83317,1,10,1:1:0:0:
315,310,83411,1,8,0:1:0:0:
315,310,83505,2,0,P|278:299|250:311,1,55,6|0,3:3|0:0,0:0:0:0:
130,342,83692,2,0,B|221:321|196:390|296:367,1,165,10|0,1:1|3:0,0:0:0:0:
320,380,84067,1,10,1:1:0:0:
331,242,84255,6,0,B|288:205|288:205|318:322,1,165,6|0,3:3|0:0,0:0:0:0:
397,384,84630,2,0,P|409:355|402:325,1,55,2|0,3:3|3:3,0:0:0:0:
477,328,84817,2,0,P|473:301|449:277,1,55,10|0,1:1|0:0,0:0:0:0:
428,268,85005,1,6,3:3:0:0:
512,192,85192,1,10,1:1:0:0:
512,192,85380,1,2,3:3:0:0:
481,67,85567,1,10,1:1:0:0:
396,111,85755,6,0,P|458:117|496:85,2,110,4|2|4,3:1|3:2|1:1,0:0:0:0:
368,99,86598,1,0,1:0:0:0:
368,99,86692,1,0,1:2:0:0:
267,42,86880,1,8,0:1:0:0:
175,110,87067,1,8,0:2:0:0:
92,166,87255,6,0,B|143:167|143:167|163:156|163:156|216:155|216:155|185:167|171:182,1,165,6|0,3:3|0:0,0:0:0:0:
230,281,87630,2,0,P|238:250|229:220,1,55,2|0,3:3|3:0,0:0:0:0:
168,326,87817,2,0,P|164:358|180:386,1,55,10|0,1:1|0:0,0:0:0:0:
165,254,88005,5,6,3:3:0:0:
13,315,88192,1,10,1:1:0:0:
13,315,88380,1,2,3:3:0:0:
112,167,88567,1,10,1:1:0:0:
41,252,88755,2,0,P|26:311|46:359,2,110,4|10|4,3:1|1:2|1:1,0:0:0:0:
55,258,89598,1,0,1:0:0:0:
64,264,89692,1,0,1:0:0:0:
89,180,89880,5,8,0:1:0:0:
42,103,90067,1,8,0:2:0:0:
130,74,90255,2,0,P|64:43|90:101,1,165,6|0,3:2|0:0,0:0:0:0:
195,110,90630,2,0,P|204:77|200:45,1,55,6|0,3:3|3:0,0:0:0:0:
132,150,90817,2,0,L|138:210,1,55,10|0,1:1|0:0,0:0:0:0:
142,236,91005,1,6,3:3:0:0:
287,331,91192,1,10,1:1:0:0:
287,331,91380,1,2,3:3:0:0:
84,317,91567,1,10,1:1:0:0:
266,261,91755,6,0,P|327:268|357:309,2,110,6|2|2,3:2|3:2|3:2,0:0:0:0:
408,360,92880,1,2,3:2:0:0:
512,297,93255,1,4,3:3:0:0:
256,192,93348,12,4,95505,0:3:0:0:
