osu file format v14

[General]
AudioFilename: tiger.mp3
AudioLeadIn: 0
PreviewTime: 62880
Countdown: 0
SampleSet: Soft
StackLeniency: 0.7
Mode: 3
LetterboxInBreaks: 0
SpecialStyle: 0
WidescreenStoryboard: 0

[Editor]
DistanceSpacing: 1.8
BeatDivisor: 4
GridSize: 4
TimelineZoom: 1.9

[Metadata]
Title:Horang Pungryuga
TitleUnicode:호랑풍류가
Artist:Narae
ArtistUnicode:나래
Creator:My Angel RangE
Version:Teleport's HD
Source:나와 호랑이님
Tags:상록수 [Teleport] qodtjr Wonki
BeatmapID:889963
BeatmapSetID:388769

[Difficulty]
HPDrainRate:8
CircleSize:7
OverallDifficulty:8
ApproachRate:9.4
SliderMultiplier:2.4
SliderTickRate:2

[Events]
//Background and Video events
0,0,"bg16.jpg",0,0
Video,0,"PV.avi"
//Break Periods
//Storyboard Layer 0 (Background)
//Storyboard Layer 1 (Fail)
//Storyboard Layer 2 (Pass)
//Storyboard Layer 3 (Foreground)
//Storyboard Sound Samples

[TimingPoints]
255,375,4,2,99,40,1,0
2505,-100,4,2,99,40,0,1
14880,-100,4,2,99,40,0,0
95505,-100,4,2,99,40,0,1
107880,-100,4,2,99,40,0,0

[HitObjects]
460,192,255,5,0,0:0:0:30:soft-hitfinish2.wav
460,192,348,1,0,0:0:0:0:
329,192,536,1,0,0:0:0:0:
329,192,630,1,0,0:0:0:0:
256,192,817,1,0,0:0:0:0:
51,192,1005,1,0,0:0:0:30:soft-hitfinish2.wav
51,192,1098,1,0,0:0:0:0:
182,192,1286,1,0,0:0:0:0:
182,192,1380,1,0,0:0:0:0:
256,192,1567,1,0,0:0:0:0:
402,192,1755,1,0,0:0:0:30:soft-hitfinish2.wav
402,192,1848,1,0,0:0:0:0:
109,192,2036,1,0,0:0:0:30:soft-hitfinish2.wav
109,192,2130,1,0,0:0:0:0:
460,192,2317,1,0,0:0:0:30:soft-hitfinish2.wav
256,192,2317,1,0,0:0:0:0:
51,192,2505,128,0,2692:0:0:0:0:
109,192,2692,128,0,2880:0:0:0:0:
358,192,2880,128,0,3067:0:0:0:0:
256,192,3067,128,0,3255:0:0:0:0:
460,192,3255,128,0,3630:0:0:0:0:
51,192,3255,1,0,0:0:0:30:normal-hitclap.wav
402,192,3255,1,0,0:0:0:70:soft-hitclap.wav
153,192,3442,1,0,0:0:0:30:normal-hitclap.wav
358,192,3630,128,0,4005:0:0:0:0:
256,192,3630,1,0,0:0:0:30:normal-hitclap.wav
182,192,3817,1,0,0:0:0:30:normal-hitclap.wav
109,192,4005,128,0,4192:0:0:0:0:
460,192,4005,1,0,0:0:0:30:normal-hitclap.wav
36,192,4192,128,0,4380:0:0:0:0:
256,192,4192,1,0,0:0:0:30:normal-hitclap.wav
256,192,4380,128,0,4567:0:0:0:0:
460,192,4380,1,0,0:0:0:30:normal-hitclap.wav
460,192,4567,128,0,4755:0:0:0:0:
153,192,4567,1,0,0:0:0:30:normal-hitclap.wav
153,192,4755,128,0,5130:0:0:0:0:
51,192,4755,1,0,0:0:0:30:normal-hitclap.wav
402,192,4755,1,0,0:0:0:70:soft-hitclap.wav
256,192,4942,1,0,0:0:0:30:normal-hitclap.wav
51,192,5130,128,0,5505:0:0:0:0:
460,192,5130,1,0,0:0:0:30:normal-hitclap.wav
256,192,5317,1,0,0:0:0:30:normal-hitclap.wav
402,192,5505,128,0,5692:0:0:0:0:
153,192,5505,1,0,0:0:0:30:normal-hitclap.wav
460,192,5692,128,0,5880:0:0:0:0:
256,192,5692,1,0,0:0:0:30:normal-hitclap.wav
358,192,5880,128,0,6067:0:0:0:0:
51,192,5880,1,0,0:0:0:30:normal-hitclap.wav
256,192,6067,128,0,6255:0:0:0:0:
153,192,6067,1,0,0:0:0:30:normal-hitclap.wav
51,192,6255,128,0,6630:0:0:0:0:
460,192,6255,1,0,0:0:0:30:normal-hitclap.wav
109,192,6255,1,0,0:0:0:70:soft-hitclap.wav
358,192,6442,1,0,0:0:0:30:normal-hitclap.wav
402,192,6630,128,0,6817:0:0:0:0:
256,192,6630,1,0,0:0:0:30:normal-hitclap.wav
51,192,6817,1,0,0:0:0:30:normal-hitclap.wav
153,192,7005,128,0,7192:0:0:0:0:
358,192,7005,1,0,0:0:0:30:normal-hitclap.wav
256,192,7192,128,0,7380:0:0:0:0:
460,192,7192,1,0,0:0:0:30:normal-hitclap.wav
358,192,7380,128,0,7567:0:0:0:0:
51,192,7380,1,0,0:0:0:30:normal-hitclap.wav
460,192,7567,128,0,7755:0:0:0:0:
256,192,7567,1,0,0:0:0:30:normal-hitclap.wav
153,192,7755,128,0,8130:0:0:0:0:
358,192,7755,1,0,0:0:0:30:normal-hitclap.wav
109,192,7755,1,0,0:0:0:70:soft-hitclap.wav
256,192,7942,1,0,0:0:0:30:normal-hitclap.wav
460,192,8130,128,0,8505:0:0:0:0:
51,192,8130,1,0,0:0:0:30:normal-hitclap.wav
358,192,8317,1,0,0:0:0:30:normal-hitclap.wav
51,192,8505,128,0,8692:0:0:0:0:
153,192,8505,1,0,0:0:0:30:normal-hitclap.wav
256,192,8692,128,0,8880:0:0:0:0:
460,192,8692,1,0,0:0:0:30:normal-hitclap.wav
358,192,8880,128,0,9067:0:0:0:0:
153,192,8880,1,0,0:0:0:30:normal-hitclap.wav
460,192,9067,128,0,9255:0:0:0:0:
51,192,9067,1,0,0:0:0:30:normal-hitclap.wav
153,192,9255,128,0,9630:0:0:0:0:
256,192,9255,1,0,0:0:0:30:normal-hitclap.wav
109,192,9255,1,0,0:0:0:70:soft-hitclap.wav
358,192,9442,1,0,0:0:0:30:normal-hitclap.wav
460,192,9630,128,0,10005:0:0:0:0:
51,192,9630,1,0,0:0:0:30:normal-hitclap.wav
153,192,9817,1,0,0:0:0:30:normal-hitclap.wav
256,192,10005,128,0,10192:0:0:0:0:
51,192,10005,1,0,0:0:0:30:normal-hitclap.wav
358,192,10192,128,0,10380:0:0:0:0:
153,192,10192,1,0,0:0:0:30:normal-hitclap.wav
460,192,10380,128,0,10567:0:0:0:0:
51,192,10380,1,0,0:0:0:30:normal-hitclap.wav
153,192,10567,128,0,10755:0:0:0:0:
358,192,10567,1,0,0:0:0:30:normal-hitclap.wav
51,192,10755,128,0,11130:0:0:0:0:
256,192,10755,1,0,0:0:0:30:normal-hitclap.wav
402,192,10755,1,0,0:0:0:70:soft-hitclap.wav
460,192,10942,1,0,0:0:0:30:normal-hitclap.wav
358,192,11130,128,0,11505:0:0:0:0:
153,192,11130,1,0,0:0:0:30:normal-hitclap.wav
256,192,11317,1,0,0:0:0:30:normal-hitclap.wav
51,192,11505,128,0,11692:0:0:0:0:
460,192,11505,1,0,0:0:0:30:normal-hitclap.wav
358,192,11692,128,0,11880:0:0:0:0:
153,192,11692,1,0,0:0:0:30:normal-hitclap.wav
460,192,11880,128,0,12067:0:0:0:0:
51,192,11880,1,0,0:0:0:30:normal-hitclap.wav
256,192,12067,128,0,12255:0:0:0:0:
358,192,12067,1,0,0:0:0:30:normal-hitclap.wav
51,192,12255,128,0,12630:0:0:0:0:
460,192,12255,1,0,0:0:0:30:normal-hitclap.wav
109,192,12255,1,0,0:0:0:70:soft-hitclap.wav
153,192,12442,1,0,0:0:0:30:normal-hitclap.wav
460,192,12630,128,0,13005:0:0:0:0:
256,192,12630,1,0,0:0:0:30:normal-hitclap.wav
51,192,12817,1,0,0:0:0:30:normal-hitclap.wav
358,192,13005,128,0,13192:0:0:0:0:
256,192,13005,1,0,0:0:0:30:normal-hitclap.wav
109,192,13192,128,0,13380:0:0:0:0:
51,192,13192,1,0,0:0:0:30:normal-hitclap.wav
51,192,13380,128,0,13567:0:0:0:0:
460,192,13380,1,0,0:0:0:30:normal-hitclap.wav
153,192,13567,128,0,13755:0:0:0:0:
358,192,13567,1,0,0:0:0:30:normal-hitclap.wav
402,192,13755,128,0,13942:0:0:0:0:
51,192,13755,1,0,0:0:0:30:normal-hitclap.wav
475,192,13755,1,0,0:0:0:70:soft-hitclap.wav
256,192,13942,1,0,0:0:0:30:normal-hitclap.wav
460,192,14130,128,0,14505:0:0:0:0:
51,192,14130,128,0,14505:0:0:0:0:
358,192,14505,128,0,14880:0:0:0:70:soft-hitclap.wav
153,192,14505,128,0,14880:0:0:0:70:soft-hitclap.wav
402,192,14505,1,0,0:0:0:0:
109,192,14505,1,0,0:0:0:0:
182,192,15255,1,0,0:0:0:30:normal-hitclap.wav
475,192,15442,1,0,0:0:0:0:
182,192,15630,1,0,0:0:0:30:normal-hitclap.wav
36,192,15630,1,0,0:0:0:0:
475,192,15817,1,0,0:0:0:0:
109,192,16005,1,0,0:0:0:30:normal-hitclap.wav
402,192,16192,1,0,0:0:0:0:
109,192,16380,1,0,0:0:0:30:normal-hitclap.wav
256,192,16380,1,0,0:0:0:0:
402,192,16567,1,0,0:0:0:0:
36,192,16755,1,0,0:0:0:30:normal-hitclap.wav
329,192,16942,1,0,0:0:0:0:
36,192,17130,1,0,0:0:0:30:normal-hitclap.wav
182,192,17130,1,0,0:0:0:0:
329,192,17317,1,0,0:0:0:0:
109,192,17505,1,0,0:0:0:30:normal-hitclap.wav
475,192,17692,1,0,0:0:0:0:
109,192,17880,1,0,0:0:0:30:normal-hitclap.wav
256,192,17880,1,0,0:0:0:0:
475,192,18067,1,0,0:0:0:0:
36,192,18255,1,0,0:0:0:30:normal-hitclap.wav
402,192,18442,1,0,0:0:0:0:
36,192,18630,1,0,0:0:0:30:normal-hitclap.wav
256,192,18630,1,0,0:0:0:0:
402,192,18817,1,0,0:0:0:0:
109,192,19005,1,0,0:0:0:30:normal-hitclap.wav
475,192,19192,1,0,0:0:0:0:
109,192,19380,1,0,0:0:0:30:normal-hitclap.wav
329,192,19380,1,0,0:0:0:0:
475,192,19567,1,0,0:0:0:0:
36,192,19755,1,0,0:0:0:30:normal-hitclap.wav
402,192,19942,1,0,0:0:0:0:
36,192,20130,1,0,0:0:0:30:normal-hitclap.wav
109,192,20130,1,0,0:0:0:0:
402,192,20317,1,0,0:0:0:0:
182,192,20505,1,0,0:0:0:30:normal-hitclap.wav
329,192,20692,1,0,0:0:0:0:
182,192,20880,1,0,0:0:0:30:normal-hitclap.wav
475,192,20880,1,0,0:0:0:0:
329,192,21067,1,0,0:0:0:0:
109,192,21255,1,0,0:0:0:30:normal-hitclap.wav
329,192,21442,1,0,0:0:0:0:
109,192,21630,1,0,0:0:0:30:normal-hitclap.wav
182,192,21630,1,0,0:0:0:0:
329,192,21817,1,0,0:0:0:0:
182,192,22005,1,0,0:0:0:30:normal-hitclap.wav
402,192,22192,1,0,0:0:0:0:
182,192,22380,1,0,0:0:0:30:normal-hitclap.wav
36,192,22380,1,0,0:0:0:0:
402,192,22567,1,0,0:0:0:0:
36,192,22755,1,0,0:0:0:30:normal-hitclap.wav
256,192,22942,1,0,0:0:0:0:
36,192,23130,1,0,0:0:0:30:normal-hitclap.wav
475,192,23130,1,0,0:0:0:0:
256,192,23317,1,0,0:0:0:0:
329,192,23505,1,0,0:0:0:30:normal-hitclap.wav
475,192,23692,1,0,0:0:0:0:
329,192,23880,1,0,0:0:0:30:normal-hitclap.wav
109,192,23880,1,0,0:0:0:0:
475,192,24067,1,0,0:0:0:0:
36,192,24255,1,0,0:0:0:30:normal-hitclap.wav
182,192,24442,1,0,0:0:0:0:
36,192,24630,1,0,0:0:0:30:normal-hitclap.wav
402,192,24630,1,0,0:0:0:0:
182,192,24817,1,0,0:0:0:0:
256,192,25005,1,0,0:0:0:30:normal-hitclap.wav
475,192,25192,1,0,0:0:0:0:
256,192,25380,1,0,0:0:0:30:normal-hitclap.wav
36,192,25380,1,0,0:0:0:0:
475,192,25567,1,0,0:0:0:0:
109,192,25755,1,0,0:0:0:30:normal-hitclap.wav
329,192,25942,1,0,0:0:0:0:
109,192,26130,1,0,0:0:0:30:normal-hitclap.wav
402,192,26130,1,0,0:0:0:0:
329,192,26317,1,0,0:0:0:0:
36,192,26505,128,0,27255:0:0:0:0:
182,192,26505,1,0,0:0:0:30:normal-hitclap.wav
329,192,26598,1,0,0:0:0:0:
475,192,26786,1,0,0:0:0:0:
182,192,26880,1,0,0:0:0:30:normal-hitclap.wav
475,192,27067,1,0,0:0:0:0:
109,192,27255,1,0,0:0:0:30:normal-hitclap.wav
329,192,27442,1,0,0:0:0:0:
109,192,27630,1,0,0:0:0:30:normal-hitclap.wav
475,192,27630,1,0,0:0:0:0:
329,192,27817,1,0,0:0:0:0:
36,192,28005,1,0,0:0:0:30:normal-hitclap.wav
256,192,28005,1,0,0:0:0:0:
402,192,28192,1,0,0:0:0:0:
36,192,28380,1,0,0:0:0:30:normal-hitclap.wav
109,192,28380,1,0,0:0:0:0:
402,192,28567,1,0,0:0:0:0:
475,192,28755,1,0,0:0:0:30:normal-hitclap.wav
329,192,28755,1,0,0:0:0:0:
256,192,28942,1,0,0:0:0:0:
475,192,29130,1,0,0:0:0:30:normal-hitclap.wav
109,192,29130,1,0,0:0:0:0:
256,192,29317,1,0,0:0:0:0:
36,192,29505,1,0,0:0:0:30:normal-hitclap.wav
475,192,29505,1,0,0:0:0:0:
329,192,29692,1,0,0:0:0:0:
36,192,29880,1,0,0:0:0:30:normal-hitclap.wav
256,192,29880,1,0,0:0:0:0:
329,192,30067,1,0,0:0:0:0:
402,192,30255,1,0,0:0:0:30:normal-hitclap.wav
36,192,30255,1,0,0:0:0:0:
182,192,30442,1,0,0:0:0:0:
402,192,30630,1,0,0:0:0:30:normal-hitclap.wav
329,192,30630,1,0,0:0:0:0:
182,192,30817,1,0,0:0:0:0:
36,192,31005,1,0,0:0:0:30:normal-hitclap.wav
256,192,31005,1,0,0:0:0:0:
329,192,31192,1,0,0:0:0:0:
36,192,31380,1,0,0:0:0:30:normal-hitclap.wav
402,192,31380,1,0,0:0:0:0:
329,192,31567,1,0,0:0:0:0:
182,192,31755,1,0,0:0:0:30:normal-hitclap.wav
109,192,31755,1,0,0:0:0:0:
475,192,31942,1,0,0:0:0:0:
182,192,32130,1,0,0:0:0:30:normal-hitclap.wav
402,192,32130,1,0,0:0:0:0:
475,192,32317,1,0,0:0:0:0:
329,192,32505,1,0,0:0:0:30:normal-hitclap.wav
256,192,32505,1,0,0:0:0:0:
109,192,32692,1,0,0:0:0:0:
329,192,32880,1,0,0:0:0:30:normal-hitclap.wav
36,192,32880,1,0,0:0:0:0:
109,192,33067,1,0,0:0:0:0:
36,192,33255,1,0,0:0:0:30:normal-hitclap.wav
475,192,33255,1,0,0:0:0:0:
402,192,33442,1,0,0:0:0:0:
36,192,33630,1,0,0:0:0:30:normal-hitclap.wav
256,192,33630,1,0,0:0:0:0:
402,192,33817,1,0,0:0:0:0:
256,192,34005,1,0,0:0:0:30:normal-hitclap.wav
109,192,34005,1,0,0:0:0:0:
475,192,34192,1,0,0:0:0:0:
256,192,34380,1,0,0:0:0:30:normal-hitclap.wav
402,192,34380,1,0,0:0:0:0:
475,192,34567,1,0,0:0:0:0:
36,192,34755,1,0,0:0:0:30:normal-hitclap.wav
329,192,34755,1,0,0:0:0:0:
182,192,34942,1,0,0:0:0:0:
36,192,35130,1,0,0:0:0:30:normal-hitclap.wav
402,192,35130,1,0,0:0:0:0:
182,192,35317,1,0,0:0:0:0:
256,192,35505,1,0,0:0:0:30:normal-hitclap.wav
109,192,35505,1,0,0:0:0:0:
402,192,35692,1,0,0:0:0:0:
256,192,35880,1,0,0:0:0:30:normal-hitclap.wav
475,192,35880,1,0,0:0:0:0:
402,192,36067,1,0,0:0:0:0:
36,192,36255,1,0,0:0:0:30:normal-hitclap.wav
475,192,36255,128,0,36630:0:0:0:0:
256,192,36442,1,0,0:0:0:0:
402,192,36630,128,0,36817:0:0:0:0:
36,192,36630,1,0,0:0:0:30:normal-hitclap.wav
329,192,36817,128,0,37005:0:0:0:0:
182,192,36817,1,0,0:0:0:0:
36,192,37005,128,0,37286:0:0:0:0:
109,192,37005,1,0,0:0:0:30:normal-hitclap.wav
402,192,37005,1,0,0:0:0:0:
329,192,37192,1,0,0:0:0:0:
475,192,37380,128,0,37567:0:0:0:0:
109,192,37380,1,0,0:0:0:30:normal-hitclap.wav
256,192,37380,1,0,0:0:0:0:
329,192,37567,1,0,0:0:0:0:
256,192,37755,1,0,0:0:0:30:normal-hitclap.wav
109,192,37755,128,0,37942:0:0:0:0:
182,192,37942,128,0,38130:0:0:0:0:
475,192,37942,1,0,0:0:0:0:
36,192,38130,128,0,38317:0:0:0:0:
256,192,38130,1,0,0:0:0:30:normal-hitclap.wav
329,192,38317,128,0,38505:0:0:0:0:
475,192,38317,1,0,0:0:0:0:
402,192,38505,128,0,38692:0:0:0:0:
109,192,38505,1,0,0:0:0:0:
51,192,38692,5,0,0:0:0:0:
153,192,38880,1,0,0:0:0:0:
256,192,39067,128,0,39255:0:0:0:0:
51,192,39255,1,0,0:0:0:0:
109,192,39348,1,0,0:0:0:0:
182,192,39442,1,0,0:0:0:0:
256,192,39536,1,0,0:0:0:0:
182,192,39630,1,0,0:0:0:0:
329,192,39723,1,0,0:0:0:0:
402,192,39817,1,0,0:0:0:0:
475,192,39911,1,0,0:0:0:0:
109,192,40005,1,0,0:0:0:0:
153,192,40098,1,0,0:0:0:0:
256,192,40192,1,0,0:0:0:0:
402,192,40286,1,0,0:0:0:0:
475,192,40380,1,0,0:0:0:0:
358,192,40473,1,0,0:0:0:0:
153,192,40567,1,0,0:0:0:0:
256,192,40661,1,0,0:0:0:0:
358,192,40755,1,0,0:0:0:0:
109,192,40848,1,0,0:0:0:0:
182,192,40942,1,0,0:0:0:0:
256,192,41036,1,0,0:0:0:0:
51,192,41130,1,0,0:0:0:0:
153,192,41223,1,0,0:0:0:0:
256,192,41317,1,0,0:0:0:0:
358,192,41411,1,0,0:0:0:0:
256,192,41505,1,0,0:0:0:0:
460,192,41598,1,0,0:0:0:0:
402,192,41692,1,0,0:0:0:0:
51,192,41786,1,0,0:0:0:0:
109,192,41880,1,0,0:0:0:0:
256,192,41973,1,0,0:0:0:0:
153,192,42067,1,0,0:0:0:0:
460,192,42161,1,0,0:0:0:0:
402,192,42255,1,0,0:0:0:0:
256,192,42348,1,0,0:0:0:0:
153,192,42442,1,0,0:0:0:0:
358,192,42536,1,0,0:0:0:0:
256,192,42630,1,0,0:0:0:0:
36,192,42723,1,0,0:0:0:0:
109,192,42817,1,0,0:0:0:0:
182,192,42911,1,0,0:0:0:0:
460,192,43005,1,0,0:0:0:0:
402,192,43098,1,0,0:0:0:0:
475,192,43192,1,0,0:0:0:0:
256,192,43286,1,0,0:0:0:0:
358,192,43380,1,0,0:0:0:0:
402,192,43473,1,0,0:0:0:0:
329,192,43567,1,0,0:0:0:0:
36,192,43661,1,0,0:0:0:0:
109,192,43755,1,0,0:0:0:0:
182,192,43848,1,0,0:0:0:0:
109,192,43942,1,0,0:0:0:0:
256,192,44036,1,0,0:0:0:0:
153,192,44130,1,0,0:0:0:0:
358,192,44223,1,0,0:0:0:0:
256,192,44317,1,0,0:0:0:0:
460,192,44411,1,0,0:0:0:0:
402,192,44505,1,0,0:0:0:0:
329,192,44598,1,0,0:0:0:0:
256,192,44692,1,0,0:0:0:0:
109,192,44786,1,0,0:0:0:0:
182,192,44880,1,0,0:0:0:0:
256,192,44973,1,0,0:0:0:0:
329,192,45067,1,0,0:0:0:0:
182,192,45161,1,0,0:0:0:0:
256,192,45255,1,0,0:0:0:0:
358,192,45348,1,0,0:0:0:0:
460,192,45442,1,0,0:0:0:0:
153,192,45536,1,0,0:0:0:0:
256,192,45630,1,0,0:0:0:0:
358,192,45723,1,0,0:0:0:0:
51,192,45817,1,0,0:0:0:0:
109,192,45911,1,0,0:0:0:0:
182,192,46005,1,0,0:0:0:0:
460,192,46098,1,0,0:0:0:0:
402,192,46192,1,0,0:0:0:0:
153,192,46286,1,0,0:0:0:0:
256,192,46380,1,0,0:0:0:0:
358,192,46473,1,0,0:0:0:0:
51,192,46567,1,0,0:0:0:0:
109,192,46661,1,0,0:0:0:0:
182,192,46755,1,0,0:0:0:0:
460,192,46848,1,0,0:0:0:0:
402,192,46942,1,0,0:0:0:0:
329,192,47036,1,0,0:0:0:0:
153,192,47130,1,0,0:0:0:0:
256,192,47223,1,0,0:0:0:0:
358,192,47317,1,0,0:0:0:0:
51,192,47411,1,0,0:0:0:0:
109,192,47505,1,0,0:0:0:0:
182,192,47598,1,0,0:0:0:0:
460,192,47692,1,0,0:0:0:0:
402,192,47786,1,0,0:0:0:0:
36,192,47880,1,0,0:0:0:0:
109,192,47973,1,0,0:0:0:0:
182,192,48067,1,0,0:0:0:0:
256,192,48161,1,0,0:0:0:0:
460,192,48255,1,0,0:0:0:30:normal-hitclap.wav
358,192,48348,1,0,0:0:0:30:normal-hitclap.wav
460,192,48442,1,0,0:0:0:30:normal-hitclap.wav
358,192,48536,1,0,0:0:0:30:normal-hitclap.wav
460,192,48630,1,0,0:0:0:30:normal-hitclap.wav
358,192,48723,1,0,0:0:0:30:normal-hitclap.wav
460,192,48817,1,0,0:0:0:30:normal-hitclap.wav
358,192,48911,1,0,0:0:0:30:normal-hitclap.wav
51,192,49005,1,0,0:0:0:30:normal-hitclap.wav
153,192,49098,1,0,0:0:0:30:normal-hitclap.wav
51,192,49192,1,0,0:0:0:30:normal-hitclap.wav
153,192,49286,1,0,0:0:0:30:normal-hitclap.wav
51,192,49380,1,0,0:0:0:30:normal-hitclap.wav
153,192,49473,1,0,0:0:0:30:normal-hitclap.wav
51,192,49567,1,0,0:0:0:30:normal-hitclap.wav
153,192,49661,1,0,0:0:0:30:normal-hitclap.wav
256,192,49755,1,0,0:0:0:30:normal-hitclap.wav
358,192,49848,1,0,0:0:0:30:normal-hitclap.wav
153,192,49942,1,0,0:0:0:30:normal-hitclap.wav
256,192,50036,1,0,0:0:0:30:normal-hitclap.wav
358,192,50130,1,0,0:0:0:30:normal-hitclap.wav
153,192,50223,1,0,0:0:0:30:normal-hitclap.wav
256,192,50317,1,0,0:0:0:30:normal-hitclap.wav
329,192,50411,1,0,0:0:0:30:normal-hitclap.wav
36,192,50505,1,0,0:0:0:30:normal-hitclap.wav
109,192,50505,1,0,0:0:0:0:
402,192,50505,1,0,0:0:0:0:
475,192,50505,1,0,0:0:0:30:normal-hitclap.wav
460,192,51255,128,0,52005:0:0:0:0:
51,192,51255,1,0,0:0:0:0:
51,192,51630,1,0,0:0:0:0:
358,192,52005,128,0,52755:0:0:0:0:
51,192,52005,1,0,0:0:0:0:
153,192,52380,1,0,0:0:0:0:
460,192,52755,1,0,0:0:0:0:
256,192,52755,128,0,53505:0:0:0:0:
460,192,53130,1,0,0:0:0:0:
358,192,53505,128,0,54255:0:0:0:0:
460,192,53505,1,0,0:0:0:0:
153,192,53880,1,0,0:0:0:0:
51,192,54255,128,0,55005:0:0:0:0:
256,192,54255,1,0,0:0:0:0:
256,192,54630,1,0,0:0:0:0:
460,192,55005,128,0,55755:0:0:0:0:
256,192,55005,1,0,0:0:0:0:
51,192,55380,1,0,0:0:0:0:
358,192,55755,128,0,56505:0:0:0:0:
153,192,55755,1,0,0:0:0:0:
153,192,56130,1,0,0:0:0:0:
256,192,56505,128,0,57255:0:0:0:0:
153,192,56505,1,0,0:0:0:0:
460,192,56880,1,0,0:0:0:0:
51,192,57255,128,0,58005:0:0:0:0:
109,192,57255,1,0,0:0:0:0:
182,192,57348,1,0,0:0:0:0:
256,192,57442,1,0,0:0:0:0:
329,192,57536,1,0,0:0:0:0:
153,192,57630,1,0,0:0:0:0:
256,192,57723,1,0,0:0:0:0:
358,192,57817,1,0,0:0:0:0:
402,192,57911,1,0,0:0:0:0:
256,192,58005,128,0,58755:0:0:0:0:
109,192,58005,1,0,0:0:0:0:
182,192,58098,1,0,0:0:0:0:
329,192,58192,1,0,0:0:0:0:
475,192,58286,1,0,0:0:0:0:
109,192,58380,1,0,0:0:0:0:
182,192,58473,1,0,0:0:0:0:
329,192,58567,1,0,0:0:0:0:
51,192,58661,1,0,0:0:0:0:
402,192,58661,1,0,0:0:0:0:
358,192,58755,128,0,59505:0:0:0:0:
109,192,58755,1,0,0:0:0:0:
182,192,58848,1,0,0:0:0:0:
256,192,58942,1,0,0:0:0:0:
109,192,59036,1,0,0:0:0:0:
182,192,59130,1,0,0:0:0:0:
256,192,59223,1,0,0:0:0:0:
402,192,59317,1,0,0:0:0:0:
475,192,59411,1,0,0:0:0:0:
153,192,59505,128,0,60255:0:0:0:0:
402,192,59505,1,0,0:0:0:0:
358,192,59598,1,0,0:0:0:0:
256,192,59692,1,0,0:0:0:0:
402,192,59786,1,0,0:0:0:0:
358,192,59880,1,0,0:0:0:0:
256,192,59973,1,0,0:0:0:0:
109,192,60067,1,0,0:0:0:0:
36,192,60161,1,0,0:0:0:0:
256,192,60255,128,0,61005:0:0:0:0:
460,192,60255,1,0,0:0:0:0:
402,192,60348,1,0,0:0:0:0:
329,192,60442,1,0,0:0:0:0:
109,192,60536,1,0,0:0:0:0:
182,192,60630,1,0,0:0:0:0:
329,192,60723,1,0,0:0:0:0:
475,192,60817,1,0,0:0:0:0:
402,192,60911,1,0,0:0:0:0:
51,192,61005,128,0,61755:0:0:0:0:
329,192,61005,1,0,0:0:0:0:
402,192,61098,1,0,0:0:0:0:
329,192,61192,1,0,0:0:0:0:
256,192,61286,1,0,0:0:0:0:
109,192,61380,1,0,0:0:0:0:
153,192,61473,1,0,0:0:0:0:
256,192,61567,1,0,0:0:0:0:
358,192,61661,1,0,0:0:0:0:
402,192,61755,1,0,0:0:0:0:
109,192,61755,1,0,0:0:0:0:
256,192,62130,1,0,0:0:0:0:
109,192,62130,1,0,0:0:0:0:
51,192,62505,1,0,0:0:0:30:normal-hitclap.wav
460,192,62505,1,0,0:0:0:0:
358,192,62598,1,0,0:0:0:30:normal-hitclap.wav
460,192,62692,1,0,0:0:0:30:normal-hitclap.wav
153,192,62786,1,0,0:0:0:30:normal-hitclap.wav
256,192,62880,1,0,0:0:0:30:normal-hitclap.wav
329,192,63067,1,0,0:0:0:30:normal-hitclap.wav
51,192,63255,1,0,0:0:0:0:
460,192,63255,1,0,0:0:0:0:
182,192,63255,1,0,0:0:0:0:
256,192,63442,1,0,0:0:0:0:
402,192,63442,1,0,0:0:0:30:soft-hitclap2.wav
109,192,63630,1,0,0:0:0:0:
51,192,63817,1,0,0:0:0:0:
358,192,63817,1,0,0:0:0:30:soft-hitclap2.wav
256,192,64005,1,0,0:0:0:0:
153,192,64192,1,0,0:0:0:0:
402,192,64192,1,0,0:0:0:30:soft-hitclap2.wav
51,192,64380,1,0,0:0:0:0:
256,192,64567,1,0,0:0:0:0:
460,192,64567,1,0,0:0:0:30:soft-hitclap2.wav
358,192,64755,1,0,0:0:0:0:
51,192,64942,1,0,0:0:0:0:
256,192,64942,1,0,0:0:0:30:soft-hitclap2.wav
153,192,65130,1,0,0:0:0:0:
358,192,65317,1,0,0:0:0:30:soft-hitclap2.wav
460,192,65317,1,0,0:0:0:0:
109,192,65505,1,0,0:0:0:0:
460,192,65692,1,0,0:0:0:30:soft-hitclap2.wav
329,192,65692,1,0,0:0:0:0:
51,192,65880,1,0,0:0:0:0:
153,192,66067,1,0,0:0:0:0:
402,192,66067,1,0,0:0:0:30:soft-hitclap2.wav
51,192,66255,1,0,0:0:0:0:
153,192,66442,1,0,0:0:0:0:
402,192,66442,1,0,0:0:0:30:soft-hitclap2.wav
256,192,66630,1,0,0:0:0:0:
358,192,66817,1,0,0:0:0:30:soft-hitclap2.wav
51,192,66817,1,0,0:0:0:0:
256,192,67005,1,0,0:0:0:0:
51,192,67192,1,0,0:0:0:0:
182,192,67192,1,0,0:0:0:30:soft-hitclap2.wav
460,192,67380,1,0,0:0:0:0:
153,192,67567,1,0,0:0:0:30:soft-hitclap2.wav
109,192,67567,1,0,0:0:0:0:
51,192,67755,1,0,0:0:0:0:
153,192,67942,1,0,0:0:0:0:
460,192,67942,1,0,0:0:0:30:soft-hitclap2.wav
256,192,68130,1,0,0:0:0:0:
51,192,68317,1,0,0:0:0:0:
109,192,68317,1,0,0:0:0:30:soft-hitclap2.wav
460,192,68505,1,0,0:0:0:0:
153,192,68692,1,0,0:0:0:0:
402,192,68692,1,0,0:0:0:30:soft-hitclap2.wav
256,192,68880,1,0,0:0:0:0:
153,192,69067,1,0,0:0:0:30:soft-hitclap2.wav
460,192,69067,1,0,0:0:0:0:
358,192,69255,1,0,0:0:0:0:
51,192,69442,1,0,0:0:0:0:
153,192,69442,1,0,0:0:0:30:soft-hitclap2.wav
109,192,69630,1,0,0:0:0:0:
358,192,69817,1,0,0:0:0:30:soft-hitclap2.wav
51,192,69817,1,0,0:0:0:0:
460,192,70005,1,0,0:0:0:0:
358,192,70192,1,0,0:0:0:30:soft-hitclap2.wav
256,192,70192,1,0,0:0:0:0:
51,192,70380,1,0,0:0:0:0:
256,192,70567,1,0,0:0:0:0:
460,192,70567,1,0,0:0:0:30:soft-hitclap2.wav
358,192,70755,1,0,0:0:0:0:
256,192,70942,1,0,0:0:0:30:soft-hitclap2.wav
51,192,70942,1,0,0:0:0:0:
153,192,71130,1,0,0:0:0:0:
460,192,71317,1,0,0:0:0:30:soft-hitclap2.wav
358,192,71317,1,0,0:0:0:0:
51,192,71505,1,0,0:0:0:0:
460,192,71692,1,0,0:0:0:30:soft-hitclap2.wav
109,192,71692,1,0,0:0:0:0:
358,192,71880,1,0,0:0:0:0:
153,192,72067,1,0,0:0:0:30:soft-hitclap2.wav
109,192,72067,1,0,0:0:0:0:
256,192,72255,1,0,0:0:0:0:
51,192,72442,1,0,0:0:0:30:soft-hitclap2.wav
153,192,72442,1,0,0:0:0:0:
460,192,72630,1,0,0:0:0:0:
256,192,72817,1,0,0:0:0:0:
402,192,72817,1,0,0:0:0:30:soft-hitclap2.wav
51,192,73005,1,0,0:0:0:0:
460,192,73192,1,0,0:0:0:0:
153,192,73192,1,0,0:0:0:30:soft-hitclap2.wav
256,192,73380,5,0,0:0:0:0:
153,192,73567,1,0,0:0:0:0:
402,192,73567,1,0,0:0:0:30:soft-hitclap2.wav
460,192,73755,5,0,0:0:0:0:
51,192,73755,1,0,0:0:0:0:
256,192,73755,1,0,0:0:0:30:soft-hitfinish2.wav
153,192,74130,1,0,0:0:0:0:
358,192,74130,1,0,0:0:0:0:
256,192,74130,1,0,0:0:0:30:soft-hitfinish2.wav
460,192,74505,1,0,0:0:0:0:
51,192,74505,1,0,0:0:0:0:
153,192,74505,1,0,0:0:0:30:normal-hitclap.wav
358,192,74598,1,0,0:0:0:0:
256,192,74598,1,0,0:0:0:30:normal-hitclap.wav
460,192,74692,1,0,0:0:0:30:normal-hitclap.wav
109,192,74786,1,0,0:0:0:0:
256,192,74786,1,0,0:0:0:30:normal-hitclap.wav
51,192,74880,1,0,0:0:0:0:
460,192,74880,1,0,0:0:0:30:normal-hitclap.wav
402,192,74880,1,0,0:0:0:0:
256,192,75067,1,0,0:0:0:0:
402,192,75067,1,0,0:0:0:30:normal-hitclap.wav
153,192,75255,1,0,0:0:0:30:soft-hitfinish2.wav
109,192,75255,1,0,0:0:0:0:
51,192,75442,1,0,0:0:0:30:soft-hitclap2.wav
358,192,75442,1,0,0:0:0:0:
460,192,75630,1,0,0:0:0:0:
153,192,75817,1,0,0:0:0:30:soft-hitclap2.wav
402,192,75817,1,0,0:0:0:0:
109,192,76005,1,0,0:0:0:0:
256,192,76192,1,0,0:0:0:30:soft-hitclap2.wav
460,192,76192,1,0,0:0:0:0:
329,192,76380,1,0,0:0:0:0:
51,192,76567,1,0,0:0:0:30:soft-hitclap2.wav
256,192,76567,1,0,0:0:0:0:
153,192,76755,1,0,0:0:0:0:
358,192,76942,1,0,0:0:0:30:soft-hitclap2.wav
460,192,76942,1,0,0:0:0:0:
51,192,77130,1,0,0:0:0:0:
153,192,77317,1,0,0:0:0:30:soft-hitclap2.wav
460,192,77317,1,0,0:0:0:0:
358,192,77505,1,0,0:0:0:0:
153,192,77692,1,0,0:0:0:0:
256,192,77692,1,0,0:0:0:30:soft-hitclap2.wav
51,192,77880,1,0,0:0:0:0:
358,192,78067,1,0,0:0:0:0:
109,192,78067,1,0,0:0:0:30:soft-hitclap2.wav
460,192,78255,1,0,0:0:0:0:
358,192,78442,1,0,0:0:0:0:
51,192,78442,1,0,0:0:0:30:soft-hitclap2.wav
402,192,78630,1,0,0:0:0:0:
51,192,78817,1,0,0:0:0:0:
256,192,78817,1,0,0:0:0:30:soft-hitclap2.wav
460,192,79005,1,0,0:0:0:0:
153,192,79192,1,0,0:0:0:30:soft-hitclap2.wav
358,192,79192,1,0,0:0:0:0:
51,192,79380,1,0,0:0:0:0:
153,192,79567,1,0,0:0:0:30:soft-hitclap2.wav
460,192,79567,1,0,0:0:0:0:
402,192,79755,1,0,0:0:0:0:
51,192,79942,1,0,0:0:0:0:
109,192,79942,1,0,0:0:0:30:soft-hitclap2.wav
182,192,80130,1,0,0:0:0:0:
358,192,80317,1,0,0:0:0:0:
402,192,80317,1,0,0:0:0:30:soft-hitclap2.wav
256,192,80505,1,0,0:0:0:0:
153,192,80692,1,0,0:0:0:30:soft-hitclap2.wav
460,192,80692,1,0,0:0:0:0:
358,192,80880,1,0,0:0:0:0:
51,192,81067,1,0,0:0:0:30:soft-hitclap2.wav
402,192,81067,1,0,0:0:0:0:
109,192,81255,1,0,0:0:0:0:
51,192,81442,1,0,0:0:0:0:
256,192,81442,1,0,0:0:0:30:soft-hitclap2.wav
402,192,81630,1,0,0:0:0:0:
358,192,81817,1,0,0:0:0:30:soft-hitclap2.wav
256,192,81817,1,0,0:0:0:0:
51,192,82005,1,0,0:0:0:0:
256,192,82192,1,0,0:0:0:0:
460,192,82192,1,0,0:0:0:30:soft-hitclap2.wav
358,192,82380,1,0,0:0:0:0:
51,192,82567,1,0,0:0:0:30:soft-hitclap2.wav
402,192,82567,1,0,0:0:0:0:
153,192,82755,1,0,0:0:0:0:
460,192,82942,1,0,0:0:0:0:
358,192,82942,1,0,0:0:0:30:soft-hitclap2.wav
256,192,83130,1,0,0:0:0:0:
460,192,83317,1,0,0:0:0:0:
109,192,83317,1,0,0:0:0:30:soft-hitclap2.wav
36,192,83505,1,0,0:0:0:0:
153,192,83692,1,0,0:0:0:30:soft-hitclap2.wav
460,192,83692,1,0,0:0:0:0:
256,192,83880,1,0,0:0:0:0:
51,192,84067,1,0,0:0:0:0:
402,192,84067,1,0,0:0:0:30:soft-hitclap2.wav
153,192,84255,1,0,0:0:0:0:
256,192,84442,1,0,0:0:0:0:
109,192,84442,1,0,0:0:0:30:soft-hitclap2.wav
358,192,84630,1,0,0:0:0:0:
460,192,84817,1,0,0:0:0:30:soft-hitclap2.wav
153,192,84817,1,0,0:0:0:0:
402,192,85005,1,0,0:0:0:0:
51,192,85192,1,0,0:0:0:0:
153,192,85192,1,0,0:0:0:30:soft-hitclap2.wav
460,192,85380,1,0,0:0:0:0:
358,192,85567,1,0,0:0:0:30:soft-hitclap2.wav
51,192,85567,1,0,0:0:0:0:
460,192,85755,5,0,0:0:0:0:
153,192,85755,1,0,0:0:0:0:
256,192,85755,1,0,0:0:0:30:soft-hitclap99.wav
256,192,86130,1,0,0:0:0:30:soft-hitclap99.wav
51,192,86130,1,0,0:0:0:0:
358,192,86130,1,0,0:0:0:0:
256,192,86505,1,0,0:0:0:0:
153,192,86505,1,0,0:0:0:0:
402,192,86505,1,0,0:0:0:30:normal-hitclap.wav
358,192,86598,1,0,0:0:0:30:normal-hitclap.wav
460,192,86692,1,0,0:0:0:0:
256,192,86692,1,0,0:0:0:30:normal-hitclap.wav
109,192,86786,1,0,0:0:0:30:normal-hitclap.wav
153,192,86880,1,0,0:0:0:0:
358,192,87067,1,0,0:0:0:30:soft-hitclap2.wav
51,192,87067,1,0,0:0:0:0:
153,192,87255,1,0,0:0:0:0:
460,192,87255,1,0,0:0:0:0:
51,192,87442,1,0,0:0:0:30:soft-hitclap2.wav
329,192,87442,1,0,0:0:0:0:
460,192,87630,1,0,0:0:0:0:
153,192,87817,1,0,0:0:0:30:soft-hitclap2.wav
402,192,87817,1,0,0:0:0:0:
109,192,88005,1,0,0:0:0:0:
256,192,88192,1,0,0:0:0:0:
402,192,88192,1,0,0:0:0:30:soft-hitclap2.wav
51,192,88380,1,0,0:0:0:0:
153,192,88567,1,0,0:0:0:30:soft-hitclap2.wav
460,192,88567,1,0,0:0:0:0:
256,192,88755,1,0,0:0:0:30:soft-hitfinish99.wav
153,192,88755,1,0,0:0:0:0:
358,192,88755,1,0,0:0:0:0:
51,192,89130,1,0,0:0:0:0:
460,192,89130,1,0,0:0:0:30:soft-hitfinish99.wav
358,192,89130,1,0,0:0:0:0:
51,192,89505,1,0,0:0:0:30:soft-hitfinish99.wav
153,192,89505,1,0,0:0:0:30:normal-hitclap.wav
460,192,89505,1,0,0:0:0:0:
358,192,89598,1,0,0:0:0:30:normal-hitclap.wav
153,192,89692,1,0,0:0:0:30:normal-hitclap.wav
329,192,89786,1,0,0:0:0:30:normal-hitclap.wav
256,192,89880,1,0,0:0:0:30:normal-hitclap.wav
460,192,90067,1,0,0:0:0:30:normal-hitclap.wav
51,192,90255,1,0,0:0:0:30:normal-hitclap.wav
358,192,90442,1,0,0:0:0:30:normal-hitclap.wav
109,192,90630,1,0,0:0:0:30:normal-hitclap.wav
256,192,90817,1,0,0:0:0:30:normal-hitclap.wav
460,192,91005,1,0,0:0:0:30:normal-hitclap.wav
36,192,91192,1,0,0:0:0:30:normal-hitclap.wav
402,192,91380,1,0,0:0:0:30:normal-hitclap.wav
256,192,91567,1,0,0:0:0:0:
182,192,91567,1,0,0:0:0:0:
51,192,91755,1,0,0:0:0:0:
475,192,91755,128,0,92130:0:0:0:0:
329,192,91755,1,0,0:0:0:30:soft-hitfinish99.wav
109,192,91755,1,0,0:0:0:30:soft-hitfinish99.wav
153,192,92130,1,0,0:0:0:30:soft-hitfinish99.wav
51,192,92130,128,0,92505:0:0:0:0:
402,192,92130,1,0,0:0:0:30:soft-hitfinish99.wav
460,192,92505,1,0,0:0:0:30:soft-hitfinish99.wav
109,192,92505,128,0,92880:0:0:0:0:
329,192,92505,1,0,0:0:0:30:soft-hitfinish99.wav
256,192,92880,1,0,0:0:0:30:soft-hitfinish99.wav
402,192,92880,128,0,93255:0:0:0:0:
182,192,92880,1,0,0:0:0:30:soft-hitfinish99.wav
460,192,93255,128,0,94005:0:0:0:0:
51,192,93255,128,0,95505:0:0:0:0:
256,192,93255,128,0,94755:0:0:0:0:
182,192,95505,128,0,95692:0:0:0:0:
109,192,95505,1,0,0:0:0:0:
256,192,95692,128,0,95880:0:0:0:0:
36,192,95692,1,0,0:0:0:0:
109,192,95880,1,0,0:0:0:0:
460,192,95880,128,0,96067:0:0:0:0:
402,192,96067,128,0,96255:0:0:0:0:
182,192,96067,1,0,0:0:0:0:
256,192,96255,1,0,0:0:0:30:soft-hitclap.wav
475,192,96255,128,0,96630:0:0:0:0:
51,192,96442,1,0,0:0:0:0:
329,192,96442,1,0,0:0:0:30:normal-hitclap.wav
256,192,96630,1,0,0:0:0:30:normal-hitclap.wav
109,192,96630,128,0,97005:0:0:0:0:
460,192,96817,1,0,0:0:0:0:
153,192,96817,1,0,0:0:0:30:normal-hitclap.wav
358,192,97005,1,0,0:0:0:30:normal-hitclap.wav
36,192,97005,128,0,97192:0:0:0:0:
460,192,97192,1,0,0:0:0:30:normal-hitclap.wav
182,192,97192,128,0,97380:0:0:0:0:
51,192,97380,1,0,0:0:0:30:normal-hitclap.wav
402,192,97380,128,0,97567:0:0:0:0:
153,192,97567,1,0,0:0:0:30:normal-hitclap.wav
256,192,97567,128,0,97755:0:0:0:0:
358,192,97755,1,0,0:0:0:30:soft-hitclap.wav
475,192,97755,128,0,98130:0:0:0:0:
109,192,97942,1,0,0:0:0:0:
402,192,97942,1,0,0:0:0:30:normal-hitclap.wav
256,192,98130,1,0,0:0:0:30:normal-hitclap.wav
36,192,98130,128,0,98505:0:0:0:0:
402,192,98317,1,0,0:0:0:0:
329,192,98317,1,0,0:0:0:30:normal-hitclap.wav
182,192,98505,1,0,0:0:0:30:normal-hitclap.wav
475,192,98505,1,0,0:0:0:0:
109,192,98505,128,0,98692:0:0:0:0:
256,192,98692,1,0,0:0:0:30:normal-hitclap.wav
329,192,98692,128,0,98880:0:0:0:0:
402,192,98692,1,0,0:0:0:0:
182,192,98880,1,0,0:0:0:30:normal-hitclap.wav
475,192,98880,128,0,99067:0:0:0:0:
402,192,99067,1,0,0:0:0:0:
256,192,99067,128,0,99255:0:0:0:0:
36,192,99067,1,0,0:0:0:30:normal-hitclap.wav
329,192,99255,1,0,0:0:0:30:soft-hitclap.wav
109,192,99255,128,0,99630:0:0:0:0:
36,192,99442,1,0,0:0:0:0:
475,192,99442,1,0,0:0:0:30:normal-hitclap.wav
153,192,99630,1,0,0:0:0:30:normal-hitclap.wav
402,192,99630,128,0,100005:0:0:0:0:
256,192,99817,1,0,0:0:0:30:normal-hitclap.wav
329,192,99817,1,0,0:0:0:0:
51,192,100005,1,0,0:0:0:30:normal-hitclap.wav
109,192,100005,128,0,100192:0:0:0:0:
460,192,100192,1,0,0:0:0:0:
182,192,100192,128,0,100380:0:0:0:0:
256,192,100192,1,0,0:0:0:30:normal-hitclap.wav
358,192,100380,1,0,0:0:0:30:normal-hitclap.wav
256,192,100380,128,0,100567:0:0:0:0:
51,192,100567,1,0,0:0:0:0:
460,192,100567,1,0,0:0:0:30:normal-hitclap.wav
402,192,100567,128,0,100755:0:0:0:0:
182,192,100567,1,0,0:0:0:0:
256,192,100755,1,0,0:0:0:30:soft-hitclap.wav
182,192,100755,128,0,101130:0:0:0:0:
358,192,100942,1,0,0:0:0:30:normal-hitclap.wav
109,192,100942,1,0,0:0:0:0:
460,192,101130,1,0,0:0:0:30:normal-hitclap.wav
402,192,101130,128,0,101505:0:0:0:0:
109,192,101317,1,0,0:0:0:30:soft-hitclap.wav
256,192,101317,1,0,0:0:0:30:normal-hitclap.wav
153,192,101505,1,0,0:0:0:30:normal-hitclap.wav
36,192,101505,128,0,101692:0:0:0:0:
460,192,101692,1,0,0:0:0:30:soft-hitclap.wav
109,192,101692,128,0,101880:0:0:0:0:
329,192,101692,1,0,0:0:0:30:normal-hitclap.wav
51,192,101880,1,0,0:0:0:0:
256,192,101880,1,0,0:0:0:30:normal-hitclap.wav
402,192,101880,128,0,102067:0:0:0:0:
153,192,102067,1,0,0:0:0:30:normal-hitclap.wav
475,192,102067,128,0,102255:0:0:0:0:
256,192,102067,1,0,0:0:0:0:
51,192,102255,1,0,0:0:0:30:soft-hitclap.wav
329,192,102255,128,0,102630:0:0:0:0:
153,192,102442,1,0,0:0:0:0:
109,192,102442,1,0,0:0:0:30:normal-hitclap.wav
460,192,102630,1,0,0:0:0:30:normal-hitclap.wav
256,192,102630,128,0,103005:0:0:0:0:
51,192,102817,1,0,0:0:0:0:
402,192,102817,1,0,0:0:0:30:normal-hitclap.wav
475,192,103005,128,0,103192:0:0:0:0:
109,192,103005,1,0,0:0:0:30:normal-hitclap.wav
358,192,103192,1,0,0:0:0:0:
51,192,103192,1,0,0:0:0:30:normal-hitclap.wav
402,192,103192,128,0,103380:0:0:0:0:
153,192,103380,1,0,0:0:0:30:normal-hitclap.wav
256,192,103380,128,0,103567:0:0:0:0:
460,192,103567,1,0,0:0:0:30:normal-hitclap.wav
51,192,103567,1,0,0:0:0:0:
182,192,103567,128,0,103755:0:0:0:0:
358,192,103755,1,0,0:0:0:30:soft-hitclap.wav
36,192,103755,128,0,104130:0:0:0:0:
153,192,103942,1,0,0:0:0:30:normal-hitclap.wav
475,192,103942,1,0,0:0:0:0:
256,192,104130,128,0,104505:0:0:0:0:
402,192,104130,1,0,0:0:0:30:normal-hitclap.wav
460,192,104317,1,0,0:0:0:30:normal-hitclap.wav
109,192,104317,1,0,0:0:0:0:
329,192,104505,1,0,0:0:0:30:normal-hitclap.wav
36,192,104505,128,0,104692:0:0:0:0:
460,192,104692,1,0,0:0:0:0:
109,192,104692,128,0,104880:0:0:0:0:
256,192,104692,1,0,0:0:0:30:normal-hitclap.wav
153,192,104880,1,0,0:0:0:30:normal-hitclap.wav
329,192,104880,128,0,105067:0:0:0:0:
109,192,105067,1,0,0:0:0:0:
475,192,105067,128,0,105255:0:0:0:0:
256,192,105067,1,0,0:0:0:30:normal-hitclap.wav
51,192,105255,1,0,0:0:0:30:soft-hitclap.wav
402,192,105255,128,0,105630:0:0:0:0:
182,192,105442,1,0,0:0:0:30:normal-hitclap.wav
329,192,105442,1,0,0:0:0:0:
460,192,105630,1,0,0:0:0:30:normal-hitclap.wav
109,192,105630,128,0,106005:0:0:0:0:
153,192,105817,1,0,0:0:0:0:
329,192,105817,1,0,0:0:0:30:normal-hitclap.wav
51,192,106005,1,0,0:0:0:30:soft-hitclap.wav
475,192,106005,128,0,106192:0:0:0:0:
358,192,106098,1,0,0:0:0:0:
402,192,106192,128,0,106380:0:0:0:0:
109,192,106192,1,0,0:0:0:0:
51,192,106380,1,0,0:0:0:0:
256,192,106380,128,0,106567:0:0:0:0:
358,192,106567,1,0,0:0:0:0:
182,192,106567,128,0,106755:0:0:0:0:
402,192,106567,1,0,0:0:0:0:
460,192,106755,128,0,107130:0:0:0:30:soft-hitfinish2.wav
51,192,106755,128,0,107130:0:0:0:30:soft-hitfinish2.wav
358,192,107130,128,0,107505:0:0:0:30:soft-hitfinish2.wav
153,192,107130,128,0,107505:0:0:0:30:soft-hitfinish2.wav
256,192,107505,128,0,107880:0:0:0:0:
51,192,107880,1,0,0:0:0:30:normal-hitclap.wav
460,192,107880,1,0,0:0:0:30:normal-hitclap.wav
