osu file format v14

[General]
AudioFilename: audio.mp3
AudioLeadIn: 0
PreviewTime: 63067
Countdown: 0
SampleSet: Soft
StackLeniency: 0.7
Mode: 2
LetterboxInBreaks: 0
WidescreenStoryboard: 0

[Editor]
Bookmarks: 15255,27255,39255,51255,63255,75255,85755,93255,96255,107505
DistanceSpacing: 1.2
BeatDivisor: 4
GridSize: 4
TimelineZoom: 1

[Metadata]
Title:Horang Pungryuga
TitleUnicode:호랑풍류가
Artist:Narae
ArtistUnicode:나래
Creator:Kin
Version:Rain
Source:나와 호랑이님
Tags:상록수 nofool Ascendance
BeatmapID:1327146
BeatmapSetID:628971

[Difficulty]
HPDrainRate:6
CircleSize:4.3
OverallDifficulty:9
ApproachRate:9
SliderMultiplier:2
SliderTickRate:2

[Events]
//Background and Video events
0,0,"horang.jpg",0,0
Video,0,"video.avi"
//Break Periods
//Storyboard Layer 0 (Background)
//Storyboard Layer 1 (Fail)
//Storyboard Layer 2 (Pass)
//Storyboard Layer 3 (Foreground)
//Storyboard Sound Samples

[TimingPoints]
255,375,4,2,1,80,1,0
61755,-55.5555555555556,4,2,1,80,0,0
62505,-100,4,2,1,80,0,0
63255,-100,4,2,1,100,0,1
73755,-55.5555555555556,4,2,1,100,0,1
73848,-100,4,2,1,100,0,1
75161,-100,4,2,1,100,0,0
75255,-100,4,2,1,100,0,1
85755,-55.5555555555556,4,2,1,100,0,1
85848,-100,4,2,1,100,0,1
88755,-55.5555555555556,4,2,1,100,0,1
88848,-100,4,2,1,100,0,1
93255,-100,4,2,1,80,0,0
106755,-55.5555555555556,4,2,1,80,0,0
106848,-100,4,2,1,80,0,0

[Colours]
Combo1 : 255,143,32
Combo2 : 214,214,214
Combo3 : 170,227,255

[HitObjects]
112,100,255,5,4,0:0:0:0:
272,156,348,2,0,B|321:167|321:167|272:156,1,100,2|0,0:0|0:0,0:0:0:0:
184,156,630,2,0,B|135:167|135:167|184:156,1,100,2|0,0:0|0:0,0:0:0:0:
344,216,1005,1,4,0:0:0:0:
184,272,1098,2,0,B|135:283|135:283|184:272,1,100,2|0,0:0|0:0,0:0:0:0:
272,272,1380,2,0,B|321:283|321:283|272:272,1,100,2|0,0:0|0:0,0:0:0:0:
112,100,1755,5,0,0:0:0:0:
272,156,1848,2,0,B|321:167|321:167|272:156,1,100,2|0,0:0|0:0,0:0:0:0:
184,156,2130,2,0,B|135:167|135:167|184:156,1,100,2|0,0:0|0:0,0:0:0:0:
304,88,2505,1,2,0:3:0:0:
124,56,2692,1,2,0:0:0:0:
304,88,2880,1,2,0:0:0:0:
124,56,3067,1,2,0:0:0:0:
384,180,3255,6,0,P|456:228|372:260,1,200,4|2,3:2|0:0,0:0:0:0:
268,200,3817,1,8,0:0:0:0:
348,92,4005,1,2,0:0:0:0:
168,44,4192,1,8,0:0:0:0:
348,92,4380,1,2,0:0:0:0:
168,44,4567,1,8,0:0:0:0:
428,116,4755,6,0,P|500:164|416:196,1,200,0|2,3:2|0:0,0:0:0:0:
332,108,5317,1,8,0:0:0:0:
212,212,5505,1,2,0:0:0:0:
392,292,5692,1,8,0:0:0:0:
212,212,5880,1,2,0:0:0:0:
392,292,6067,1,8,0:0:0:0:
128,44,6255,6,0,P|56:92|140:124,1,200,0|2,3:2|0:0,0:0:0:0:
208,68,6817,1,8,0:0:0:0:
328,172,7005,1,2,0:0:0:0:
148,292,7192,1,8,0:0:0:0:
328,172,7380,1,2,0:0:0:0:
148,292,7567,1,8,0:0:0:0:
408,184,7755,6,0,P|432:144|408:100,1,100,0|8,3:0|0:0,0:0:0:0:
228,116,8130,2,0,P|204:76|228:32,1,100,0|8,3:0|0:0,0:0:0:0:
408,184,8505,1,0,3:0:0:0:
488,272,8692,1,8,0:0:0:0:
408,184,8880,1,2,0:0:0:0:
488,272,9067,1,8,0:0:0:0:
128,320,9255,6,0,P|56:272|140:240,1,200,4|2,3:2|0:0,0:0:0:0:
204,284,9817,1,8,0:0:0:0:
324,196,10005,1,2,0:0:0:0:
144,64,10192,1,8,0:0:0:0:
324,196,10380,1,2,0:0:0:0:
144,64,10567,1,8,0:0:0:0:
404,320,10755,6,0,P|476:272|392:240,1,200,0|2,3:0|0:0,0:0:0:0:
284,272,11317,1,8,0:0:0:0:
364,96,11505,1,2,0:0:0:0:
184,48,11692,1,8,0:0:0:0:
364,96,11880,1,2,0:0:0:0:
184,48,12067,1,8,0:0:0:0:
444,68,12255,6,0,P|516:116|432:148,1,200,0|2,3:0|0:0,0:0:0:0:
364,72,12817,1,8,0:0:0:0:
244,192,13005,1,2,0:0:0:0:
424,296,13192,1,8,0:0:0:0:
244,192,13380,1,2,0:0:0:0:
424,296,13567,1,8,0:0:0:0:
160,60,13755,6,0,P|116:60|80:100,1,100,0|0,3:0|0:0,0:0:0:0:
340,40,14130,1,2,0:0:0:0:
220,156,14317,1,2,0:0:0:0:
400,232,14505,2,0,L|436:196,1,50,0|8,0:0|0:0,0:0:0:0:
316,156,14786,2,0,L|280:120,1,50,8|8,0:0|0:0,0:0:0:0:
400,64,15067,1,8,0:0:0:0:
140,44,15255,6,0,P|72:64|84:176,1,200,4|0,0:0|0:0,0:0:0:0:
200,124,15817,1,0,0:0:0:0:
292,156,15911,2,0,P|328:204|288:280,1,150
172,212,16380,1,8,0:0:0:0:
292,80,16567,1,0,0:0:0:0:
412,192,16755,5,0,0:0:0:0:
292,80,16942,1,0,0:0:0:0:
412,64,17130,1,8,0:0:0:0:
232,176,17317,1,0,0:0:0:0:
144,208,17411,2,0,P|104:252|148:324,1,150
324,268,17880,2,0,L|372:160,1,100,8|0,0:0|0:0,0:0:0:0:
104,108,18255,6,0,P|20:140|44:244,1,200,0|8,0:0|0:0,0:0:0:0:
152,268,18817,1,0,0:0:0:0:
244,248,18911,2,0,P|288:220|240:156,1,150
120,84,19380,1,8,0:0:0:0:
240,68,19567,1,0,0:0:0:0:
360,88,19755,5,0,0:0:0:0:
240,68,19942,1,0,0:0:0:0:
360,88,20130,1,8,0:0:0:0:
180,64,20317,1,0,0:0:0:0:
88,80,20411,2,0,P|44:108|92:172,1,150
272,152,20880,2,0,L|176:80,1,100,8|0,0:0|0:0,0:0:0:0:
452,116,21255,6,0,P|492:180|388:216,1,200,0|8,0:0|0:0,0:0:0:0:
284,120,21817,1,0,0:0:0:0:
192,136,21911,2,0,P|148:164|196:248,1,150
296,240,22380,1,8,0:0:0:0:
176,192,22567,1,0,0:0:0:0:
296,240,22755,5,0,0:0:0:0:
176,192,22942,1,0,0:0:0:0:
56,140,23130,1,8,0:0:0:0:
236,132,23317,1,0,0:0:0:0:
328,116,23411,2,0,P|364:92|324:8,1,150
148,72,23880,2,0,L|116:172,1,100,8|0,0:0|0:0,0:0:0:0:
380,320,24255,6,0,P|448:292|372:236,1,200,0|8,0:0|0:0,0:0:0:0:
296,276,24817,1,0,0:0:0:0:
116,216,25005,2,0,L|160:112,1,100
336,184,25380,2,0,L|292:80,1,100,8|0,0:0|0:0,0:0:0:0:
116,216,25755,5,0,0:0:0:0:
224,228,25942,1,0,0:0:0:0:
84,136,26130,1,8,0:0:0:0:
264,136,26317,1,0,0:0:0:0:
8,68,26505,2,0,B|72:364,1,300,8|0,0:0|0:0,0:0:0:0:
352,64,27255,6,0,P|432:76|356:144,1,200,4|8,3:2|0:0,0:0:0:0:
264,100,27817,1,0,0:0:0:0:
112,128,28005,1,0,0:0:0:0:
68,168,28098,1,0,0:0:0:0:
56,228,28192,1,0,0:0:0:0:
80,284,28286,1,0,0:0:0:0:
140,300,28380,1,8,0:0:0:0:
260,212,28567,1,0,0:0:0:0:
440,64,28755,5,0,0:0:0:0:
488,100,28848,1,0,0:0:0:0:
512,156,28942,1,0,0:0:0:0:
508,216,29036,1,0,0:0:0:0:
472,264,29130,1,8,0:0:0:0:
352,232,29317,1,0,0:0:0:0:
232,160,29505,2,0,L|192:200,1,50
316,24,29786,2,0,L|276:64,1,50,0|8,0:0|0:0,0:0:0:0:
100,56,30067,1,0,0:0:0:0:
364,120,30255,6,0,L|400:156,1,50
280,228,30536,2,0,L|244:264,1,50,0|8,0:0|0:0,0:0:0:0:
364,264,30817,1,0,0:0:0:0:
184,332,31005,1,0,0:0:0:0:
132,304,31098,1,0,0:0:0:0:
112,248,31192,1,0,0:0:0:0:
128,188,31286,1,0,0:0:0:0:
180,156,31380,1,8,0:0:0:0:
300,156,31567,1,0,0:0:0:0:
120,212,31755,5,0,0:0:0:0:
92,160,31848,1,0,0:0:0:0:
152,136,31942,1,0,0:0:0:0:
180,84,32035,1,0,0:0:0:0:
120,60,32130,1,8,0:0:0:0:
0,96,32317,1,0,0:0:0:0:
180,268,32505,2,0,L|228:220,1,50
96,264,32786,2,0,L|144:216,1,50,0|8,0:0|0:0,0:0:0:0:
312,200,33067,1,0,0:0:0:0:
52,136,33255,6,0,L|4:88,1,50
136,108,33536,2,0,L|184:60,1,50,0|8,0:0|0:0,0:0:0:0:
52,36,33817,1,0,0:0:0:0:
172,100,34005,1,0,0:0:0:0:
224,128,34098,1,0,0:0:0:0:
256,180,34192,1,0,0:0:0:0:
248,240,34286,1,0,0:0:0:0:
204,280,34380,1,8,0:0:0:0:
84,200,34567,1,0,0:0:0:0:
264,376,34755,5,0,0:0:0:0:
292,324,34848,1,0,0:0:0:0:
232,300,34942,1,0,0:0:0:0:
204,248,35036,1,0,0:0:0:0:
264,224,35130,1,8,0:0:0:0:
384,240,35317,1,0,0:0:0:0:
264,96,35505,2,0,L|224:56,1,50
348,92,35786,2,0,L|308:52,1,50,0|8,0:0|0:0,0:0:0:0:
132,88,36067,1,0,0:0:0:0:
392,212,36255,6,0,L|440:164,1,50
308,208,36536,2,0,L|260:160,1,50,0|8,0:0|0:0,0:0:0:0:
392,128,36817,1,0,0:0:0:0:
212,40,37005,1,0,0:0:0:0:
160,68,37098,1,0,0:0:0:0:
136,124,37192,1,0,0:0:0:0:
160,68,37286,1,0,0:0:0:0:
212,40,37380,1,8,0:0:0:0:
332,96,37567,1,0,0:0:0:0:
152,168,37755,5,0,0:0:0:0:
124,220,37848,1,0,0:0:0:0:
184,244,37942,1,0,0:0:0:0:
212,296,38036,1,0,0:0:0:0:
120,312,38130,1,8,0:0:0:0:
240,368,38317,1,0,0:0:0:0:
40,352,38505,2,0,P|56:252|208:308,1,300,8|0,0:0|0:0,0:0:0:0:
468,236,39255,5,4,3:2:0:0:
348,176,39442,1,0,0:0:0:0:
308,124,39536,1,0,0:0:0:0:
268,76,39630,1,0,0:0:0:0:
88,284,39817,1,0,0:0:0:0:
128,232,39911,1,0,0:0:0:0:
168,184,40005,1,0,0:0:0:0:
348,88,40192,1,0,0:0:0:0:
408,136,40286,1,0,0:0:0:0:
428,212,40380,1,0,0:0:0:0:
248,300,40567,1,0,0:0:0:0:
188,252,40661,1,0,0:0:0:0:
168,176,40755,5,0,0:0:0:0:
348,88,40942,2,0,L|432:96,2,50
168,176,41317,2,0,L|84:184,2,50
348,88,41692,1,0,0:0:0:0:
368,160,41786,1,0,0:0:0:0:
320,212,41880,1,0,0:0:0:0:
140,52,42067,1,0,0:0:0:0:
120,124,42161,1,0,0:0:0:0:
168,176,42255,5,0,0:0:0:0:
348,176,42442,1,0,0:0:0:0:
308,124,42536,1,0,0:0:0:0:
268,76,42630,1,0,0:0:0:0:
148,288,42817,1,0,0:0:0:0:
188,236,42911,1,0,0:0:0:0:
228,188,43005,1,0,0:0:0:0:
408,92,43192,1,0,0:0:0:0:
468,140,43286,1,0,0:0:0:0:
488,216,43380,1,0,0:0:0:0:
308,304,43567,1,0,0:0:0:0:
248,256,43661,1,0,0:0:0:0:
228,180,43755,5,0,0:0:0:0:
408,92,43942,2,0,L|492:100,2,50
228,180,44317,2,0,L|144:188,2,50
408,92,44692,1,0,0:0:0:0:
428,164,44786,1,0,0:0:0:0:
380,216,44880,1,0,0:0:0:0:
260,32,45067,1,0,0:0:0:0:
220,88,45161,1,0,0:0:0:0:
60,136,45255,5,4,3:2:0:0:
80,240,45442,1,0,0:0:0:0:
120,284,45536,1,0,0:0:0:0:
160,332,45630,1,0,0:0:0:0:
340,36,45817,1,0,0:0:0:0:
300,80,45911,1,0,0:0:0:0:
260,128,46005,1,0,0:0:0:0:
432,112,46192,1,0,0:0:0:0:
492,160,46286,1,0,0:0:0:0:
512,236,46380,1,0,0:0:0:0:
332,324,46567,1,0,0:0:0:0:
272,276,46661,1,0,0:0:0:0:
252,200,46755,5,0,0:0:0:0:
432,112,46942,2,0,L|516:120,2,50
252,200,47317,2,0,L|168:208,2,50
432,92,47692,1,0,0:0:0:0:
452,164,47786,1,0,0:0:0:0:
404,216,47880,1,0,0:0:0:0:
224,56,48067,1,0,0:0:0:0:
204,128,48161,1,0,0:0:0:0:
284,188,48255,5,0,0:0:0:0:
336,228,48348,1,0,0:0:0:0:
356,292,48442,1,0,0:0:0:0:
336,356,48536,1,0,0:0:0:0:
224,368,48630,1,0,0:0:0:0:
164,344,48723,1,0,0:0:0:0:
144,284,48817,1,0,0:0:0:0:
172,224,48911,1,0,0:0:0:0:
284,188,49005,5,0,0:0:0:0:
344,164,49098,1,0,0:0:0:0:
364,104,49192,1,0,0:0:0:0:
336,44,49286,1,0,0:0:0:0:
224,8,49380,1,0,0:0:0:0:
160,28,49473,1,0,0:0:0:0:
112,80,49567,1,0,0:0:0:0:
100,148,49661,1,0,0:0:0:0:
260,340,49755,5,0,0:0:0:0:
324,320,49848,1,0,0:0:0:0:
372,268,49942,1,0,0:0:0:0:
384,200,50036,1,0,0:0:0:0:
224,104,50130,1,0,0:0:0:0:
148,84,50223,1,0,0:0:0:0:
80,128,50317,1,0,0:0:0:0:
60,208,50411,1,0,0:0:0:0:
260,340,50505,2,0,B|328:336|384:276|388:208|388:208|288:208,1,300,2|0,0:0|0:0,0:0:0:0:
28,76,51255,6,0,B|0:88|0:88|56:64|112:64|168:84,2,200,4|0|0,0:0|0:0|0:0,0:0:0:0:
388,184,52380,1,0,0:0:0:0:
268,136,52567,1,0,0:0:0:0:
388,184,52755,6,0,L|352:280,1,100
172,236,53130,2,0,L|208:332,1,100
388,184,53505,1,0,0:0:0:0:
148,84,53880,1,0,0:0:0:0:
268,48,54067,1,0,0:0:0:0:
388,4,54255,6,0,L|180:4,1,200
368,96,54817,1,0,0:0:0:0:
188,160,55005,1,0,0:0:0:0:
308,216,55192,1,0,0:0:0:0:
188,296,55380,6,0,L|392:292,2,200,0|0|2,0:0|0:0|0:0,0:0:0:0:
428,292,56505,1,2,0:0:0:0:
188,292,56880,2,0,P|152:260|152:200,1,100
408,100,57255,6,0,P|308:120|208:92,2,200,4|0|0,0:0|0:0|0:0,0:0:0:0:
48,68,58380,1,0,0:0:0:0:
168,96,58567,1,0,0:0:0:0:
48,68,58755,6,0,L|72:176,1,100
252,56,59130,2,0,L|228:164,1,100
48,68,59505,1,0,0:0:0:0:
292,272,59880,1,0,0:0:0:0:
412,260,60067,1,0,0:0:0:0:
232,344,60255,6,0,P|200:288|272:184,1,200
384,176,60817,1,0,0:0:0:0:
264,72,61005,1,0,0:0:0:0:
184,176,61192,1,0,0:0:0:0:
364,84,61380,2,0,P|364:48|328:-4,1,100,8|8,0:0|0:0,0:0:0:0:
68,224,61755,6,0,P|252:248|432:224,2,359.999989013672,4|0|0,3:2|1:0|0:0,0:0:0:0:
32,188,62598,1,8,0:0:0:0:
212,168,62786,1,8,0:0:0:0:
247,132,62880,1,10,0:0:0:0:
68,72,63067,1,10,0:0:0:0:
388,40,63255,6,0,P|424:76|424:128,1,100,4|8,3:2|0:0,0:0:0:0:
244,88,63630,2,0,P|208:124|208:176,1,100,2|8,0:0|0:0,0:0:0:0:
388,40,64005,2,0,P|424:76|424:128,1,100,2|8,0:0|0:0,0:0:0:0:
240,236,64380,2,0,L|296:236,2,50,2|0|8,0:0|0:0|0:0,0:0:0:0:
120,260,64755,5,2,0:0:0:0:
300,348,64942,1,8,0:0:0:0:
120,372,65130,1,2,0:0:0:0:
72,336,65223,1,0,0:0:0:0:
52,280,65317,1,10,0:0:0:0:
352,236,65505,2,0,P|388:200|388:152,1,100,2|8,0:0|0:0,0:0:0:0:
208,40,65880,2,0,P|172:76|172:124,1,100,2|8,0:0|0:0,0:0:0:0:
432,336,66255,6,0,P|484:296|396:276,1,200,2|2,0:0|0:0,0:0:0:0:
216,340,66817,1,8,0:0:0:0:
396,272,67005,1,2,0:0:0:0:
276,216,67192,1,8,0:0:0:0:
396,272,67380,1,2,0:0:0:0:
436,228,67473,1,0,0:0:0:0:
424,168,67567,1,8,0:0:0:0:
204,80,67755,6,0,P|138:142|219:150,1,200,2|0,0:0|0:0,0:0:0:0:
248,132,68223,1,0,0:0:0:0:
260,184,68317,1,8,0:0:0:0:
140,296,68505,1,0,0:0:0:0:
320,320,68692,1,8,0:0:0:0:
200,152,68880,1,0,0:0:0:0:
160,108,68973,1,0,0:0:0:0:
172,52,69067,1,10,0:0:0:0:
432,112,69255,6,0,P|468:148|468:196,1,100,2|8,0:0|0:0,0:0:0:0:
288,184,69630,2,0,P|252:220|252:268,1,100,2|8,0:0|0:0,0:0:0:0:
432,296,70005,2,0,B|464:280|472:248|472:248|440:208|384:208|344:232,1,200,2|2,0:0|0:0,0:0:0:0:
160,256,70567,1,8,0:0:0:0:
340,120,70755,5,2,0:0:0:0:
160,76,70942,1,8,0:0:0:0:
280,200,71130,1,2,0:0:0:0:
100,176,71317,1,10,0:0:0:0:
360,52,71505,2,0,P|396:88|396:136,1,100,2|8,0:0|0:0,0:0:0:0:
216,280,71880,2,0,P|180:244|180:196,1,100,2|8,0:0|0:0,0:0:0:0:
440,200,72255,6,0,P|512:236|436:260,1,200,2|2,0:0|0:0,0:0:0:0:
320,228,72817,1,8,0:0:0:0:
440,80,73005,1,2,0:0:0:0:
260,156,73192,1,8,0:0:0:0:
380,184,73380,1,2,0:0:0:0:
200,72,73567,1,8,0:0:0:0:
472,204,73755,6,0,P|304:240|116:200,2,359.999989013672,4|4|0,0:0|0:0|0:0,0:0:0:0:
504,168,74598,1,8,0:0:0:0:
384,144,74786,1,8,0:0:0:0:
352,108,74880,1,8,0:0:0:0:
472,32,75067,1,8,0:0:0:0:
108,40,75255,6,0,P|72:76|72:124,1,100,4|8,3:2|0:0,0:0:0:0:
332,320,75630,2,0,P|368:284|368:236,1,100,2|8,0:0|0:0,0:0:0:0:
108,40,76005,2,0,P|72:76|72:124,1,100,2|8,0:0|0:0,0:0:0:0:
252,180,76380,2,0,L|192:180,2,50,2|0|8,0:0|0:0|0:0,0:0:0:0:
432,264,76755,5,2,0:0:0:0:
312,288,76942,1,8,0:0:0:0:
492,132,77130,1,2,0:0:0:0:
312,48,77317,1,10,0:0:0:0:
492,132,77505,2,0,P|512:172|512:228,1,100,2|8,0:0|0:0,0:0:0:0:
332,328,77880,1,2,0:0:0:0:
452,332,78067,1,8,0:0:0:0:
172,104,78255,6,0,P|100:140|176:164,1,200,2|2,0:0|0:0,0:0:0:0:
352,52,78817,1,8,0:0:0:0:
172,28,79005,1,2,0:0:0:0:
292,132,79192,1,8,0:0:0:0:
112,220,79380,1,2,0:0:0:0:
72,176,79473,1,0,0:0:0:0:
92,120,79567,1,8,0:0:0:0:
352,72,79755,6,0,P|372:160|292:216,1,200,2|0,0:0|0:0,0:0:0:0:
240,192,80223,1,0,0:0:0:0:
228,140,80317,1,8,0:0:0:0:
348,88,80505,1,0,0:0:0:0:
168,56,80692,1,8,0:0:0:0:
348,88,80880,2,0,L|416:88,2,50,0|0|10,0:0|0:0|0:0,0:0:0:0:
68,164,81255,6,0,P|32:200|32:248,1,100,2|8,0:0|0:0,0:0:0:0:
292,328,81630,2,0,P|328:292|328:244,1,100,2|8,0:0|0:0,0:0:0:0:
68,164,82005,2,0,P|32:200|32:248,1,100,2|8,0:0|0:0,0:0:0:0:
292,328,82380,1,2,0:0:0:0:
172,204,82567,1,8,0:0:0:0:
432,100,82755,5,2,0:0:0:0:
252,108,82942,2,0,L|188:108,2,50,8|0|2,0:0|0:0|0:0,0:0:0:0:
372,200,83317,1,10,0:0:0:0:
112,200,83505,2,0,P|68:228|68:276,1,100,2|8,0:0|0:0,0:0:0:0:
248,116,83880,2,0,P|292:144|292:192,1,100,2|8,0:0|0:0,0:0:0:0:
32,128,84255,6,0,B|12:104|16:76|16:76|48:40|128:40|160:72,1,200,2|2,0:0|0:0,0:0:0:0:
264,32,84817,1,8,0:0:0:0:
384,152,85005,1,2,0:0:0:0:
204,220,85192,1,8,0:0:0:0:
324,272,85380,1,2,0:0:0:0:
204,220,85567,1,8,0:0:0:0:
384,152,85755,6,0,P|208:180|16:152,2,359.999989013672,4|4|0,0:0|0:0|0:0,0:0:0:0:
412,100,86598,1,8,0:0:0:0:
292,220,86786,1,8,0:0:0:0:
264,168,86880,1,10,0:0:0:0:
384,240,87067,1,10,0:0:0:0:
124,280,87255,6,0,P|92:248|92:196,1,100,6|8,3:2|0:0,0:0:0:0:
272,52,87630,1,2,0:0:0:0:
152,72,87817,1,8,0:0:0:0:
332,156,88005,1,2,0:0:0:0:
152,184,88192,1,8,0:0:0:0:
272,232,88380,1,2,0:0:0:0:
312,268,88473,1,0,0:0:0:0:
324,320,88567,1,8,0:0:0:0:
36,8,88755,6,0,P|212:40|408:8,2,359.999989013672,4|4|0,0:0|0:0|0:0,0:0:0:0:
4,52,89598,1,8,0:0:0:0:
124,80,89786,1,8,0:0:0:0:
156,124,89880,1,10,0:0:0:0:
36,8,90067,1,10,0:0:0:0:
316,64,90255,6,0,P|376:96|312:184,1,200,6|2,0:0|0:0,0:0:0:0:
200,108,90817,1,8,0:0:0:0:
380,300,91005,1,2,0:0:0:0:
260,296,91192,1,8,0:0:0:0:
380,300,91380,2,0,P|416:264|416:216,1,100,2|8,0:0|0:0,0:0:0:0:
124,120,91755,6,0,L|124:220,1,100,0|0,3:0|0:0,0:0:0:0:
388,120,92130,2,0,L|426:225,1,100,0|0,3:0|0:0,0:0:0:0:
124,120,92505,2,0,L|52:205,1,100,0|0,3:0|0:0,0:0:0:0:
388,120,92880,2,0,L|484:176,1,100,0|0,3:0|0:0,0:0:0:0:
124,120,93255,1,4,3:2:0:0:
256,192,93442,12,0,95130,0:0:0:0:
116,56,95411,5,0,0:0:0:0:
268,64,95505,2,0,B|318:68|318:68|268:64,1,100,8|8,0:0|0:0,0:0:0:0:
168,160,95880,1,2,0:0:0:0:
128,272,96067,1,2,0:0:0:0:
388,336,96255,6,0,P|456:316|372:284,1,200,4|2,3:2|0:0,0:0:0:0:
264,320,96817,1,8,0:0:0:0:
384,160,97005,1,2,0:0:0:0:
204,148,97192,1,8,0:0:0:0:
324,64,97380,1,2,0:0:0:0:
144,52,97567,1,8,0:0:0:0:
408,80,97755,6,0,P|456:116|420:236,1,200,0|2,3:0|0:0,0:0:0:0:
304,212,98317,1,8,0:0:0:0:
184,188,98505,1,2,0:0:0:0:
364,128,98692,1,8,0:0:0:0:
184,188,98880,1,2,0:0:0:0:
364,128,99067,1,8,0:0:0:0:
104,124,99255,6,0,P|80:200|164:292,1,200,0|2,3:0|0:0,0:0:0:0:
268,244,99817,1,8,0:0:0:0:
148,216,100005,1,2,0:0:0:0:
328,140,100193,1,8,0:0:0:0:
208,88,100380,1,2,0:0:0:0:
388,12,100568,1,8,0:0:0:0:
128,32,100755,6,0,P|108:84|132:148,1,100,2|8,0:0|0:0,0:0:0:0:
376,116,101130,2,0,P|396:168|372:232,1,100,0|8,3:0|0:0,0:0:0:0:
128,208,101505,1,2,3:2:0:0:
48,296,101692,1,8,0:0:0:0:
8,104,101880,1,2,0:2:0:0:
88,20,102067,1,8,0:0:0:0:
348,204,102255,6,0,P|420:184|348:164,1,200,4|2,3:2|0:0,0:0:0:0:
228,284,102817,1,8,0:0:0:0:
108,224,103005,1,2,0:0:0:0:
288,144,103192,1,8,0:0:0:0:
108,224,103380,1,2,0:0:0:0:
288,144,103567,1,8,0:0:0:0:
28,148,103755,6,0,P|0:200|72:328,1,200,0|0,3:0|0:0,0:0:0:0:
176,288,104317,1,8,0:0:0:0:
56,216,104505,1,2,0:0:0:0:
236,176,104692,1,8,0:0:0:0:
116,84,104880,1,2,0:0:0:0:
296,44,105067,1,8,0:0:0:0:
36,20,105255,5,2,0:0:0:0:
14,64,105348,1,8,0:0:0:0:
15,113,105442,1,8,0:0:0:0:
39,157,105536,1,8,0:0:0:0:
80,184,105630,1,10,0:0:0:0:
180,112,105817,1,8,0:0:0:0:
440,160,106005,5,2,0:0:0:0:
461,204,106098,1,8,0:0:0:0:
460,253,106192,1,10,0:0:0:0:
280,296,106380,1,10,0:0:0:0:
259,252,106473,1,8,0:0:0:0:
260,203,106567,1,0,0:0:0:0:
512,76,106755,6,0,P|336:104|152:76,1,359.999989013672,4|2,0:0|0:0,0:0:0:0:
332,76,107317,1,2,0:0:0:0:
72,152,107505,2,0,P|36:188|84:264,1,150,2|0,0:0|0:0,0:0:0:0:
168,232,107880,1,8,0:0:0:0:
