osu file format v14

[General]
AudioFilename: audio.mp3
AudioLeadIn: 0
PreviewTime: 63067
Countdown: 0
SampleSet: Soft
StackLeniency: 0.7
Mode: 2
LetterboxInBreaks: 0
WidescreenStoryboard: 1

[Editor]
Bookmarks: 15255,27255,39255,51255,63255,75255,85755,93255,96255,107505
DistanceSpacing: 1
BeatDivisor: 4
GridSize: 4
TimelineZoom: 1

[Metadata]
Title:Horang Pungryuga
TitleUnicode:호랑풍류가
Artist:Narae
ArtistUnicode:나래
Creator:Kin
Version:Platter
Source:나와 호랑이님
Tags:상록수 nofool Ascendance
BeatmapID:1328112
BeatmapSetID:628971

[Difficulty]
HPDrainRate:5.2
CircleSize:3.8
OverallDifficulty:8.2
ApproachRate:8.2
SliderMultiplier:2
SliderTickRate:2

[Events]
//Background and Video events
0,0,"horang.jpg",0,0
Video,0,"video.avi"
//Break Periods
//Storyboard Layer 0 (Background)
//Storyboard Layer 1 (Fail)
//Storyboard Layer 2 (Pass)
//Storyboard Layer 3 (Foreground)
//Storyboard Sound Samples

[TimingPoints]
255,375,4,2,1,80,1,0
62505,-100,4,2,1,80,0,0
63255,-100,4,2,1,100,0,1
75161,-100,4,2,1,100,0,0
75255,-100,4,2,1,100,0,1
93255,-100,4,2,1,80,0,0
106848,-100,4,2,1,80,0,0

[Colours]
Combo1 : 255,143,32
Combo2 : 214,214,214
Combo3 : 170,227,255

[HitObjects]
132,160,255,5,4,0:0:0:0:
212,156,348,2,0,L|336:156,1,100,2|0,0:0|0:0,0:0:0:0:
232,228,630,2,0,P|184:248|168:292,2,100,2|0|4,0:0|0:0|0:0,0:0:0:0:
312,276,1098,2,0,P|360:256|376:212,1,100,2|0,0:0|0:0,0:0:0:0:
295,162,1380,2,0,P|247:142|231:98,2,100,2|0|0,0:0|0:0|0:0,0:0:0:0:
376,116,1848,6,0,P|357:71|311:53,1,100,2|0,0:0|0:0,0:0:0:0:
232,100,2130,2,0,L|132:100,1,100,2|0,0:0|0:0,0:0:0:0:
312,28,2505,1,2,0:3:0:0:
392,88,2692,1,2,0:0:0:0:
408,188,2880,1,2,0:0:0:0:
392,88,3067,1,2,0:0:0:0:
132,168,3255,6,0,P|84:196|140:304,1,200,4|2,3:2|0:0,0:0:0:0:
332,208,4005,1,2,0:0:0:0:
232,144,4192,1,8,0:0:0:0:
332,208,4380,1,2,0:0:0:0:
392,92,4567,1,8,0:0:0:0:
212,60,4755,6,0,P|152:108|192:220,1,200,0|2,3:2|0:0,0:0:0:0:
384,236,5505,1,2,0:0:0:0:
284,196,5692,1,8,0:0:0:0:
384,236,5880,1,2,0:0:0:0:
284,196,6067,1,8,0:0:0:0:
464,320,6255,6,0,P|500:240|452:132,1,200,0|2,3:2|0:0,0:0:0:0:
264,128,7005,1,2,0:0:0:0:
364,80,7192,1,8,0:0:0:0:
464,32,7380,1,2,0:0:0:0:
448,132,7567,1,8,0:0:0:0:
264,128,7755,6,0,L|244:228,1,100,0|8,3:0|0:0,0:0:0:0:
424,216,8130,2,0,L|444:316,1,100,0|8,3:0|0:0,0:0:0:0:
260,28,8505,1,0,3:0:0:0:
160,40,8692,1,8,0:0:0:0:
100,120,8880,1,2,0:0:0:0:
120,216,9067,1,8,0:0:0:0:
380,316,9255,6,0,P|436:292|364:208,1,200,4|2,3:2|0:0,0:0:0:0:
180,236,10005,1,2,0:0:0:0:
280,224,10192,1,8,0:0:0:0:
180,236,10380,1,2,0:0:0:0:
120,140,10567,1,8,0:0:0:0:
300,124,10755,6,0,P|352:152|364:284,1,200,0|2,3:0|0:0,0:0:0:0:
168,296,11505,1,2,0:0:0:0:
268,296,11692,1,8,0:0:0:0:
168,296,11880,1,2,0:0:0:0:
268,296,12067,1,8,0:0:0:0:
88,360,12255,6,0,P|64:284|152:196,1,200,0|2,3:0|0:0,0:0:0:0:
336,80,13005,1,2,0:0:0:0:
236,80,13192,1,8,0:0:0:0:
136,84,13380,1,2,0:0:0:0:
188,168,13567,1,8,0:0:0:0:
368,112,13755,6,0,P|404:156|404:212,1,100,0|0,3:0|0:0,0:0:0:0:
228,300,14130,2,0,L|128:300,1,100,2|2,0:0|0:0,0:0:0:0:
388,224,14505,2,0,P|444:160|368:68,1,200,0|8,0:0|0:0,0:0:0:0:
292,120,15067,1,8,0:0:0:0:
112,72,15255,6,0,P|59:149|115:223,1,200,4|0,0:0|0:0,0:0:0:0:
256,184,15817,1,0,0:0:0:0:
304,180,15911,2,0,P|364:148|364:64,1,150,0|0,0:0|0:0,0:0:0:0:
268,28,16380,1,8,0:0:0:0:
368,32,16567,1,0,0:0:0:0:
208,120,16755,6,0,P|180:168|180:224,1,100,0|0,0:0|0:0,0:0:0:0:
334,211,17130,2,0,P|330:162|304:120,1,100,8|0,0:0|0:0,0:0:0:0:
256,104,17411,2,0,P|196:136|180:212,1,150,0|0,0:0|0:0,0:0:0:0:
360,296,17880,1,8,0:0:0:0:
160,296,18255,6,0,P|104:256|136:136,1,200,0|8,0:0|0:0,0:0:0:0:
268,92,18817,1,0,0:0:0:0:
316,92,18911,2,0,P|372:112|388:204,1,150,0|0,0:0|0:0,0:0:0:0:
292,264,19380,1,8,0:0:0:0:
192,224,19567,1,0,0:0:0:0:
372,64,19755,6,0,L|388:164,1,100,0|0,0:0|0:0,0:0:0:0:
228,68,20130,2,0,L|212:168,1,100,8|0,0:0|0:0,0:0:0:0:
264,230,20411,2,0,P|320:254|400:178,1,150,0|0,0:0|0:0,0:0:0:0:
212,166,20880,1,8,0:0:0:0:
412,140,21255,6,0,P|460:180|396:284,1,200,0|8,0:0|0:0,0:0:0:0:
264,152,21817,1,0,0:0:0:0:
212,180,21911,2,0,P|184:224|232:312,1,150,0|0,0:0|0:0,0:0:0:0:
340,276,22380,1,8,0:0:0:0:
420,152,22567,1,0,0:0:0:0:
240,40,22755,5,0,0:0:0:0:
160,132,22942,1,0,0:0:0:0:
280,160,23130,2,0,P|316:196|316:252,1,100,8|0,0:0|0:0,0:0:0:0:
268,304,23411,2,0,P|216:280|216:184,1,150,0|0,0:0|0:0,0:0:0:0:
388,148,23880,1,8,0:0:0:0:
188,72,24255,6,0,P|120:128|192:176,1,200,0|8,0:0|0:0,0:0:0:0:
292,104,24817,1,0,0:0:0:0:
112,232,25005,2,0,L|140:328,1,100,0|0,0:0|0:0,0:0:0:0:
320,224,25380,2,0,L|292:320,1,100,8|0,0:0|0:0,0:0:0:0:
112,120,25755,5,0,0:0:0:0:
212,68,25942,1,0,0:0:0:0:
112,120,26130,1,8,0:0:0:0:
252,160,26317,1,0,0:0:0:0:
72,216,26505,2,0,P|8:104|136:20,1,300,8|0,0:0|0:0,0:0:0:0:
384,88,27255,6,0,P|452:144|372:200,1,200,4|8,3:2|0:0,0:0:0:0:
244,128,27817,1,0,0:0:0:0:
196,136,27911,2,0,P|140:172|140:252,1,150,0|0,0:0|0:0,0:0:0:0:
240,308,28380,2,0,L|340:308,1,100,8|0,0:0|0:0,0:0:0:0:
160,216,28755,6,0,L|60:216,2,100,0|0|8,0:0|0:0|0:0,0:0:0:0:
260,160,29317,1,0,0:0:0:0:
308,164,29411,2,0,P|372:140|388:64,1,150,0|0,0:0|0:0,0:0:0:0:
208,8,29880,1,8,0:0:0:0:
408,240,30255,6,0,P|464:212|408:116,1,200,0|8,0:0|0:0,0:0:0:0:
272,136,30817,1,0,0:0:0:0:
220,160,30911,2,0,P|156:144|156:32,1,150,0|0,0:0|0:0,0:0:0:0:
232,24,31380,2,0,L|336:24,1,100,8|0,0:0|0:0,0:0:0:0:
152,240,31755,6,0,L|48:240,2,100,0|0|8,0:0|0:0|0:0,0:0:0:0:
252,312,32317,1,0,0:0:0:0:
300,312,32411,2,0,P|360:280|360:188,1,150,0|0,0:0|0:0,0:0:0:0:
188,152,32880,1,8,0:0:0:0:
388,56,33255,6,0,P|460:96|376:132,1,200,0|8,0:0|0:0,0:0:0:0:
248,60,33817,1,0,0:0:0:0:
196,84,33911,2,0,P|160:120|208:208,1,150,0|0,0:0|0:0,0:0:0:0:
292,192,34380,2,0,L|356:84,1,100,8|0,0:0|0:0,0:0:0:0:
160,324,34755,6,0,L|96:216,1,100,0|0,0:0|0:0,0:0:0:0:
208,32,35130,2,0,P|244:68|244:116,1,100,8|0,0:0|0:0,0:0:0:0:
196,176,35411,2,0,P|144:144|152:40,1,150,0|0,0:0|0:0,0:0:0:0:
320,52,35880,1,8,0:0:0:0:
120,280,36255,6,0,P|48:252|120:208,1,200,0|8,0:0|0:0,0:0:0:0:
180,344,36817,1,0,0:0:0:0:
360,292,37005,2,0,P|408:208|348:120,1,200,0|8,0:0|0:0,0:0:0:0:
160,96,37755,5,0,0:0:0:0:
260,56,37942,1,0,0:0:0:0:
160,96,38130,1,8,0:0:0:0:
260,56,38317,1,0,0:0:0:0:
80,24,38505,2,0,P|52:124|120:196,1,200,8|0,0:0|0:0,0:0:0:0:
168,160,39067,1,0,0:0:0:0:
428,164,39255,6,0,P|476:188|416:292,1,200,4|0,3:2|0:0,0:0:0:0:
324,220,39817,1,0,0:0:0:0:
224,152,40005,2,0,P|176:176|236:280,1,200,0|0,0:0|0:0,0:0:0:0:
324,220,40567,2,0,P|348:136|288:48,1,200,0|0,0:0|0:0,0:0:0:0:
188,68,41130,5,0,0:0:0:0:
292,48,41317,1,0,0:0:0:0:
112,12,41505,2,0,P|96:52|104:112,1,100,0|0,0:0|0:0,0:0:0:0:
224,196,41880,1,0,0:0:0:0:
124,176,42067,1,0,0:0:0:0:
304,132,42255,6,0,P|324:224|256:296,1,200,0|0,0:0|0:0,0:0:0:0:
156,280,42817,1,0,0:0:0:0:
56,248,43005,2,0,L|96:144,1,100,0|0,0:0|0:0,0:0:0:0:
272,176,43380,2,0,L|232:72,1,100,0|0,0:0|0:0,0:0:0:0:
56,248,43755,6,0,L|252:288,2,200,0|0|0,0:0|0:0|0:0,0:0:0:0:
0,168,44692,1,0,0:0:0:0:
20,68,44880,1,0,0:0:0:0:
100,12,45067,1,0,0:0:0:0:
360,104,45255,6,0,P|408:156|356:264,1,200,4|0,3:2|0:0,0:0:0:0:
260,176,45817,1,0,0:0:0:0:
160,104,46005,2,0,P|112:156|164:264,1,200,0|0,0:0|0:0,0:0:0:0:
260,292,46567,2,0,L|40:320,1,200,0|0,0:0|0:0,0:0:0:0:
164,176,47130,5,0,0:0:0:0:
64,124,47317,1,0,0:0:0:0:
244,96,47505,2,0,P|276:144|216:268,1,200,0|0,0:0|0:0,0:0:0:0:
164,176,48067,1,0,0:0:0:0:
344,96,48255,6,0,P|376:144|316:268,1,200,0|0,0:0|0:0,0:0:0:0:
264,176,48817,1,0,0:0:0:0:
444,96,49005,2,0,P|476:144|416:268,1,200,0|0,0:0|0:0,0:0:0:0:
364,176,49567,1,0,0:0:0:0:
104,88,49755,6,0,P|68:124|68:172,1,100,0|0,0:0|0:0,0:0:0:0:
248,40,50130,2,0,P|284:76|284:124,1,100,0|0,0:0|0:0,0:0:0:0:
24,36,50505,2,0,L|120:336,1,300,2|0,0:0|0:0,0:0:0:0:
376,212,51255,6,0,P|268:200|180:156,2,200,4|0|0,0:0|0:0|0:0,0:0:0:0:
176,264,52380,2,0,L|148:160,1,100,0|0,0:0|0:0,0:0:0:0:
328,80,52755,6,0,L|440:80,2,100,0|0|0,0:0|0:0|0:0,0:0:0:0:
228,84,53317,1,0,0:0:0:0:
388,168,53505,2,0,P|440:224|388:324,1,200,0|0,0:0|0:0,0:0:0:0:
292,280,54067,1,0,0:0:0:0:
192,344,54255,6,0,P|140:288|192:188,1,200,0|0,0:0|0:0,0:0:0:0:
288,184,54817,1,0,0:0:0:0:
184,136,55005,1,0,0:0:0:0:
104,224,55192,1,0,0:0:0:0:
184,312,55380,2,0,L|288:312,1,100,0|0,0:0|0:0,0:0:0:0:
104,224,55755,6,0,P|44:208|4:80,2,200,0|2|2,0:0|0:0|0:0,0:0:0:0:
304,88,56880,2,0,L|408:88,1,100,0|0,0:0|0:0,0:0:0:0:
144,208,57255,6,0,P|48:216|12:120,2,200,4|0|0,0:0|0:0|0:0,0:0:0:0:
344,76,58380,2,0,L|444:76,1,100,0|0,0:0|0:0,0:0:0:0:
284,168,58755,6,0,P|236:128|228:72,2,100,0|0|0,0:0|0:0|0:0,0:0:0:0:
384,204,59317,1,0,0:0:0:0:
204,328,59505,2,0,P|132:292|204:272,1,200,0|0,0:0|0:0,0:0:0:0:
304,336,60067,1,0,0:0:0:0:
404,268,60255,6,0,P|476:232|404:212,1,200,0|0,0:0|0:0,0:0:0:0:
244,192,60817,1,0,0:0:0:0:
344,124,61005,1,0,0:0:0:0:
244,60,61192,1,0,0:0:0:0:
344,124,61380,2,0,L|320:224,1,100,8|8,0:0|0:0,0:0:0:0:
140,272,61755,6,0,P|240:260|372:272,2,200,4|0|0,3:2|1:0|0:0,0:0:0:0:
108,220,62598,1,8,0:0:0:0:
208,192,62786,1,8,0:0:0:0:
240,140,62880,1,10,0:0:0:0:
140,84,63067,1,10,0:0:0:0:
400,100,63255,6,0,L|476:176,1,100,4|8,3:2|0:0,0:0:0:0:
292,168,63630,2,0,L|216:244,1,100,2|8,0:0|0:0,0:0:0:0:
400,100,64005,2,0,P|444:116|392:224,1,200,2|2,0:0|0:0,0:0:0:0:
360,216,64473,1,0,0:0:0:0:
320,192,64567,1,8,0:0:0:0:
220,92,64755,6,0,L|244:200,1,100,2|8,0:0|0:0,0:0:0:0:
344,24,65130,1,2,0:0:0:0:
164,32,65317,1,10,0:0:0:0:
344,24,65505,2,0,P|392:56|336:168,1,200,2|2,0:0|0:0,0:0:0:0:
244,76,66067,1,8,0:0:0:0:
104,132,66255,6,0,P|56:164|112:276,1,200,2|2,0:0|0:0,0:0:0:0:
204,192,66817,1,8,0:0:0:0:
104,124,67005,2,0,L|128:24,1,100,2|8,0:0|0:0,0:0:0:0:
268,160,67380,2,0,L|244:60,1,100,2|8,0:0|0:0,0:0:0:0:
424,96,67755,6,0,P|480:144|424:240,1,200,2|0,0:0|0:0,0:0:0:0:
388,232,68223,1,0,0:0:0:0:
348,216,68317,1,8,0:0:0:0:
448,64,68505,1,0,0:0:0:0:
328,24,68692,1,8,0:0:0:0:
428,156,68880,1,0,0:0:0:0:
468,188,68973,1,0,0:0:0:0:
460,240,69067,1,10,0:0:0:0:
200,252,69255,6,0,L|128:180,1,100,2|8,0:0|0:0,0:0:0:0:
312,252,69630,2,0,L|384:180,1,100,2|8,0:0|0:0,0:0:0:0:
200,252,70005,2,0,P|132:212|200:148,1,200,2|2,0:0|0:0,0:0:0:0:
300,248,70567,1,8,0:0:0:0:
120,144,70755,6,0,L|152:36,1,100,2|8,0:0|0:0,0:0:0:0:
248,312,71130,1,2,0:0:0:0:
68,240,71317,1,10,0:0:0:0:
248,312,71505,2,0,P|312:296|232:248,1,200,2|2,0:0|0:0,0:0:0:0:
144,280,72067,1,8,0:0:0:0:
284,336,72255,6,0,P|348:320|268:272,1,200,2|2,0:0|0:0,0:0:0:0:
180,308,72817,1,8,0:0:0:0:
80,200,73005,2,0,L|104:72,1,100,2|8,0:0|0:0,0:0:0:0:
200,80,73380,1,2,0:0:0:0:
20,36,73567,1,8,0:0:0:0:
280,144,73755,6,0,P|196:172|84:164,2,200,4|4|0,0:0|0:0|0:0,0:0:0:0:
312,112,74598,1,8,0:0:0:0:
212,76,74786,1,8,0:0:0:0:
180,44,74880,1,8,0:0:0:0:
280,24,75067,1,8,0:0:0:0:
24,132,75255,6,0,P|0:176|0:240,1,100,4|8,3:2|0:0,0:0:0:0:
176,196,75630,2,0,P|200:240|200:304,1,100,2|8,0:0|0:0,0:0:0:0:
24,132,76005,2,0,P|0:100|104:64,1,200,2|2,0:0|0:0,0:0:0:0:
200,240,76567,1,8,0:0:0:0:
380,168,76755,6,0,L|300:88,1,100,2|8,0:0|0:0,0:0:0:0:
128,168,77130,2,0,L|208:88,1,100,2|10,0:0|0:0,0:0:0:0:
380,168,77505,2,0,P|448:208|368:268,1,200,2|2,0:0|0:0,0:0:0:0:
280,60,78067,1,8,0:0:0:0:
100,168,78255,6,0,P|32:208|112:268,1,200,2|2,0:0|0:0,0:0:0:0:
196,84,78817,1,8,0:0:0:0:
296,200,79005,1,2,0:0:0:0:
196,84,79192,1,8,0:0:0:0:
296,200,79380,2,0,L|256:304,1,100,2|8,0:0|0:0,0:0:0:0:
80,220,79755,6,0,P|20:192|84:112,1,200,2|0,0:0|0:0,0:0:0:0:
124,136,80223,1,0,0:0:0:0:
164,160,80317,1,8,0:0:0:0:
264,68,80505,1,0,0:0:0:0:
164,40,80692,1,8,0:0:0:0:
284,168,80880,1,0,0:0:0:0:
324,212,80973,1,0,0:0:0:0:
344,264,81067,1,10,0:0:0:0:
80,312,81255,6,0,P|20:284|88:200,1,200,2|2,0:0|0:0,0:0:0:0:
180,272,81817,1,8,0:0:0:0:
360,336,82005,2,0,P|420:308|352:224,1,200,2|2,0:0|0:0,0:0:0:0:
260,180,82567,1,8,0:0:0:0:
80,188,82755,6,0,L|160:108,1,100,2|8,0:0|0:0,0:0:0:0:
332,192,83130,2,0,L|252:112,1,100,2|10,0:0|0:0,0:0:0:0:
80,188,83505,2,0,P|24:236|88:336,1,200,2|2,0:0|0:0,0:0:0:0:
172,136,84067,1,8,0:0:0:0:
272,80,84255,6,0,P|328:128|264:228,1,200,2|2,0:0|0:0,0:0:0:0:
176,228,84817,1,8,0:0:0:0:
276,296,85005,1,2,0:0:0:0:
376,360,85192,1,8,0:0:0:0:
276,296,85380,1,2,0:0:0:0:
456,236,85567,1,8,0:0:0:0:
200,160,85755,6,0,P|300:176|408:160,2,200,4|4|0,0:0|0:0|0:0,0:0:0:0:
232,64,86598,1,8,0:0:0:0:
332,152,86786,1,8,0:0:0:0:
364,248,86880,1,10,0:0:0:0:
464,112,87067,1,10,0:0:0:0:
204,304,87255,6,0,P|136:288|212:248,1,200,6|2,3:2|0:0,0:0:0:0:
308,176,87817,1,8,0:0:0:0:
208,176,88005,2,0,L|256:272,1,100,2|8,0:0|0:0,0:0:0:0:
412,272,88380,2,0,L|364:368,1,100,2|8,0:0|0:0,0:0:0:0:
108,288,88755,6,0,P|208:308|312:288,2,200,4|4|0,0:0|0:0|0:0,0:0:0:0:
140,240,89598,1,8,0:0:0:0:
240,208,89786,1,8,0:0:0:0:
208,160,89880,1,10,0:0:0:0:
108,100,90067,1,10,0:0:0:0:
368,68,90255,6,0,P|436:96|360:160,1,200,6|2,0:0|0:0,0:0:0:0:
272,248,90817,1,8,0:0:0:0:
372,316,91005,1,2,0:0:0:0:
272,248,91192,1,8,0:0:0:0:
372,316,91380,2,0,L|352:200,1,100,2|8,0:0|0:0,0:0:0:0:
96,268,91755,6,0,L|116:152,1,100,0|0,3:0|0:0,0:0:0:0:
232,264,92130,2,0,L|212:148,1,100,0|0,3:0|0:0,0:0:0:0:
56,268,92505,2,0,L|76:152,1,100,0|0,3:0|0:0,0:0:0:0:
252,216,92880,2,0,L|232:100,1,100,0|0,3:0|0:0,0:0:0:0:
32,336,93255,5,4,3:2:0:0:
256,192,93442,12,0,95130,0:0:0:0:
256,176,95411,5,0,0:0:0:0:
196,176,95505,1,8,0:0:0:0:
296,308,95692,1,8,0:0:0:0:
376,208,95880,1,2,0:0:0:0:
416,72,96067,1,2,0:0:0:0:
156,100,96255,6,0,P|108:176|176:260,1,200,4|2,3:2|0:0,0:0:0:0:
364,124,97005,1,2,0:0:0:0:
264,56,97192,1,8,0:0:0:0:
364,124,97380,1,2,0:0:0:0:
464,56,97567,1,8,0:0:0:0:
284,136,97755,6,0,P|232:172|288:276,1,200,0|2,3:0|0:0,0:0:0:0:
484,140,98505,1,2,0:0:0:0:
384,76,98692,1,8,0:0:0:0:
304,152,98880,1,2,0:0:0:0:
404,220,99067,1,8,0:0:0:0:
224,240,99255,6,0,P|124:200|156:128,1,200,0|2,3:0|0:0,0:0:0:0:
388,56,100005,1,2,0:0:0:0:
288,124,100192,1,8,0:0:0:0:
388,56,100380,1,2,0:0:0:0:
288,124,100567,1,8,0:0:0:0:
468,200,100755,6,0,L|440:300,1,100,2|8,0:0|0:0,0:0:0:0:
260,144,101130,2,0,L|288:244,1,100,0|8,3:0|0:0,0:0:0:0:
468,368,101505,1,2,3:2:0:0:
508,276,101692,1,8,0:0:0:0:
488,176,101880,1,2,0:2:0:0:
408,120,102067,1,8,0:0:0:0:
144,240,102255,6,0,P|80:236|140:160,1,200,4|2,3:2|0:0,0:0:0:0:
328,176,103005,1,2,0:0:0:0:
228,160,103192,1,8,0:0:0:0:
328,176,103380,1,2,0:0:0:0:
228,160,103567,1,8,0:0:0:0:
408,104,103755,6,0,P|436:172|376:276,1,200,0|0,3:0|0:0,0:0:0:0:
180,168,104505,1,2,0:0:0:0:
280,100,104692,1,8,0:0:0:0:
180,168,104880,1,2,0:0:0:0:
80,228,105067,1,8,0:0:0:0:
340,316,105255,6,0,P|412:280|336:248,1,200,2|10,0:0|0:0,0:0:0:0:
240,308,105817,1,8,0:0:0:0:
420,176,106005,2,0,L|332:88,1,100,2|10,0:0|0:0,0:0:0:0:
168,172,106380,2,0,L|256:84,1,100,10|0,0:0|0:0,0:0:0:0:
500,136,106755,6,0,P|508:208|408:264,1,200,4|2,0:0|0:0,0:0:0:0:
308,156,107317,1,2,0:0:0:0:
128,264,107505,2,0,P|88:228|144:148,1,150,2|0,0:0|0:0,0:0:0:0:
204,128,107880,1,8,0:0:0:0:
