osu file format v14

[General]
AudioFilename: audio.mp3
AudioLeadIn: 0
PreviewTime: 63067
Countdown: 0
SampleSet: Soft
StackLeniency: 0.7
Mode: 2
LetterboxInBreaks: 0
WidescreenStoryboard: 1

[Editor]
Bookmarks: 15255,27255,39255,47505,51255,63255,75255,85755,93255,96255,107505
DistanceSpacing: 1
BeatDivisor: 4
GridSize: 4
TimelineZoom: 1

[Metadata]
Title:Horang Pungryuga
TitleUnicode:호랑풍류가
Artist:Narae
ArtistUnicode:나래
Creator:Kin
Version:Overdose
Source:나와 호랑이님
Tags:상록수 nofool Ascendance
BeatmapID:1495966
BeatmapSetID:628971

[Difficulty]
HPDrainRate:6
CircleSize:4.4
OverallDifficulty:9.3
ApproachRate:9.3
SliderMultiplier:1.72
SliderTickRate:2

[Events]
//Background and Video events
Video,0,"video.avi"
0,0,"horang.jpg",0,0
//Break Periods
//Storyboard Layer 0 (Background)
//Storyboard Layer 1 (Fail)
//Storyboard Layer 2 (Pass)
//Storyboard Layer 3 (Foreground)
//Storyboard Sound Samples

[TimingPoints]
255,375,4,2,1,80,1,0
37380,-62.5,4,2,1,80,0,0
37567,-100,4,2,1,80,0,0
61755,-50,4,2,1,80,0,0
62505,-100,4,2,1,80,0,0
63255,-100,4,2,1,100,0,1
73755,-50,4,2,1,100,0,1
73848,-100,4,2,1,100,0,1
75161,-100,4,2,1,100,0,0
75255,-100,4,2,1,100,0,1
85755,-50,4,2,1,100,0,1
85848,-100,4,2,1,100,0,1
88755,-50,4,2,1,100,0,1
89505,-100,4,2,1,100,0,1
93255,-100,4,2,1,80,0,0
106755,-50,4,2,1,80,0,0
106848,-100,4,2,1,80,0,0

[Colours]
Combo1 : 255,143,32
Combo2 : 214,214,214
Combo3 : 170,227,255

[HitObjects]
132,112,255,5,4,0:0:0:0:
304,48,348,2,0,L|392:52,1,86,2|0,0:0|0:0,0:0:0:0:
212,216,630,2,0,L|124:220,1,86,2|0,0:0|0:0,0:0:0:0:
420,156,1005,1,4,0:0:0:0:
248,136,1098,2,0,L|160:140,1,86,2|0,0:0|0:0,0:0:0:0:
340,276,1380,2,0,L|428:280,1,86,2|0,0:0|0:0,0:0:0:0:
140,256,1755,5,0,0:0:0:0:
312,168,1848,1,2,0:0:0:0:
392,172,1942,1,0,0:0:0:0:
472,176,2036,1,0,0:0:0:0:
216,88,2130,2,0,L|156:92,1,43,2|0,0:0|0:0,0:0:0:0:
252,12,2317,1,0,0:0:0:0:
332,20,2411,1,0,0:0:0:0:
488,116,2505,5,2,0:3:0:0:
184,160,2692,1,2,0:0:0:0:
340,200,2880,1,2,0:0:0:0:
64,236,3067,1,2,0:0:0:0:
376,320,3255,6,0,P|408:288|416:220,1,86,4|0,3:2|0:0,0:0:0:0:
176,76,3630,2,0,B|132:84|132:84|176:92,1,86,2|8,0:0|0:0,0:0:0:0:
272,72,4005,1,2,0:0:0:0:
116,172,4192,1,8,0:0:0:0:
360,100,4380,1,2,0:0:0:0:
204,32,4567,1,8,0:0:0:0:
464,56,4755,6,0,P|488:96|480:144,1,86,0|0,3:2|0:0,0:0:0:0:
328,264,5130,2,0,B|284:272|284:272|328:280,1,86,2|8,0:0|0:0,0:0:0:0:
236,224,5505,1,2,0:0:0:0:
392,136,5692,1,8,0:0:0:0:
148,80,5880,1,2,0:0:0:0:
304,48,6067,1,8,0:0:0:0:
44,176,6255,6,0,P|20:208|24:264,1,86,0|0,3:2|0:0,0:0:0:0:
296,108,6630,2,0,P|328:140|320:196,1,86,2|8,0:0|0:0,0:0:0:0:
68,88,7005,1,2,0:0:0:0:
224,168,7192,1,8,0:0:0:0:
68,88,7380,1,2,0:0:0:0:
328,48,7567,1,8,0:0:0:0:
84,180,7755,6,0,P|56:212|48:256,1,86,0|8,3:0|0:0,0:0:0:0:
292,312,8130,2,0,P|244:320|200:312,1,86,0|8,3:0|0:0,0:0:0:0:
452,240,8505,1,0,3:0:0:0:
348,184,8692,1,8,0:0:0:0:
504,132,8880,1,2,0:0:0:0:
208,136,9067,1,8,0:0:0:0:
456,32,9255,6,0,P|484:64|480:112,1,86,4|0,3:2|0:0,0:0:0:0:
188,284,9630,2,0,B|144:280|144:280|188:272,1,86,2|8,0:0|0:0,0:0:0:0:
284,248,10005,1,2,0:0:0:0:
128,184,10192,1,8,0:0:0:0:
372,60,10380,1,2,0:0:0:0:
216,72,10567,1,8,0:0:0:0:
460,184,10755,6,0,P|488:216|488:272,1,86,0|0,3:0|0:0,0:0:0:0:
216,72,11130,2,0,P|188:104|188:160,1,86,2|8,0:0|0:0,0:0:0:0:
340,236,11505,1,2,0:0:0:0:
96,244,11692,1,8,0:0:0:0:
252,200,11880,1,2,0:0:0:0:
8,212,12067,1,8,0:0:0:0:
340,236,12255,6,0,P|360:200|360:152,1,86,0|0,3:0|0:0,0:0:0:0:
116,332,12630,2,0,P|96:296|96:248,1,86,2|8,0:0|0:0,0:0:0:0:
340,196,13005,1,2,0:0:0:0:
184,100,13192,1,8,0:0:0:0:
340,76,13380,1,2,0:0:0:0:
96,184,13567,1,8,0:0:0:0:
388,16,13755,6,0,P|420:64|408:108,1,86,0|0,3:0|0:0,0:0:0:0:
156,280,14130,1,2,0:0:0:0:
312,292,14317,1,2,0:0:0:0:
68,228,14505,2,0,L|24:236,1,43,0|8,0:0|0:0,0:0:0:0:
388,108,14786,2,0,L|432:116,1,43,8|8,0:0|0:0,0:0:0:0:
152,64,15067,1,8,0:0:0:0:
428,116,15255,5,4,0:0:0:0:
352,180,15348,2,0,P|388:196|440:192,1,86,0|0,0:0|0:0,0:0:0:0:
248,80,15630,2,0,L|144:88,1,86,0|0,0:0|0:0,0:0:0:0:
408,32,16005,1,0,0:0:0:0:
332,80,16098,1,0,0:0:0:0:
368,120,16192,1,0,0:0:0:0:
376,172,16286,1,0,0:0:0:0:
200,264,16380,1,8,0:0:0:0:
356,296,16567,1,0,0:0:0:0:
112,64,16755,5,0,0:0:0:0:
68,92,16848,1,0,0:0:0:0:
48,140,16942,1,0,0:0:0:0:
68,92,17036,1,0,0:0:0:0:
148,52,17130,1,8,0:0:0:0:
304,96,17317,1,0,0:0:0:0:
60,236,17505,1,0,0:0:0:0:
136,276,17598,2,0,P|96:292|48:288,1,86,0|0,0:0|0:0,0:0:0:0:
268,84,17880,2,0,L|356:88,1,86,8|0,0:0|0:0,0:0:0:0:
112,152,18255,5,0,0:0:0:0:
188,200,18348,2,0,P|140:216|96:212,1,86,0|0,0:0|0:0,0:0:0:0:
288,164,18630,2,0,L|376:168,1,86,8|0,0:0|0:0,0:0:0:0:
132,56,19005,1,0,0:0:0:0:
208,104,19098,1,0,0:0:0:0:
164,132,19192,1,0,0:0:0:0:
144,180,19286,1,0,0:0:0:0:
364,56,19380,1,8,0:0:0:0:
208,20,19567,1,0,0:0:0:0:
452,136,19755,5,0,0:0:0:0:
480,180,19848,1,0,0:0:0:0:
484,232,19942,1,0,0:0:0:0:
456,276,20036,1,0,0:0:0:0:
376,320,20130,1,8,0:0:0:0:
220,236,20317,1,0,0:0:0:0:
464,80,20505,1,0,0:0:0:0:
388,36,20598,2,0,P|428:44|476:32,1,86,0|0,0:0|0:0,0:0:0:0:
280,36,20880,2,0,L|172:48,1,86,8|0,0:0|0:0,0:0:0:0:
440,192,21255,5,0,0:0:0:0:
364,232,21348,2,0,P|412:248|464:232,1,86,0|0,0:0|0:0,0:0:0:0:
260,112,21630,2,0,L|152:124,1,86,8|0,0:0|0:0,0:0:0:0:
420,148,22005,1,0,0:0:0:0:
344,200,22098,1,0,0:0:0:0:
388,228,22192,1,0,0:0:0:0:
408,276,22286,1,0,0:0:0:0:
232,364,22380,1,8,0:0:0:0:
388,368,22567,1,0,0:0:0:0:
144,268,22755,5,0,0:0:0:0:
100,244,22848,1,0,0:0:0:0:
80,196,22942,1,0,0:0:0:0:
100,244,23036,1,0,0:0:0:0:
180,284,23130,1,8,0:0:0:0:
336,152,23317,1,0,0:0:0:0:
92,88,23505,1,0,0:0:0:0:
168,108,23598,2,0,P|128:128|80:128,1,86,0|0,0:0|0:0,0:0:0:0:
272,32,23880,2,0,L|360:40,1,86,8|0,0:0|0:0,0:0:0:0:
112,216,24255,5,0,0:0:0:0:
188,256,24348,2,0,P|152:276|108:276,1,86,0|0,0:0|0:0,0:0:0:0:
292,148,24630,1,8,0:0:0:0:
136,104,24817,1,0,0:0:0:0:
412,64,25005,1,0,0:0:0:0:
444,104,25098,2,0,P|456:160|416:212,1,86,0|0,0:0|0:0,0:0:0:0:
228,104,25380,2,0,P|216:160|256:212,1,86,8|0,0:0|0:0,0:0:0:0:
384,300,25755,6,0,L|428:296,1,43,0|0,0:0|0:0,0:0:0:0:
348,228,25942,2,0,L|304:224,1,43,0|0,0:0|0:0,0:0:0:0:
384,152,26130,1,8,0:0:0:0:
228,96,26317,2,0,L|184:92,1,43,0|0,0:0|0:0,0:0:0:0:
368,48,26505,2,0,P|440:88|360:208,1,258,8|0,0:0|0:0,0:0:0:0:
108,104,27255,5,4,3:2:0:0:
184,156,27348,2,0,P|144:176|100:176,1,86,0|0,0:0|0:0,0:0:0:0:
284,304,27630,2,0,L|372:292,1,86,8|0,0:0|0:0,0:0:0:0:
124,36,28005,1,0,0:0:0:0:
200,76,28098,2,0,P|156:92|108:92,1,86,0|0,0:0|0:0,0:0:0:0:
300,80,28380,2,0,L|388:68,1,86,8|0,0:0|0:0,0:0:0:0:
108,172,28755,5,0,0:0:0:0:
64,200,28848,1,0,0:0:0:0:
44,248,28942,1,0,0:0:0:0:
64,296,29036,1,0,0:0:0:0:
140,336,29130,1,8,0:0:0:0:
296,252,29317,1,0,0:0:0:0:
52,88,29505,1,0,0:0:0:0:
128,108,29598,2,0,P|84:132|40:132,1,86,0|0,0:0|0:0,0:0:0:0:
268,20,29880,2,0,L|380:28,1,86,8|0,0:0|0:0,0:0:0:0:
108,164,30255,5,0,0:0:0:0:
184,204,30348,2,0,P|144:224|100:224,1,86,0|0,0:0|0:0,0:0:0:0:
324,168,30630,2,0,L|436:176,1,86,8|0,0:0|0:0,0:0:0:0:
164,64,31005,1,0,0:0:0:0:
240,116,31098,1,0,0:0:0:0:
196,140,31192,1,0,0:0:0:0:
172,188,31286,1,0,0:0:0:0:
328,328,31380,1,8,0:0:0:0:
172,304,31567,1,0,0:0:0:0:
416,228,31755,5,0,0:0:0:0:
340,176,31848,2,0,P|372:192|424:192,1,86,0|0,0:0|0:0,0:0:0:0:
248,104,32130,2,0,L|156:108,1,86,8|0,0:0|0:0,0:0:0:0:
408,92,32505,1,0,0:0:0:0:
332,64,32598,2,0,P|368:80|420:76,1,86,0|0,0:0|0:0,0:0:0:0:
240,44,32880,2,0,L|148:48,1,86,8|0,0:0|0:0,0:0:0:0:
400,184,33255,5,0,0:0:0:0:
440,216,33348,1,0,0:0:0:0:
460,264,33442,1,0,0:0:0:0:
440,216,33536,1,0,0:0:0:0:
364,176,33630,1,8,0:0:0:0:
208,216,33817,1,0,0:0:0:0:
452,112,34005,1,0,0:0:0:0:
376,80,34098,1,0,0:0:0:0:
420,56,34192,1,0,0:0:0:0:
436,8,34286,1,0,0:0:0:0:
264,16,34380,1,8,0:0:0:0:
420,196,34567,1,0,0:0:0:0:
124,104,34755,5,0,0:0:0:0:
200,152,34848,2,0,P|144:168|112:160,1,86,0|0,0:0|0:0,0:0:0:0:
296,288,35130,2,0,L|396:292,1,86,8|0,0:0|0:0,0:0:0:0:
140,36,35505,1,0,0:0:0:0:
216,84,35598,2,0,P|160:100|128:92,1,86,0|0,0:0|0:0,0:0:0:0:
312,220,35880,2,0,L|412:224,1,86,8|0,0:0|0:0,0:0:0:0:
156,144,36255,5,0,0:0:0:0:
116,176,36348,2,0,P|96:208|104:268,1,86,0|0,0:0|0:0,0:0:0:0:
176,304,36630,1,8,0:0:0:0:
20,160,36817,1,0,0:0:0:0:
332,292,37005,1,0,0:0:0:0:
408,300,37098,1,0,0:0:0:0:
476,268,37192,1,0,0:0:0:0:
500,196,37286,1,0,0:0:0:0:
284,80,37380,2,0,B|218:100|218:100|284:120,1,137.6,8|0,0:0|0:0,0:0:0:0:
440,136,37755,6,0,L|504:140,1,43,0|0,0:0|0:0,0:0:0:0:
216,216,37942,2,0,L|152:220,1,43,0|0,0:0|0:0,0:0:0:0:
348,192,38130,2,0,L|412:196,1,43,8|0,0:0|0:0,0:0:0:0:
124,272,38317,2,0,L|60:276,1,43,0|0,0:0|0:0,0:0:0:0:
408,292,38505,2,0,P|480:236|404:100,1,258,8|0,0:0|0:0,0:0:0:0:
108,56,39255,5,4,3:2:0:0:
56,68,39348,1,0,0:0:0:0:
20,104,39442,1,2,0:0:0:0:
8,156,39536,1,0,0:0:0:0:
64,216,39630,2,0,P|48:236|44:264,3,43,2|2|0|0,0:0|0:0|0:0|0:0,0:0:0:0:
56,304,40005,5,2,0:0:0:0:
80,332,40098,1,0,0:0:0:0:
168,336,40192,1,2,0:0:0:0:
256,328,40286,1,0,0:0:0:0:
444,256,40380,1,2,0:0:0:0:
500,204,40473,1,2,0:0:0:0:
508,128,40567,1,0,0:0:0:0:
472,60,40661,1,0,0:0:0:0:
184,40,40755,6,0,P|168:56|156:80,1,43,2|0,0:0|0:0,0:0:0:0:
324,128,40942,2,0,P|340:144|352:168,1,43,2|2,0:0|0:0,0:0:0:0:
272,192,41130,2,0,P|256:208|244:232,1,43,2|0,0:0|0:0,0:0:0:0:
420,56,41317,2,0,P|452:60|488:60,1,43,2|0,0:0|0:0,0:0:0:0:
184,40,41505,6,0,P|152:44|116:44,1,43,2|0,0:0|0:0,0:0:0:0:
220,36,41692,2,0,P|236:52|248:76,1,43,2|0,0:0|0:0,0:0:0:0:
88,128,41880,1,2,0:0:0:0:
56,156,41973,1,0,0:0:0:0:
44,196,42067,1,0,0:0:0:0:
56,236,42161,1,0,0:0:0:0:
128,196,42255,5,2,0:0:0:0:
160,224,42348,1,2,0:0:0:0:
172,264,42442,1,0,0:0:0:0:
160,304,42536,1,0,0:0:0:0:
4,92,42630,1,2,0:0:0:0:
84,48,42723,1,0,0:0:0:0:
164,48,42817,1,0,0:0:0:0:
244,88,42911,1,0,0:0:0:0:
324,132,43005,5,2,0:0:0:0:
360,156,43098,1,0,0:0:0:0:
376,196,43192,1,0,0:0:0:0:
372,240,43286,1,0,0:0:0:0:
216,328,43380,2,0,P|180:336|156:336,1,43,2|0,0:0|0:0,0:0:0:0:
348,320,43567,2,0,P|384:328|408:328,1,43,2|0,0:0|0:0,0:0:0:0:
172,228,43755,5,0,3:0:0:0:
120,184,43848,1,0,0:0:0:0:
96,120,43942,1,0,0:0:0:0:
120,56,44036,1,0,0:0:0:0:
200,328,44130,1,0,3:0:0:0:
172,312,44223,1,0,0:0:0:0:
140,296,44317,1,0,0:0:0:0:
112,280,44411,1,0,0:0:0:0:
356,132,44505,6,0,P|368:112|372:80,1,43,0|0,3:0|0:0,0:0:0:0:
192,192,44692,1,0,3:0:0:0:
116,152,44786,1,0,0:0:0:0:
296,80,44880,2,0,P|308:60|312:28,1,43,0|0,3:0|0:0,0:0:0:0:
116,152,45067,1,8,3:2:0:0:
40,112,45161,1,0,0:0:0:0:
408,28,45255,5,4,3:2:0:0:
472,72,45348,1,0,0:0:0:0:
508,140,45442,1,2,0:0:0:0:
496,216,45536,1,2,0:0:0:0:
416,112,45630,1,0,0:0:0:0:
388,128,45723,1,0,0:0:0:0:
364,152,45817,1,2,0:0:0:0:
348,184,45911,1,0,0:0:0:0:
340,216,46005,5,2,0:0:0:0:
344,252,46098,1,0,0:0:0:0:
352,284,46192,1,0,0:0:0:0:
372,312,46286,1,0,0:0:0:0:
448,340,46380,1,2,0:0:0:0:
372,372,46473,1,2,0:0:0:0:
296,336,46567,1,0,0:0:0:0:
220,368,46661,1,0,0:0:0:0:
56,288,46755,6,0,L|12:292,1,43,2|0,0:0|0:0,0:0:0:0:
300,160,46942,2,0,P|320:136|328:108,1,43,2|0,0:0|0:0,0:0:0:0:
244,88,47130,2,0,P|224:64|216:36,1,43,2|0,0:0|0:0,0:0:0:0:
412,204,47317,2,0,L|456:208,1,43,2|0,0:0|0:0,0:0:0:0:
192,168,47505,6,0,L|148:172,1,43,2|2,0:0|0:0,0:0:0:0:
324,125,47692,2,0,L|368:129,1,43,2|0,0:0|0:0,0:0:0:0:
288,64,47880,2,0,L|244:68,1,43,2|0,0:0|0:0,0:0:0:0:
428,76,48067,2,0,P|444:104|444:136,1,43,2|0,0:0|0:0,0:0:0:0:
184,104,48255,5,2,0:0:0:0:
116,136,48348,1,2,0:0:0:0:
76,200,48442,1,0,0:0:0:0:
88,276,48536,1,2,0:0:0:0:
164,228,48630,1,0,0:0:0:0:
200,252,48723,1,0,0:0:0:0:
220,292,48817,1,0,0:0:0:0:
220,336,48911,1,0,0:0:0:0:
140,68,49005,5,2,0:0:0:0:
104,92,49098,1,0,0:0:0:0:
84,132,49192,1,0,0:0:0:0:
84,176,49286,1,0,0:0:0:0:
276,128,49380,2,0,P|296:160|300:192,1,43,2|0,0:0|0:0,0:0:0:0:
132,244,49567,2,2,P|112:276|108:308,1,43
364,80,49755,6,0,L|440:76,1,43,2|2,0:0|0:0,0:0:0:0:
156,160,49942,2,0,L|80:156,1,43,0|0,0:0|0:0,0:0:0:0:
392,232,50130,1,2,0:0:0:0:
468,196,50223,1,2,0:0:0:0:
136,64,50317,1,0,0:0:0:0:
60,32,50411,1,0,0:0:0:0:
256,152,50505,5,2,0:0:0:0:
208,152,51067,1,0,0:0:0:0:
452,156,51255,6,0,P|360:168|276:156,2,172,4|0|0,0:0|0:0|0:0,0:0:0:0:
140,40,52380,6,0,L|120:156,1,86,0|0,0:0|0:0,0:0:0:0:
280,120,52755,2,0,L|300:236,1,86,0|0,0:0|0:0,0:0:0:0:
140,40,53130,2,0,L|120:156,1,86,0|0,0:0|0:0,0:0:0:0:
384,72,53505,1,0,0:0:0:0:
108,164,53880,5,0,0:0:0:0:
264,124,54067,1,0,0:0:0:0:
420,72,54255,2,0,P|364:92|248:76,1,172,0|0,0:0|0:0,0:0:0:0:
408,160,54817,1,0,0:0:0:0:
252,200,55005,1,0,0:0:0:0:
356,240,55192,1,0,0:0:0:0:
268,280,55380,1,0,0:0:0:0:
356,240,55755,6,0,P|324:160|340:52,1,172,0|2,0:0|0:0,0:0:0:0:
156,240,56505,2,0,P|188:160|172:52,1,172,2|0,0:0|0:0,0:0:0:0:
92,24,57067,1,0,0:0:0:0:
368,56,57255,5,4,0:0:0:0:
412,76,57348,1,0,0:0:0:0:
432,120,57442,1,0,0:0:0:0:
424,168,57536,1,0,0:0:0:0:
208,152,57630,1,0,0:0:0:0:
164,172,57723,1,0,0:0:0:0:
144,216,57817,1,0,0:0:0:0:
152,264,57911,1,0,0:0:0:0:
308,48,58005,5,0,0:0:0:0:
352,68,58098,1,0,0:0:0:0:
372,112,58192,1,0,0:0:0:0:
364,160,58286,1,0,0:0:0:0:
192,212,58380,2,0,L|136:204,1,43,0|0,0:0|0:0,0:0:0:0:
228,128,58567,2,0,L|284:120,1,43,0|0,0:0|0:0,0:0:0:0:
112,60,58755,5,0,0:0:0:0:
68,80,58848,1,0,0:0:0:0:
48,124,58942,1,0,0:0:0:0:
56,172,59036,1,0,0:0:0:0:
228,328,59130,2,0,L|284:320,1,43,0|0,0:0|0:0,0:0:0:0:
192,244,59317,2,0,L|136:236,1,43,0|0,0:0|0:0,0:0:0:0:
332,44,59505,5,0,0:0:0:0:
376,64,59598,1,0,0:0:0:0:
396,108,59692,1,0,0:0:0:0:
388,156,59786,1,0,0:0:0:0:
216,168,59880,2,0,L|173:161,1,43,0|0,0:0|0:0,0:0:0:0:
252,252,60067,2,0,L|294:245,1,43,0|0,0:0|0:0,0:0:0:0:
120,72,60255,5,0,0:0:0:0:
76,92,60348,1,0,0:0:0:0:
56,136,60442,1,0,0:0:0:0:
64,184,60536,1,0,0:0:0:0:
220,284,60630,2,0,P|236:316|236:344,1,43,0|0,0:0|0:0,0:0:0:0:
160,184,60817,2,0,P|144:216|144:244,1,43,0|0,0:0|0:0,0:0:0:0:
300,200,61005,6,0,P|316:232|316:260,1,43,0|0,0:0|0:0,0:0:0:0:
240,100,61192,2,0,P|224:132|224:160,1,43,0|0,0:0|0:0,0:0:0:0:
380,92,61380,1,8,0:0:0:0:
224,24,61567,1,8,0:0:0:0:
476,200,61755,6,0,P|304:212|128:200,2,344,4|0|0,3:2|1:0|0:0,0:0:0:0:
500,160,62598,1,8,0:0:0:0:
152,92,62786,1,8,0:0:0:0:
108,80,62880,1,10,0:0:0:0:
368,44,63067,1,10,0:0:0:0:
76,160,63255,6,0,P|48:200|48:248,1,86,4|8,3:2|0:0,0:0:0:0:
288,116,63630,2,0,P|240:124|192:116,1,86,2|8,0:0|0:0,0:0:0:0:
448,208,64005,2,0,P|400:216|352:208,1,86,2|8,0:0|0:0,0:0:0:0:
120,76,64380,2,0,L|168:80,2,43,2|0|8,0:0|0:0|0:0,0:0:0:0:
364,68,64755,5,2,0:0:0:0:
276,120,64942,1,8,0:0:0:0:
432,164,65130,1,2,0:0:0:0:
156,204,65317,1,10,0:0:0:0:
400,236,65505,2,0,P|432:280|432:324,1,86,2|8,0:0|0:0,0:0:0:0:
280,132,65880,1,2,0:0:0:0:
368,96,66067,1,8,0:0:0:0:
124,76,66255,6,0,P|96:104|92:152,1,86,2|0,0:0|0:0,0:0:0:0:
336,244,66630,1,2,0:0:0:0:
180,280,66817,1,8,0:0:0:0:
284,324,67005,1,2,0:0:0:0:
128,184,67192,1,8,0:0:0:0:
388,160,67380,2,0,P|424:128|432:76,1,86,2|8,0:0|0:0,0:0:0:0:
188,236,67755,6,0,P|152:204|144:152,1,86,2|0,0:0|0:0,0:0:0:0:
388,40,68130,2,0,L|440:36,1,43
352,16,68317,1,8,0:0:0:0:
196,72,68505,1,0,0:0:0:0:
440,200,68692,1,8,0:0:0:0:
284,168,68880,2,0,L|240:172,1,43,0|0,0:0|0:0,0:0:0:0:
320,240,69067,2,0,L|364:244,1,43,10|0,0:0|0:0,0:0:0:0:
116,44,69255,6,0,P|88:76|88:124,1,86,2|8,0:0|0:0,0:0:0:0:
328,88,69630,2,0,P|284:96|236:92,1,86,2|8,0:0|0:0,0:0:0:0:
488,140,70005,2,0,P|444:148|396:144,1,86,2|0,0:0|0:0,0:0:0:0:
160,32,70380,1,2,0:0:0:0:
316,28,70567,1,8,0:0:0:0:
72,168,70755,5,2,0:0:0:0:
228,164,70942,1,8,0:0:0:0:
140,100,71130,1,2,0:0:0:0:
296,112,71317,1,10,0:0:0:0:
52,200,71505,2,0,P|28:236|28:284,1,86,2|8,0:0|0:0,0:0:0:0:
272,184,71880,1,2,0:0:0:0:
116,96,72067,1,8,0:0:0:0:
388,108,72255,6,0,P|416:152|412:200,1,86,2|0,0:0|0:0,0:0:0:0:
172,184,72630,1,2,0:0:0:0:
328,244,72817,1,8,0:0:0:0:
84,108,73005,1,2,0:0:0:0:
240,92,73192,1,8,0:0:0:0:
148,24,73380,1,2,0:0:0:0:
304,28,73567,1,8,0:0:0:0:
56,200,73755,6,0,P|228:212|412:200,2,344,4|4|0,0:0|0:0|0:0,0:0:0:0:
16,176,74598,1,8,0:0:0:0:
280,104,74786,2,0,L|344:96,1,43,8|8,0:0|0:0,0:0:0:0:
164,36,75067,1,8,0:0:0:0:
456,56,75255,6,0,P|484:92|484:144,1,86,4|8,3:2|0:0,0:0:0:0:
244,244,75630,2,0,P|292:252|336:248,1,86,2|8,0:0|0:0,0:0:0:0:
84,152,76005,2,0,P|132:144|176:148,1,86,2|8,0:0|0:0,0:0:0:0:
412,232,76380,1,2,0:0:0:0:
352,264,76473,1,0,0:0:0:0:
412,232,76567,1,8,0:0:0:0:
168,96,76755,5,2,0:0:0:0:
324,168,76942,1,8,0:0:0:0:
80,176,77130,1,2,0:0:0:0:
356,80,77317,1,10,0:0:0:0:
64,48,77505,2,0,P|32:76|16:120,1,86,2|8,0:0|0:0,0:0:0:0:
176,252,77880,1,2,0:0:0:0:
84,280,78067,1,8,0:0:0:0:
360,340,78255,6,0,P|392:312|408:268,1,86,2|0,0:0|0:0,0:0:0:0:
148,88,78630,1,2,0:0:0:0:
304,148,78817,1,8,0:0:0:0:
200,168,79005,1,2,0:0:0:0:
356,80,79192,1,8,0:0:0:0:
252,48,79380,2,0,P|296:56|360:48,1,86,2|8,0:0|0:0,0:0:0:0:
92,172,79755,6,0,P|48:164|-16:172,1,86,2|0,0:0|0:0,0:0:0:0:
164,304,80130,2,0,L|232:296,1,43,0|0,0:0|0:0,0:0:0:0:
128,276,80317,1,8,0:0:0:0:
284,200,80505,1,0,0:0:0:0:
128,120,80692,1,8,0:0:0:0:
284,108,80880,2,0,L|352:100,1,43,0|0,0:0|0:0,0:0:0:0:
248,32,81067,2,0,L|180:24,1,43,10|0,0:0|0:0,0:0:0:0:
456,72,81255,6,0,P|484:108|484:156,1,86,2|8,0:0|0:0,0:0:0:0:
244,284,81630,2,0,P|292:292|340:284,1,86,2|8,0:0|0:0,0:0:0:0:
84,192,82005,2,0,P|132:200|180:192,1,86,2|8,0:0|0:0,0:0:0:0:
412,64,82380,1,2,0:0:0:0:
352,56,82473,1,0,0:0:0:0:
412,64,82567,1,8,0:0:0:0:
168,60,82755,5,2,0:0:0:0:
324,140,82942,1,8,0:0:0:0:
168,192,83130,1,2,0:0:0:0:
412,216,83317,1,10,0:0:0:0:
120,116,83505,2,0,P|84:152|80:204,1,86,2|8,0:0|0:0,0:0:0:0:
320,68,83880,1,2,0:0:0:0:
164,48,84067,1,8,0:0:0:0:
408,180,84255,6,0,P|440:232|440:284,1,86,2|0,0:0|0:0,0:0:0:0:
288,204,84630,1,2,0:0:0:0:
376,84,84817,1,8,0:0:0:0:
220,64,85005,1,2,0:0:0:0:
376,176,85192,1,8,0:0:0:0:
288,132,85380,1,2,0:0:0:0:
444,96,85567,1,8,0:0:0:0:
100,192,85755,6,0,P|256:204|448:188,2,344,4|4|0,0:0|0:0|0:0,0:0:0:0:
64,176,86598,1,8,0:0:0:0:
220,108,86786,2,0,L|268:92,1,43,8|10,0:0|0:0,0:0:0:0:
16,36,87067,1,10,0:0:0:0:
380,32,87255,6,0,P|420:72|420:120,1,86,6|8,3:2|0:0,0:0:0:0:
180,200,87630,1,2,0:0:0:0:
336,232,87817,1,8,0:0:0:0:
180,288,88005,1,2,0:0:0:0:
264,332,88192,1,8,0:0:0:0:
20,208,88380,2,0,P|8:168|28:112,1,86,2|8,0:0|0:0,0:0:0:0:
360,64,88755,6,0,P|272:68|168:48,1,172,4|8,0:0|0:0,0:0:0:0:
144,24,89036,1,8,0:0:0:0:
360,64,89130,6,0,P|272:68|168:48,1,172,4|8,0:0|0:0,0:0:0:0:
144,24,89411,1,8,0:0:0:0:
360,64,89505,2,0,L|416:56,1,43,0|8,0:0|0:0,0:0:0:0:
160,172,89786,2,0,L|104:164,1,43,8|10,0:0|0:0,0:0:0:0:
276,244,90067,1,10,0:0:0:0:
32,256,90255,6,0,P|8:212|12:156,1,86,6|0,0:0|0:0,0:0:0:0:
252,68,90630,1,2,0:0:0:0:
96,52,90817,1,8,0:0:0:0:
340,184,91005,1,2,0:0:0:0:
184,168,91192,1,8,0:0:0:0:
428,108,91380,2,0,P|452:80|460:24,1,86,2|8,0:0|0:0,0:0:0:0:
144,96,91755,6,0,L|124:184,1,86,0|0,3:0|0:0,0:0:0:0:
368,96,92130,2,0,L|388:184,1,86,0|0,3:0|0:0,0:0:0:0:
120,96,92505,2,0,L|53:156,1,86,0|0,3:0|0:0,0:0:0:0:
392,96,92880,2,0,L|458:156,1,86,0|0,3:0|0:0,0:0:0:0:
96,96,93255,5,4,3:2:0:0:
256,192,93442,12,0,95130,0:0:0:0:
336,256,95411,5,0,0:0:0:0:
180,164,95505,1,8,0:0:0:0:
336,84,95692,1,8,0:0:0:0:
92,88,95880,2,0,P|52:128|52:188,1,86,2|2,0:0|0:0,0:0:0:0:
376,316,96255,6,0,P|408:289|422:248,1,86,4|0,3:2|0:0,0:0:0:0:
92,88,96630,2,0,P|124:112|184:104,1,86,2|8,0:0|0:0,0:0:0:0:
412,32,97005,1,2,0:0:0:0:
256,60,97192,1,8,0:0:0:0:
412,124,97380,2,0,L|356:132,1,43,2|0,0:0|0:0,0:0:0:0:
448,176,97567,1,8,0:0:0:0:
92,88,97755,6,0,P|124:112|184:104,1,86,0|0,3:0|0:0,0:0:0:0:
412,28,98130,2,0,P|436:72|424:120,1,86,2|8,0:0|0:0,0:0:0:0:
276,192,98505,1,2,0:0:0:0:
432,236,98692,1,8,0:0:0:0:
188,260,98880,1,2,0:0:0:0:
344,112,99067,1,8,0:0:0:0:
84,88,99255,6,0,P|116:112|176:104,1,86,0|0,3:0|0:0,0:0:0:0:
412,28,99630,2,0,P|436:72|424:120,1,86,2|8,0:0|0:0,0:0:0:0:
156,212,100005,1,2,0:0:0:0:
400,240,100192,1,8,0:0:0:0:
240,296,100380,1,2,0:0:0:0:
396,312,100567,1,8,0:0:0:0:
68,192,100755,6,0,P|40:160|36:104,1,86,2|8,0:0|0:0,0:0:0:0:
276,108,101130,2,0,P|256:112|180:104,1,86,0|8,3:0|0:0,0:0:0:0:
436,56,101505,2,0,P|416:60|340:52,1,86,2|8,3:2|0:0,0:0:0:0:
108,32,101880,1,2,0:2:0:0:
264,104,102067,1,8,0:0:0:0:
20,184,102255,6,0,P|72:200|116:188,1,86,4|0,3:2|0:0,0:0:0:0:
344,44,102630,2,0,P|376:92|368:144,1,86,2|8,0:0|0:0,0:0:0:0:
220,220,103005,1,2,0:0:0:0:
376,236,103192,1,8,0:0:0:0:
132,136,103380,2,0,L|200:128,1,43,2|0,0:0|0:0,0:0:0:0:
96,100,103567,1,8,0:0:0:0:
424,40,103755,6,0,P|464:80|464:132,1,86,0|0,3:0|0:0,0:0:0:0:
224,316,104130,2,0,P|184:276|184:224,1,86,0|8,0:0|0:0,0:0:0:0:
336,124,104505,1,2,0:0:0:0:
180,72,104692,1,8,0:0:0:0:
336,32,104880,1,2,0:0:0:0:
92,136,105067,1,8,0:0:0:0:
404,172,105255,6,0,L|444:212,1,43,2|8,0:0|0:0,0:0:0:0:
356,104,105442,2,0,L|316:144,1,43,8|8,0:0|0:0,0:0:0:0:
484,92,105630,1,10,0:0:0:0:
140,48,105817,1,8,0:0:0:0:
384,280,106005,2,0,L|424:320,1,43,2|8,0:0|0:0,0:0:0:0:
336,212,106192,2,0,L|296:252,1,43,10|0,0:0|0:0,0:0:0:0:
464,200,106380,1,10,0:0:0:0:
120,168,106567,1,0,0:0:0:0:
400,80,106755,6,0,P|320:96|140:68,1,258,4|0,0:0|0:0,0:0:0:0:
344,156,107130,2,0,P|376:168|400:188,1,43,2|0,0:0|0:0,0:0:0:0:
304,88,107317,2,0,P|272:100|248:120,1,43,2|0,0:0|0:0,0:0:0:0:
456,280,107505,2,0,P|496:264|456:212,1,129,2|0,0:0|0:0,0:0:0:0:
272,264,107880,1,8,0:0:0:0:
