osu file format v14

[General]
AudioFilename: audio.mp3
AudioLeadIn: 0
PreviewTime: 63067
Countdown: 0
SampleSet: Normal
StackLeniency: 0.7
Mode: 1
LetterboxInBreaks: 0
WidescreenStoryboard: 0

[Editor]
Bookmarks: 63255
DistanceSpacing: 1.2
BeatDivisor: 4
GridSize: 4
TimelineZoom: 2

[Metadata]
Title:Horang Pungryuga
TitleUnicode:호랑풍류가
Artist:Narae
ArtistUnicode:나래
Creator:Kin
Version:Muzukashii
Source:나와 호랑이님
Tags:상록수 nofool Ascendance
BeatmapID:1495965
BeatmapSetID:628971

[Difficulty]
HPDrainRate:7
CircleSize:6
OverallDifficulty:5
ApproachRate:8
SliderMultiplier:1.5
SliderTickRate:1

[Events]
//Background and Video events
0,0,"horang.jpg",0,0
Video,0,"video.avi"
//Break Periods
//Storyboard Layer 0 (Background)
//Storyboard Layer 1 (Fail)
//Storyboard Layer 2 (Pass)
//Storyboard Layer 3 (Foreground)
//Storyboard Sound Samples

[TimingPoints]
255,375,4,1,0,80,1,0
2880,-90.9090909090909,4,1,0,80,0,0
3067,-80,4,1,0,80,0,0
3255,-66.6666666666667,4,1,0,80,0,0
3630,-90.9090909090909,4,1,0,80,0,0
4005,-100,4,1,0,80,0,0
4380,-90.9090909090909,4,1,0,80,0,0
4567,-80,4,1,0,80,0,0
4755,-66.6666666666667,4,1,0,80,0,0
5130,-90.9090909090909,4,1,0,80,0,0
5505,-100,4,1,0,80,0,0
5880,-90.9090909090909,4,1,0,80,0,0
6067,-80,4,1,0,80,0,0
6255,-66.6666666666667,4,1,0,80,0,0
6630,-90.9090909090909,4,1,0,80,0,0
7005,-100,4,1,0,80,0,0
8880,-90.9090909090909,4,1,0,80,0,0
9067,-80,4,1,0,80,0,0
9255,-66.6666666666667,4,1,0,80,0,0
9630,-90.9090909090909,4,1,0,80,0,0
10005,-100,4,1,0,80,0,0
10380,-90.9090909090909,4,1,0,80,0,0
10567,-80,4,1,0,80,0,0
10755,-66.6666666666667,4,1,0,80,0,0
11130,-90.9090909090909,4,1,0,80,0,0
11505,-100,4,1,0,80,0,0
11880,-90.9090909090909,4,1,0,80,0,0
12067,-80,4,1,0,80,0,0
12255,-66.6666666666667,4,1,0,80,0,0
12630,-90.9090909090909,4,1,0,80,0,0
13005,-100,4,1,0,80,0,0
15255,-90.9090909090909,4,1,0,80,0,0
24255,-76.9230769230769,4,1,0,80,0,0
27255,-90.9090909090909,4,1,0,80,0,0
36161,-76.9230769230769,4,1,0,80,0,0
37755,-75.7575757575758,4,1,0,80,0,0
37942,-73.5294117647059,4,1,0,80,0,0
38130,-71.4285714285714,4,1,0,80,0,0
38317,-68.9655172413793,4,1,0,80,0,0
38505,-66.6666666666667,4,1,0,80,0,0
39255,-100,4,1,0,80,0,0
39442,-98.0392156862745,4,1,0,80,0,0
39536,-96.1538461538461,4,1,0,80,0,0
39630,-94.3396226415094,4,1,0,80,0,0
39817,-92.5925925925926,4,1,0,80,0,0
40005,-90.9090909090909,4,1,0,80,0,0
40380,-84.7457627118644,4,1,0,80,0,0
40567,-83.3333333333333,4,1,0,80,0,0
40755,-100,4,1,0,80,0,0
41036,-97.0873786407767,4,1,0,80,0,0
41130,-94.3396226415094,4,1,0,80,0,0
41317,-100,4,1,0,80,0,0
41411,-97.0873786407767,4,1,0,80,0,0
41505,-94.3396226415094,4,1,0,80,0,0
41692,-100,4,1,0,80,0,0
42067,-96.1538461538461,4,1,0,80,0,0
42255,-92.5925925925926,4,1,0,80,0,0
42630,-92.5925925925926,4,1,0,80,0,0
42817,-96.1538461538461,4,1,0,80,0,0
43005,-100,4,1,0,80,0,0
43192,-102.040816326531,4,1,0,80,0,0
43286,-104.166666666667,4,1,0,80,0,0
43380,-106.382978723404,4,1,0,80,0,0
43567,-108.695652173913,4,1,0,80,0,0
43755,-111.111111111111,4,1,0,80,0,0
44130,-113.636363636364,4,1,0,80,0,0
44505,-116.279069767442,4,1,0,80,0,0
44692,-112.359550561798,4,1,0,80,0,0
44880,-108.695652173913,4,1,0,80,0,0
45067,-104.166666666667,4,1,0,80,0,0
45255,-100,4,1,0,80,0,0
45442,-98.0392156862745,4,1,0,80,0,0
45536,-96.1538461538461,4,1,0,80,0,0
45630,-94.3396226415094,4,1,0,80,0,0
45817,-92.5925925925926,4,1,0,80,0,0
46005,-90.9090909090909,4,1,0,80,0,0
46380,-84.7457627118644,4,1,0,80,0,0
46567,-83.3333333333333,4,1,0,80,0,0
46755,-100,4,1,0,80,0,0
47036,-97.0873786407767,4,1,0,80,0,0
47130,-94.3396226415094,4,1,0,80,0,0
47317,-100,4,1,0,80,0,0
47411,-97.0873786407767,4,1,0,80,0,0
47505,-94.3396226415094,4,1,0,80,0,0
47692,-100,4,1,0,80,0,0
48067,-98.0392156862745,4,1,0,80,0,0
48255,-96.1538461538461,4,1,0,80,0,0
48817,-90.9090909090909,4,1,0,80,0,0
49005,-89.2857142857143,4,1,0,80,0,0
49567,-84.7457627118644,4,1,0,80,0,0
49755,-83.3333333333333,4,1,0,80,0,0
51255,-125,4,1,0,80,0,0
57348,-123.456790123457,4,1,0,80,0,0
57442,-121.951219512195,4,1,0,80,0,0
57630,-119.047619047619,4,1,0,80,0,0
57817,-116.279069767442,4,1,0,80,0,0
58005,-113.636363636364,4,1,0,80,0,0
58098,-112.359550561798,4,1,0,80,0,0
58192,-111.111111111111,4,1,0,80,0,0
58380,-108.695652173913,4,1,0,80,0,0
58567,-106.382978723404,4,1,0,80,0,0
58755,-104.166666666667,4,1,0,80,0,0
59317,-98.0392156862745,4,1,0,80,0,0
59505,-96.1538461538461,4,1,0,80,0,0
60067,-90.9090909090909,4,1,0,80,0,0
60255,-89.2857142857143,4,1,0,80,0,0
60442,-87.719298245614,4,1,0,80,0,0
60630,-86.2068965517241,4,1,0,80,0,0
60817,-84.7457627118644,4,1,0,80,0,0
61005,-83.3333333333333,4,1,0,80,0,0
61192,-81.9672131147541,4,1,0,80,0,0
61380,-80.6451612903226,4,1,0,80,0,0
61567,-79.3650793650794,4,1,0,80,0,0
61755,-78.125,4,1,0,80,0,0
62130,-76.9230769230769,4,1,0,80,0,0
62505,-100,4,1,0,80,0,0
63255,-90.9090909090909,4,1,0,80,0,1
67755,-76.9230769230769,4,1,0,80,0,1
68880,-90.9090909090909,4,1,0,80,0,1
72067,-89.2857142857143,4,1,0,80,0,1
72255,-87.719298245614,4,1,0,80,0,1
72630,-84.7457627118644,4,1,0,80,0,1
72817,-83.3333333333333,4,1,0,80,0,1
73005,-81.9672131147541,4,1,0,80,0,1
73192,-80.6451612903226,4,1,0,80,0,1
73380,-79.3650793650794,4,1,0,80,0,1
74505,-100,4,1,0,80,0,1
75255,-90.9090909090909,4,1,0,80,0,1
79755,-76.9230769230769,4,1,0,80,0,1
80880,-90.9090909090909,4,1,0,80,0,1
84067,-89.2857142857143,4,1,0,80,0,1
84255,-87.719298245614,4,1,0,80,0,1
84630,-84.7457627118644,4,1,0,80,0,1
84817,-83.3333333333333,4,1,0,80,0,1
85005,-81.9672131147541,4,1,0,80,0,1
85192,-80.6451612903226,4,1,0,80,0,1
85380,-79.3650793650794,4,1,0,80,0,1
85755,-79.3650793650794,4,1,0,80,0,1
86505,-100,4,1,0,80,0,1
87255,-90.9090909090909,4,1,0,80,0,1
87630,-87.719298245614,4,1,0,80,0,1
87817,-86.2068965517241,4,1,0,80,0,1
88005,-84.7457627118644,4,1,0,80,0,1
88192,-83.3333333333333,4,1,0,80,0,1
88380,-81.9672131147541,4,1,0,80,0,1
88755,-79.3650793650794,4,1,0,80,0,1
89130,-81.9672131147541,4,1,0,80,0,1
89505,-84.7457627118644,4,1,0,80,0,1
90067,-89.2857142857143,4,1,0,80,0,1
90255,-90.9090909090909,4,1,0,80,0,1
91755,-66.6666666666667,4,1,0,80,0,1
93255,-66.6666666666667,4,1,0,70,0,0
94005,-76.9230769230769,4,1,0,60,0,0
94755,-90.9090909090909,4,1,0,50,0,0
95505,-100,4,1,0,80,0,0
95880,-90.9090909090909,4,1,0,80,0,0
96067,-80,4,1,0,80,0,0
96255,-66.6666666666667,4,1,0,80,0,0
96630,-90.9090909090909,4,1,0,80,0,0
97005,-100,4,1,0,80,0,0
97380,-90.9090909090909,4,1,0,80,0,0
97567,-80,4,1,0,80,0,0
97755,-66.6666666666667,4,1,0,80,0,0
98130,-90.9090909090909,4,1,0,80,0,0
98505,-100,4,1,0,80,0,0
98880,-90.9090909090909,4,1,0,80,0,0
99067,-80,4,1,0,80,0,0
99255,-66.6666666666667,4,1,0,80,0,0
99630,-90.9090909090909,4,1,0,80,0,0
100005,-100,4,1,0,80,0,0
101880,-90.9090909090909,4,1,0,80,0,0
102067,-80,4,1,0,80,0,0
102255,-66.6666666666667,4,1,0,80,0,0
102630,-90.9090909090909,4,1,0,80,0,0
103005,-100,4,1,0,80,0,0
103380,-90.9090909090909,4,1,0,80,0,0
103567,-80,4,1,0,80,0,0
103755,-66.6666666666667,4,1,0,80,0,0
104130,-90.9090909090909,4,1,0,80,0,0
104505,-100,4,1,0,80,0,0
106755,-83.3333333333333,4,1,0,80,0,0
107817,-66.6666666666667,4,1,0,80,0,0

[HitObjects]
256,192,255,5,0,0:0:0:0:
256,192,348,1,0,0:0:0:0:
256,192,630,1,0,0:0:0:0:
256,192,817,1,0,0:0:0:0:
256,192,1005,1,8,0:0:0:0:
256,192,1098,1,8,0:0:0:0:
256,192,1380,1,8,0:0:0:0:
256,192,1567,1,8,0:0:0:0:
256,192,1755,1,0,0:0:0:0:
256,192,1848,1,0,0:0:0:0:
256,192,2130,1,0,0:0:0:0:
256,192,2317,1,0,0:0:0:0:
256,192,2505,1,8,0:0:0:0:
256,192,2880,1,8,0:0:0:0:
256,192,3067,1,8,0:0:0:0:
256,192,3255,1,4,0:0:0:0:
256,192,3630,1,8,0:0:0:0:
256,192,4005,1,0,0:0:0:0:
256,192,4380,1,8,0:0:0:0:
256,192,4567,1,8,0:0:0:0:
256,192,4755,1,4,0:0:0:0:
256,192,5130,1,8,0:0:0:0:
256,192,5505,1,0,0:0:0:0:
256,192,5880,1,8,0:0:0:0:
256,192,6067,1,0,0:0:0:0:
256,192,6255,1,12,0:0:0:0:
256,192,6630,1,0,0:0:0:0:
256,192,7005,1,8,0:0:0:0:
256,192,7380,1,8,0:0:0:0:
256,192,7567,1,0,0:0:0:0:
256,192,7755,1,0,0:0:0:0:
256,192,7848,1,0,0:0:0:0:
256,192,7942,1,0,0:0:0:0:
256,192,8130,1,8,0:0:0:0:
256,192,8505,1,0,0:0:0:0:
256,192,8880,1,8,0:0:0:0:
256,192,9067,1,8,0:0:0:0:
256,192,9255,1,4,0:0:0:0:
256,192,9630,1,8,0:0:0:0:
256,192,10005,1,0,0:0:0:0:
256,192,10380,1,8,0:0:0:0:
256,192,10567,1,8,0:0:0:0:
256,192,10755,1,4,0:0:0:0:
256,192,11130,1,8,0:0:0:0:
256,192,11505,1,0,0:0:0:0:
256,192,11880,1,8,0:0:0:0:
256,192,12067,1,0,0:0:0:0:
256,192,12255,1,12,0:0:0:0:
256,192,12630,1,0,0:0:0:0:
256,192,13005,1,8,0:0:0:0:
256,192,13380,1,8,0:0:0:0:
256,192,13567,1,0,0:0:0:0:
256,192,13755,1,0,0:0:0:0:
256,192,13848,1,0,0:0:0:0:
256,192,13942,1,0,0:0:0:0:
256,192,14130,1,8,0:0:0:0:
256,192,14317,1,0,0:0:0:0:
256,192,14505,2,0,L|320:192,4,37.5
256,192,15255,1,0,0:0:0:0:
256,192,15630,1,0,0:0:0:0:
256,192,15817,1,0,0:0:0:0:
256,192,15911,1,0,0:0:0:0:
256,192,16192,1,0,0:0:0:0:
256,192,16380,1,8,0:0:0:0:
256,192,16567,1,8,0:0:0:0:
256,192,16755,1,0,0:0:0:0:
256,192,16942,1,0,0:0:0:0:
256,192,17130,1,8,0:0:0:0:
256,192,17317,1,0,0:0:0:0:
256,192,17411,1,0,0:0:0:0:
256,192,17692,1,0,0:0:0:0:
256,192,17880,1,0,0:0:0:0:
256,192,18255,1,8,0:0:0:0:
256,192,18630,1,8,0:0:0:0:
256,192,18817,1,8,0:0:0:0:
256,192,18911,1,8,0:0:0:0:
256,192,19192,1,8,0:0:0:0:
256,192,19380,1,0,0:0:0:0:
256,192,19567,1,0,0:0:0:0:
256,192,19755,1,8,0:0:0:0:
256,192,19942,1,8,0:0:0:0:
256,192,20130,1,0,0:0:0:0:
256,192,20317,1,8,0:0:0:0:
256,192,20411,1,8,0:0:0:0:
256,192,20692,1,8,0:0:0:0:
256,192,20880,1,0,0:0:0:0:
256,192,21255,1,8,0:0:0:0:
256,192,21630,1,0,0:0:0:0:
256,192,21817,1,8,0:0:0:0:
256,192,21911,1,8,0:0:0:0:
256,192,22192,1,0,0:0:0:0:
256,192,22380,1,8,0:0:0:0:
256,192,22567,1,8,0:0:0:0:
256,192,22755,1,0,0:0:0:0:
256,192,22942,1,0,0:0:0:0:
256,192,23130,1,8,0:0:0:0:
256,192,23317,1,0,0:0:0:0:
256,192,23411,1,0,0:0:0:0:
256,192,23692,1,0,0:0:0:0:
256,192,23880,1,0,0:0:0:0:
256,192,24255,1,8,0:0:0:0:
256,192,24630,1,8,0:0:0:0:
256,192,24817,1,8,0:0:0:0:
256,192,25005,1,4,0:0:0:0:
256,192,25380,1,12,0:0:0:0:
256,192,25755,1,0,0:0:0:0:
256,192,25942,1,0,0:0:0:0:
256,192,26130,1,8,0:0:0:0:
256,192,26317,1,0,0:0:0:0:
256,192,26505,1,8,0:0:0:0:
256,192,27255,1,8,0:0:0:0:
256,192,27630,1,0,0:0:0:0:
256,192,27817,1,8,0:0:0:0:
256,192,27911,1,8,0:0:0:0:
256,192,28098,1,0,0:0:0:0:
256,192,28192,1,0,0:0:0:0:
256,192,28380,1,0,0:0:0:0:
256,192,28567,1,8,0:0:0:0:
256,192,28755,1,8,0:0:0:0:
256,192,28942,1,0,0:0:0:0:
256,192,29130,1,8,0:0:0:0:
256,192,29317,1,0,0:0:0:0:
256,192,29411,1,0,0:0:0:0:
256,192,29598,1,0,0:0:0:0:
256,192,29692,1,0,0:0:0:0:
256,192,29880,1,8,0:0:0:0:
256,192,30255,1,0,0:0:0:0:
256,192,30630,1,8,0:0:0:0:
256,192,30817,1,0,0:0:0:0:
256,192,30911,1,0,0:0:0:0:
256,192,31098,1,0,0:0:0:0:
256,192,31192,1,0,0:0:0:0:
256,192,31380,1,8,0:0:0:0:
256,192,31567,1,8,0:0:0:0:
256,192,31755,1,0,0:0:0:0:
256,192,31942,1,8,0:0:0:0:
256,192,32130,1,0,0:0:0:0:
256,192,32317,1,8,0:0:0:0:
256,192,32411,1,8,0:0:0:0:
256,192,32598,1,0,0:0:0:0:
256,192,32692,1,0,0:0:0:0:
256,192,32880,1,8,0:0:0:0:
256,192,33255,1,8,0:0:0:0:
256,192,33630,1,8,0:0:0:0:
256,192,33817,1,0,0:0:0:0:
256,192,33911,1,0,0:0:0:0:
256,192,34098,1,0,0:0:0:0:
256,192,34192,1,0,0:0:0:0:
256,192,34380,1,8,0:0:0:0:
256,192,34567,1,0,0:0:0:0:
256,192,34755,1,8,0:0:0:0:
256,192,34942,1,8,0:0:0:0:
256,192,35130,1,0,0:0:0:0:
256,192,35317,1,8,0:0:0:0:
256,192,35411,1,8,0:0:0:0:
256,192,35598,1,0,0:0:0:0:
256,192,35692,1,0,0:0:0:0:
256,192,35880,1,8,0:0:0:0:
256,192,36255,2,0,L|308:192,4,48.7499977684022
256,192,36817,1,8,0:0:0:0:
256,192,37005,2,0,L|308:192,4,48.7499977684022
256,192,37755,1,8,0:0:0:0:
256,192,37942,1,8,0:0:0:0:
256,192,38130,1,0,0:0:0:0:
256,192,38317,1,8,0:0:0:0:
256,192,38505,1,12,0:0:0:0:
256,192,39255,1,0,0:0:0:0:
256,192,39442,1,0,0:0:0:0:
256,192,39536,1,0,0:0:0:0:
256,192,39630,1,0,0:0:0:0:
256,192,39817,1,8,0:0:0:0:
256,192,40005,1,8,0:0:0:0:
256,192,40380,1,0,0:0:0:0:
256,192,40567,1,8,0:0:0:0:
256,192,40942,1,8,0:0:0:0:
256,192,41036,1,8,0:0:0:0:
256,192,41130,1,8,0:0:0:0:
256,192,41317,1,8,0:0:0:0:
256,192,41411,1,8,0:0:0:0:
256,192,41505,1,8,0:0:0:0:
256,192,41692,1,0,0:0:0:0:
256,192,41880,1,8,0:0:0:0:
256,192,42067,1,8,0:0:0:0:
256,192,42255,1,0,0:0:0:0:
256,192,42630,1,0,0:0:0:0:
256,192,42817,1,8,0:0:0:0:
256,192,43005,1,8,0:0:0:0:
256,192,43192,1,0,0:0:0:0:
256,192,43286,1,0,0:0:0:0:
256,192,43380,1,0,0:0:0:0:
256,192,43567,1,0,0:0:0:0:
256,192,43755,1,12,0:0:0:0:
256,192,44130,1,4,0:0:0:0:
256,192,44505,1,12,0:0:0:0:
256,192,44692,1,0,0:0:0:0:
256,192,44880,1,8,0:0:0:0:
256,192,45067,1,8,0:0:0:0:
256,192,45255,1,0,0:0:0:0:
256,192,45442,1,0,0:0:0:0:
256,192,45536,1,0,0:0:0:0:
256,192,45630,1,0,0:0:0:0:
256,192,45817,1,8,0:0:0:0:
256,192,46005,1,8,0:0:0:0:
256,192,46380,1,0,0:0:0:0:
256,192,46567,1,8,0:0:0:0:
256,192,46942,1,8,0:0:0:0:
256,192,47036,1,8,0:0:0:0:
256,192,47130,1,8,0:0:0:0:
256,192,47317,1,8,0:0:0:0:
256,192,47411,1,8,0:0:0:0:
256,192,47505,1,8,0:0:0:0:
256,192,47692,1,0,0:0:0:0:
256,192,47880,1,8,0:0:0:0:
256,192,48067,1,8,0:0:0:0:
256,192,48255,2,0,L|300:192,4,38.9999997619629
256,192,48817,1,8,0:0:0:0:
256,192,49005,2,0,L|300:192,4,42.0000005126953
256,192,49567,1,8,0:0:0:0:
256,192,49755,2,0,L|300:192,8,44.999998626709
256,192,51255,1,4,0:0:0:0:
256,192,52005,1,8,0:0:0:0:
256,192,52755,1,0,0:0:0:0:
256,192,53130,1,0,0:0:0:0:
256,192,53505,1,8,0:0:0:0:
256,192,54255,1,0,0:0:0:0:
256,192,55005,1,8,0:0:0:0:
256,192,55755,5,0,0:0:0:0:
256,192,56130,1,0,0:0:0:0:
256,192,56505,1,8,0:0:0:0:
256,192,56880,1,8,0:0:0:0:
256,192,57255,5,8,0:0:0:0:
256,192,57348,1,8,0:0:0:0:
256,192,57442,1,8,0:0:0:0:
256,192,57630,1,8,0:0:0:0:
256,192,57817,1,0,0:0:0:0:
256,192,58005,1,8,0:0:0:0:
256,192,58098,1,8,0:0:0:0:
256,192,58192,1,8,0:0:0:0:
256,192,58380,1,8,0:0:0:0:
256,192,58567,1,0,0:0:0:0:
256,192,58755,2,8,L|296:192,4,36.0000008789063
256,192,59317,1,0,0:0:0:0:
256,192,59505,2,8,L|296:192,4,38.9999997619629
256,192,60067,1,0,0:0:0:0:
256,192,60255,1,8,0:0:0:0:
256,192,60442,1,0,0:0:0:0:
256,192,60630,1,8,0:0:0:0:
256,192,60817,1,0,0:0:0:0:
256,192,61005,1,8,0:0:0:0:
256,192,61192,1,0,0:0:0:0:
256,192,61380,1,8,0:0:0:0:
256,192,61567,1,0,0:0:0:0:
256,192,61755,1,12,0:0:0:0:
256,192,62130,1,4,0:0:0:0:
256,192,62505,2,0,L|296:192,4,37.5
256,192,63067,1,8,0:0:0:0:
256,192,63255,1,4,0:0:0:0:
256,192,63442,1,0,0:0:0:0:
256,192,63630,1,8,0:0:0:0:
256,192,63723,1,8,0:0:0:0:
256,192,63817,1,8,0:0:0:0:
256,192,64005,1,8,0:0:0:0:
256,192,64380,1,0,0:0:0:0:
256,192,64567,1,8,0:0:0:0:
256,192,64755,1,0,0:0:0:0:
256,192,64848,1,0,0:0:0:0:
256,192,64942,1,0,0:0:0:0:
256,192,65130,1,0,0:0:0:0:
256,192,65317,1,8,0:0:0:0:
256,192,65505,1,8,0:0:0:0:
256,192,65880,1,8,0:0:0:0:
256,192,66067,1,8,0:0:0:0:
256,192,66255,1,0,0:0:0:0:
256,192,66630,1,0,0:0:0:0:
256,192,66817,1,8,0:0:0:0:
256,192,67005,1,0,0:0:0:0:
256,192,67192,1,0,0:0:0:0:
256,192,67380,1,8,0:0:0:0:
256,192,67755,1,4,0:0:0:0:
256,192,67942,1,4,0:0:0:0:
256,192,68130,1,4,0:0:0:0:
256,192,68317,1,4,0:0:0:0:
256,192,68505,1,4,0:0:0:0:
256,192,68880,1,0,0:0:0:0:
256,192,69067,5,8,0:0:0:0:
256,192,69255,1,0,0:0:0:0:
256,192,69442,1,0,0:0:0:0:
256,192,69630,1,8,0:0:0:0:
256,192,69723,1,8,0:0:0:0:
256,192,69817,1,8,0:0:0:0:
256,192,70005,1,8,0:0:0:0:
256,192,70380,1,0,0:0:0:0:
256,192,70567,1,8,0:0:0:0:
256,192,70755,1,0,0:0:0:0:
256,192,70848,1,0,0:0:0:0:
256,192,70942,1,0,0:0:0:0:
256,192,71130,1,8,0:0:0:0:
256,192,71317,1,0,0:0:0:0:
256,192,71505,1,8,0:0:0:0:
256,192,71880,1,8,0:0:0:0:
256,192,72067,1,8,0:0:0:0:
256,192,72255,1,0,0:0:0:0:
256,192,72630,1,0,0:0:0:0:
256,192,72817,1,8,0:0:0:0:
256,192,73005,1,0,0:0:0:0:
256,192,73192,1,8,0:0:0:0:
256,192,73380,1,0,0:0:0:0:
256,192,73755,1,12,0:0:0:0:
256,192,74130,1,4,0:0:0:0:
256,192,74505,2,0,L|296:192,4,37.5
256,192,75067,1,8,0:0:0:0:
256,192,75255,1,4,0:0:0:0:
256,192,75442,1,0,0:0:0:0:
256,192,75630,1,8,0:0:0:0:
256,192,75723,1,8,0:0:0:0:
256,192,75817,1,8,0:0:0:0:
256,192,76005,1,8,0:0:0:0:
256,192,76192,1,0,0:0:0:0:
256,192,76380,1,0,0:0:0:0:
256,192,76567,1,8,0:0:0:0:
256,192,76755,1,0,0:0:0:0:
256,192,76848,1,0,0:0:0:0:
256,192,76942,1,0,0:0:0:0:
256,192,77130,1,0,0:0:0:0:
256,192,77317,1,8,0:0:0:0:
256,192,77505,1,8,0:0:0:0:
256,192,77880,1,8,0:0:0:0:
256,192,78067,1,8,0:0:0:0:
256,192,78255,1,0,0:0:0:0:
256,192,78630,1,8,0:0:0:0:
256,192,78817,1,0,0:0:0:0:
256,192,79005,1,8,0:0:0:0:
256,192,79192,1,8,0:0:0:0:
256,192,79380,1,0,0:0:0:0:
256,192,79755,1,4,0:0:0:0:
256,192,79942,1,4,0:0:0:0:
256,192,80130,1,4,0:0:0:0:
256,192,80317,1,4,0:0:0:0:
256,192,80505,1,4,0:0:0:0:
256,192,80880,1,0,0:0:0:0:
256,192,81067,5,8,0:0:0:0:
256,192,81255,1,0,0:0:0:0:
256,192,81442,1,0,0:0:0:0:
256,192,81630,1,8,0:0:0:0:
256,192,81723,1,8,0:0:0:0:
256,192,81817,1,8,0:0:0:0:
256,192,82005,1,8,0:0:0:0:
256,192,82192,1,0,0:0:0:0:
256,192,82380,1,0,0:0:0:0:
256,192,82567,1,8,0:0:0:0:
256,192,82755,1,0,0:0:0:0:
256,192,82848,1,0,0:0:0:0:
256,192,82942,1,0,0:0:0:0:
256,192,83130,1,0,0:0:0:0:
256,192,83317,1,8,0:0:0:0:
256,192,83505,1,8,0:0:0:0:
256,192,83880,1,8,0:0:0:0:
256,192,84067,1,8,0:0:0:0:
256,192,84255,1,0,0:0:0:0:
256,192,84630,1,0,0:0:0:0:
256,192,84817,1,8,0:0:0:0:
256,192,85005,1,0,0:0:0:0:
256,192,85192,1,8,0:0:0:0:
256,192,85380,1,0,0:0:0:0:
256,192,85755,1,12,0:0:0:0:
256,192,86130,1,4,0:0:0:0:
256,192,86505,2,0,L|296:192,4,37.5
256,192,87067,1,8,0:0:0:0:
256,192,87255,1,4,0:0:0:0:
256,192,87630,1,0,0:0:0:0:
256,192,87817,1,8,0:0:0:0:
256,192,88005,1,0,0:0:0:0:
256,192,88192,1,8,0:0:0:0:
256,192,88380,1,0,0:0:0:0:
256,192,88755,1,12,0:0:0:0:
256,192,89130,1,4,0:0:0:0:
256,192,89505,2,0,L|304:192,4,44.2499984470368
256,192,90067,1,8,0:0:0:0:
256,192,90255,1,4,0:0:0:0:
256,192,90630,1,0,0:0:0:0:
256,192,90817,1,8,0:0:0:0:
256,192,91005,1,0,0:0:0:0:
256,192,91192,1,8,0:0:0:0:
256,192,91380,1,0,0:0:0:0:
256,192,91755,1,12,0:0:0:0:
256,192,92130,1,4,0:0:0:0:
256,192,92505,1,12,0:0:0:0:
256,192,92880,1,4,0:0:0:0:
256,192,93255,12,0,93911,0:0:0:0:
256,192,94005,12,0,94661,0:0:0:0:
256,192,94755,12,0,95317,0:0:0:0:
256,192,95505,5,8,0:0:0:0:
256,192,95880,1,8,0:0:0:0:
256,192,96067,1,8,0:0:0:0:
256,192,96255,1,4,0:0:0:0:
256,192,96630,1,8,0:0:0:0:
256,192,97005,1,0,0:0:0:0:
256,192,97380,1,8,0:0:0:0:
256,192,97567,1,8,0:0:0:0:
256,192,97755,1,4,0:0:0:0:
256,192,98130,1,8,0:0:0:0:
256,192,98505,1,0,0:0:0:0:
256,192,98880,1,8,0:0:0:0:
256,192,99067,1,0,0:0:0:0:
256,192,99255,1,12,0:0:0:0:
256,192,99630,1,0,0:0:0:0:
256,192,100005,1,8,0:0:0:0:
256,192,100380,1,8,0:0:0:0:
256,192,100567,1,0,0:0:0:0:
256,192,100755,1,0,0:0:0:0:
256,192,100848,1,0,0:0:0:0:
256,192,100942,1,0,0:0:0:0:
256,192,101130,1,8,0:0:0:0:
256,192,101505,1,0,0:0:0:0:
256,192,101880,1,8,0:0:0:0:
256,192,102067,1,8,0:0:0:0:
256,192,102255,1,4,0:0:0:0:
256,192,102630,1,8,0:0:0:0:
256,192,103005,1,0,0:0:0:0:
256,192,103380,1,8,0:0:0:0:
256,192,103567,1,8,0:0:0:0:
256,192,103755,1,4,0:0:0:0:
256,192,104130,1,8,0:0:0:0:
256,192,104505,1,0,0:0:0:0:
256,192,104880,1,8,0:0:0:0:
256,192,105067,1,0,0:0:0:0:
256,192,105255,5,0,0:0:0:0:
256,192,105348,1,0,0:0:0:0:
256,192,105442,1,0,0:0:0:0:
256,192,105630,1,8,0:0:0:0:
256,192,105817,1,0,0:0:0:0:
256,192,106005,2,8,L|296:192,4,37.5
256,192,106567,1,8,0:0:0:0:
256,192,106755,1,4,0:0:0:0:
256,192,107130,1,12,0:0:0:0:
256,192,107317,1,4,0:0:0:0:
256,192,107505,1,4,0:0:0:0:
256,192,107880,1,8,0:0:0:0:
256,192,108067,1,0,0:0:0:0:
