osu file format v14

[General]
AudioFilename: audio.mp3
AudioLeadIn: 0
PreviewTime: 27643
Countdown: 0
SampleSet: Soft
StackLeniency: 0.7
Mode: 0
LetterboxInBreaks: 0
WidescreenStoryboard: 1

[Editor]
Bookmarks: 8443,18043,27643,37243,46843,56443,66043,75643,85243,87643
DistanceSpacing: 1
BeatDivisor: 2
GridSize: 32
TimelineZoom: 1.5

[Metadata]
Title:Dystopia
TitleUnicode:Dystopia
Artist:Napoleon
ArtistUnicode:Napoleon
Creator:Mun
Version:Normal
Source:
Tags:progressive metalcore hardcore english rock utopia
BeatmapID:2067984
BeatmapSetID:988626

[Difficulty]
HPDrainRate:4
CircleSize:3
OverallDifficulty:4
ApproachRate:6
SliderMultiplier:0.999999999999999
SliderTickRate:1

[Events]
//Background and Video events
0,0,"cropped-1920-1080-665742.jpg",0,0
//Break Periods
//Storyboard Layer 0 (Background)
//Storyboard Layer 1 (Fail)
//Storyboard Layer 2 (Pass)
//Storyboard Layer 3 (Foreground)
//Storyboard Sound Samples

[TimingPoints]
8443,300,4,2,1,100,1,0
27643,-100,4,2,1,100,0,0
56443,-100,4,2,1,100,0,0
66043,-100,4,2,1,100,0,0

[Colours]
Combo1 : 89,89,89
Combo2 : 207,111,52
Combo3 : 82,92,103
Combo4 : 121,142,159

[HitObjects]
10,152,8443,5,0,3:0:0:0:
96,101,8743,2,0,P|150:104|200:124,3,99.9999999999999,2|2|2|2,0:0|0:0|0:0|0:0,0:0:0:0:
224,158,9793,1,0,3:0:0:0:
257,195,9943,2,0,P|311:192|361:172,1,99.9999999999999,2|2,0:0|0:0,0:0:0:0:
440,126,10543,1,2,3:2:0:0:
436,175,10693,1,0,3:0:0:0:
432,224,10843,6,0,L|441:340,4,99.9999999999999,2|2|2|2|2,0:0|0:0|0:0|0:0|0:0,0:0:0:0:
392,194,12193,2,0,P|344:195|327:202,1,50,0|0,3:0|3:0,0:0:0:0:
315,238,12493,1,0,3:0:0:0:
293,282,12643,2,0,P|242:296|190:277,1,99.9999999999999,2|2,0:0|0:0,0:0:0:0:
146,196,13243,6,0,L|159:81,6,99.9999999999999,0|2|2|2|2|2|2,3:0|0:0|0:0|0:0|0:0|0:0|0:0,0:0:0:0:
113,234,15193,2,0,L|128:295,2,50,0|0|0,3:0|3:0|3:0,0:0:0:0:
71,205,15643,6,0,P|32:209|-12:168,1,99.9999999999999,2|2,3:2|0:0,0:0:0:0:
5,72,16243,2,0,P|44:43|91:52,1,99.9999999999999,2|2,0:0|0:0,0:0:0:0:
168,116,16843,6,0,P|207:128|227:125,1,50,2|0,0:0|0:0,0:0:0:0:
248,88,17143,2,0,P|287:76|307:79,1,50,2|0,0:0|0:0,0:0:0:0:
341,95,17443,1,2,0:0:0:0:
411,165,17743,1,2,0:0:0:0:
503,127,18043,6,0,P|491:172|494:187,1,50,0|0,3:0|0:0,0:0:0:0:
503,223,18343,2,0,L|494:345,3,99.9999999999999,2|2|2|2,0:0|0:0|0:0|0:0,0:0:0:0:
456,353,19393,1,0,3:0:0:0:
411,329,19543,2,0,P|367:324|313:336,1,99.9999999999999,2|2,0:0|0:0,0:0:0:0:
227,283,20143,2,0,P|187:295|156:297,1,50,0|0,3:0|3:0,0:0:0:0:
131,279,20443,5,2,3:2:0:0:
111,233,20593,1,0,3:0:0:0:
129,186,20743,2,0,P|143:133|135:74,3,99.9999999999999,2|2|2|2,0:0|0:0|0:0|0:0,0:0:0:0:
215,24,21943,1,2,3:2:0:0:
315,60,22243,2,0,P|339:57|371:58,1,50,2|0,0:0|0:0,0:0:0:0:
391,99,22543,2,0,P|415:102|447:101,1,50,2|0,0:0|3:0,0:0:0:0:
486,79,22843,6,0,L|459:202,6,99.9999999999999,0|2|2|2|2|2|2,3:0|0:0|0:0|0:0|0:0|0:0|0:0,0:0:0:0:
446,48,24793,2,0,P|439:27|439:-3,2,50,0|0|0,3:0|3:0|3:0,0:0:0:0:
431,95,25243,2,0,P|375:100|317:117,1,99.9999999999999,2|2,3:2|3:2,0:0:0:0:
293,202,25843,2,0,P|237:197|179:180,1,99.9999999999999,2|2,3:2|3:2,0:0:0:0:
94,185,26443,5,2,3:2:0:0:
102,234,26593,1,0,0:0:0:0:
82,280,26743,2,0,P|64:335|62:380,2,99.9999999999999,2|2|2,3:2|3:2|3:2,0:0:0:0:
152,209,27643,6,0,P|216:206|268:220,1,99.9999999999999,0|4,3:0|3:0,0:0:0:0:
326,279,28243,1,8,0:0:0:0:
417,238,28543,1,0,3:0:0:0:
508,278,28843,6,0,P|495:211|505:160,1,99.9999999999999,0|0,3:0|3:0,0:0:0:0:
499,79,29443,1,8,0:0:0:0:
455,102,29593,1,4,3:2:0:0:
409,80,29743,1,0,3:2:0:0:
322,130,30043,6,0,P|240:105|197:100,1,99.9999999999999,0|0,3:0|0:0,0:0:0:0:
165,23,30643,2,0,P|83:48|40:53,1,99.9999999999999,8|0,0:0|3:0,0:0:0:0:
25,140,31243,5,0,3:0:0:0:
68,164,31393,2,0,P|84:216|67:276,1,99.9999999999999,0|0,3:0|3:0,0:0:0:0:
50,303,31843,2,0,P|114:295|169:323,1,99.9999999999999,0|8,3:0|0:0,0:0:0:0:
229,362,32443,6,0,L|250:255,1,99.9999999999999,0|4,3:0|3:0,0:0:0:0:
330,206,33043,2,0,P|386:216|426:247,1,99.9999999999999,8|0,0:0|3:0,0:0:0:0:
495,306,33643,2,0,P|453:333|404:340,1,99.9999999999999,0|0,3:0|3:0,0:0:0:0:
313,300,34243,2,0,P|260:301|239:309,1,50,8|0,0:0|3:0,0:0:0:0:
226,334,34543,1,0,3:0:0:0:
139,284,34843,5,4,3:2:0:0:
139,284,34993,2,0,P|164:227|161:158,1,99.9999999999999,0|0,3:0|3:0,0:0:0:0:
122,165,35443,2,0,P|97:108|100:39,1,99.9999999999999,8|0,0:0|3:0,0:0:0:0:
185,28,36043,6,0,L|330:42,1,99.9999999999999,0|8,3:0|0:0,0:0:0:0:
366,95,36643,2,0,P|405:84|420:70,1,50,0|0,3:0|3:0,0:0:0:0:
460,91,36943,2,0,P|499:102|514:116,1,50,8|0,0:0|3:0,0:0:0:0:
511,157,37243,5,0,3:0:0:0:
492,255,37543,2,0,L|366:249,1,99.9999999999999,0|8,3:0|0:0,0:0:0:0:
292,243,38143,1,0,3:0:0:0:
232,323,38443,5,0,3:0:0:0:
151,264,38743,1,0,0:0:0:0:
51,266,39043,2,0,P|70:226|74:205,1,50,8|4,0:0|3:2,0:0:0:0:
53,173,39343,1,0,3:2:0:0:
14,80,39643,5,0,3:0:0:0:
113,93,39943,1,0,0:0:0:0:
185,24,40243,1,8,0:0:0:0:
253,96,40543,6,0,P|324:106|365:89,1,99.9999999999999,0|0,3:0|3:0,0:0:0:0:
439,54,41143,1,0,3:0:0:0:
434,103,41293,1,0,3:0:0:0:
453,149,41443,1,0,3:0:0:0:
510,230,41743,1,8,3:2:0:0:
451,310,42043,6,0,P|395:300|324:316,1,99.9999999999999,0|4,3:0|3:0,0:0:0:0:
268,251,42643,2,0,P|212:261|141:245,1,99.9999999999999,8|0,0:0|3:0,0:0:0:0:
115,171,43243,1,0,3:0:0:0:
29,118,43543,6,0,P|23:167|-1:210,2,99.9999999999999,0|8|0,3:0|0:0|3:0,0:0:0:0:
9,19,44443,1,4,3:2:0:0:
103,51,44743,1,0,3:0:0:0:
192,7,45043,1,8,0:0:0:0:
262,78,45343,1,0,3:0:0:0:
352,34,45643,6,0,B|359:82|359:82|342:149,1,99.9999999999999,0|8,3:0|0:0,0:0:0:0:
278,206,46243,2,0,L|294:267,1,50,0|0,3:0|3:0,0:0:0:0:
313,298,46543,1,8,0:0:0:0:
242,368,46843,5,0,3:0:0:0:
197,345,46993,2,0,P|153:339|88:359,1,99.9999999999999,0|0,3:2|3:2,0:0:0:0:
57,378,47443,1,8,3:2:0:0:
15,335,47593,1,0,3:0:0:0:
85,263,47893,1,0,3:0:0:0:
451,335,48643,5,8,0:0:0:0:
367,279,48943,2,0,P|360:223|372:177,1,99.9999999999999,0|0,3:0|3:0,0:0:0:0:
402,143,49393,1,0,3:0:0:0:
464,65,49693,2,0,P|511:73|524:68,2,50,0|8|0,3:0|3:2|3:0,0:0:0:0:
382,6,50293,1,0,3:0:0:0:
337,29,50443,6,0,P|277:57|227:52,1,99.9999999999999,0|0,3:0|3:0,0:0:0:0:
173,127,51043,2,0,P|113:99|63:104,1,99.9999999999999,8|0,0:0|3:0,0:0:0:0:
19,179,51643,5,0,3:0:0:0:
15,228,51793,1,0,3:0:0:0:
79,304,52093,2,0,P|56:336|30:359,2,50,0|8|0,3:0|3:2|3:0,0:0:0:0:
172,267,52693,1,0,3:0:0:0:
412,335,53443,5,8,0:0:0:0:
319,372,53743,2,0,P|280:376|249:373,1,50,0|0,3:0|3:0,0:0:0:0:
233,340,54043,2,0,P|194:336|163:339,1,50,0|0,3:0|3:0,0:0:0:0:
89,370,54493,6,0,P|55:346|28:342,2,50,0|8|0,3:0|3:2|3:0,0:0:0:0:
147,288,55093,1,0,3:0:0:0:
113,250,55243,2,0,P|108:198|128:138,1,99.9999999999999,0|0,3:0|3:0,0:0:0:0:
201,93,55843,2,0,P|244:94|269:106,1,50,8|0,0:0|3:0,0:0:0:0:
285,131,56143,2,0,P|328:130|353:118,1,50,4|0,3:0|3:0,0:0:0:0:
368,91,56443,5,4,3:2:0:0:
417,105,56593,1,0,3:0:0:0:
476,185,56893,2,0,P|472:210|463:233,2,50,0|8|0,3:0|3:2|3:0,0:0:0:0:
380,213,57493,1,0,3:0:0:0:
164,339,58243,5,8,0:0:0:0:
84,278,58543,2,0,P|77:222|89:176,1,99.9999999999999,0|0,3:0|3:0,0:0:0:0:
124,146,58993,1,0,3:0:0:0:
209,197,59293,2,0,P|256:205|269:200,2,50,0|8|0,3:0|3:2|3:0,0:0:0:0:
197,97,59893,1,0,3:0:0:0:
176,51,60043,6,0,P|116:23|66:28,1,99.9999999999999,0|0,3:0|3:0,0:0:0:0:
14,96,60643,2,0,P|42:156|37:206,1,99.9999999999999,8|0,0:0|3:0,0:0:0:0:
1,280,61243,5,0,3:0:0:0:
46,301,61393,1,0,3:0:0:0:
144,320,61693,2,0,P|160:301|174:280,2,50,0|8|0,3:0|3:2|3:0,0:0:0:0:
227,375,62293,1,0,3:0:0:0:
437,240,63043,5,8,3:2:0:0:
359,177,63343,2,0,P|355:138|358:107,1,50,0|0,3:0|3:0,0:0:0:0:
333,81,63643,2,0,P|360:52|385:35,1,50,0|0,3:0|3:0,0:0:0:0:
468,36,64093,6,0,P|490:45|509:62,2,50,0|8|0,3:0|3:2|3:0,0:0:0:0:
370,14,64693,1,0,3:0:0:0:
326,39,64843,2,0,P|274:44|214:24,1,99.9999999999999,0|0,3:0|3:0,0:0:0:0:
128,36,65443,2,0,P|127:79|115:104,1,50,8|0,0:0|3:0,0:0:0:0:
81,110,65743,2,0,P|82:153|94:178,1,50,0|0,3:0|3:0,0:0:0:0:
105,204,66043,5,4,3:2:0:0:
153,214,66193,1,0,3:0:0:0:
252,209,66493,2,0,P|251:233|243:257,1,50,0|8,3:0|3:2,0:0:0:0:
210,295,66793,1,0,3:0:0:0:
281,365,67093,1,0,3:0:0:0:
327,382,67243,6,0,L|390:381,1,50,0|0,3:0|3:0,0:0:0:0:
459,324,67693,2,0,L|513:338,2,50,0|8|0,3:0|3:2|3:0,0:0:0:0:
431,281,68143,1,0,3:0:0:0:
395,187,68443,6,0,P|412:146|428:127,1,50,0|0,3:0|3:0,0:0:0:0:
473,60,68893,2,0,P|453:37|426:25,1,50,8|8,0:0|0:0,0:0:0:0:
385,25,69193,1,0,3:0:0:0:
303,83,69493,1,0,3:0:0:0:
254,93,69643,6,0,P|233:74|209:66,1,50,0|0,3:0|3:0,0:0:0:0:
176,101,69943,2,0,P|152:110|134:127,2,50,0|0|8,3:0|3:0|3:2,0:0:0:0:
361,174,70843,5,0,3:0:0:0:
351,222,70993,1,0,3:0:0:0:
273,284,71293,2,0,P|248:283|224:275,1,50,0|8,3:0|3:2,0:0:0:0:
187,242,71593,1,0,3:0:0:0:
122,318,71893,1,0,3:0:0:0:
82,287,72043,6,0,L|19:286,1,50,0|0,3:0|3:0,0:0:0:0:
57,189,72493,2,0,L|112:171,2,50,0|8|0,3:0|3:2|3:0,0:0:0:0:
15,160,72943,1,0,3:0:0:0:
13,60,73243,6,0,P|30:19|46:0,1,50,0|0,3:0|3:0,0:0:0:0:
128,44,73693,2,0,P|149:56|164:76,1,50,8|8,0:0|0:0,0:0:0:0:
184,122,73993,1,0,3:0:0:0:
227,212,74293,1,0,3:0:0:0:
276,222,74443,6,0,P|296:203|321:195,1,50,0|0,3:0|3:0,0:0:0:0:
411,228,74893,1,0,3:0:0:0:
448,260,75043,2,0,P|473:199|470:127,1,99.9999999999999,8|8,3:2|3:2,0:0:0:0:
388,117,75643,5,0,3:0:0:0:
340,127,75793,1,0,3:0:0:0:
241,122,76093,2,0,P|242:146|250:170,1,50,0|8,3:0|3:2,0:0:0:0:
283,208,76393,1,0,3:0:0:0:
212,277,76693,1,0,3:0:0:0:
189,321,76843,6,0,L|115:338,1,50,0|0,3:0|3:0,0:0:0:0:
72,259,77293,2,0,L|18:245,2,50,0|8|0,3:0|3:2|3:0,0:0:0:0:
120,248,77743,1,0,3:0:0:0:
170,161,78043,6,0,P|153:120|137:101,1,50,0|0,3:0|3:0,0:0:0:0:
50,102,78493,2,0,P|73:82|85:55,1,50,8|8,0:0|0:0,0:0:0:0:
86,14,78793,1,0,3:0:0:0:
185,5,79093,1,0,3:0:0:0:
221,38,79243,6,0,P|242:57|266:65,1,50,0|0,3:0|3:0,0:0:0:0:
307,41,79543,2,0,P|331:50|349:67,2,50,0|0|4,3:0|3:0|3:0,0:0:0:0:
141,153,80443,5,0,3:0:0:0:
151,201,80593,1,0,3:0:0:0:
233,256,80893,2,0,P|258:255|282:247,1,50,0|8,3:0|3:2,0:0:0:0:
319,214,81193,1,0,3:0:0:0:
386,287,81493,1,0,3:0:0:0:
416,326,81643,6,0,P|448:323|479:327,1,50,0|0,3:0|3:0,0:0:0:0:
467,226,82093,2,0,P|440:223|406:207,2,50,0|8|0,3:0|3:2|3:0,0:0:0:0:
507,197,82543,1,0,3:0:0:0:
467,105,82843,6,0,P|479:83|487:59,1,50,0|0,3:0|3:0,0:0:0:0:
396,15,83293,2,0,P|371:14|348:24,1,50,8|8,0:0|0:0,0:0:0:0:
308,55,83593,1,0,3:0:0:0:
285,172,83893,1,0,3:0:0:0:
319,207,84043,6,0,P|342:198|359:180,1,50,0|0,3:0|3:0,0:0:0:0:
415,264,84493,1,0,3:0:0:0:
389,306,84643,2,0,P|328:281|256:284,1,99.9999999999999,8|0,3:2|3:0,0:0:0:0:
256,192,85243,12,0,87493,3:0:0:0:
