osu file format v14

[General]
AudioFilename: audio.mp3
AudioLeadIn: 0
PreviewTime: 27643
Countdown: 0
SampleSet: Soft
StackLeniency: 0.7
Mode: 0
LetterboxInBreaks: 0
WidescreenStoryboard: 0

[Editor]
Bookmarks: 8443,18043,27643,37243,46843,56443,65743,66043,75643,85243,87643
DistanceSpacing: 1
BeatDivisor: 4
GridSize: 32
TimelineZoom: 1.5

[Metadata]
Title:Dystopia
TitleUnicode:Dystopia
Artist:Napoleon
ArtistUnicode:Napoleon
Creator:Mun
Version:Newborn Mind
Source:
Tags:progressive metalcore hardcore english rock utopia
BeatmapID:2067983
BeatmapSetID:988626

[Difficulty]
HPDrainRate:6
CircleSize:4
OverallDifficulty:9
ApproachRate:9.6
SliderMultiplier:2
SliderTickRate:1

[Events]
//Background and Video events
0,0,"cropped-1920-1080-665742.jpg",0,0
//Break Periods
//Storyboard Layer 0 (Background)
//Storyboard Layer 1 (Fail)
//Storyboard Layer 2 (Pass)
//Storyboard Layer 3 (Foreground)
//Storyboard Sound Samples

[TimingPoints]
8443,300,4,2,1,100,1,0
8443,-125,4,2,1,100,0,0
27643,-100,4,2,1,100,0,0
56443,-100,4,2,1,100,0,0
66043,-76.9230769230769,4,2,1,100,0,0
68893,-125,4,2,1,100,0,0
69193,-76.9230769230769,4,2,1,100,0,0
73693,-125,4,2,1,100,0,0
73993,-76.9230769230769,4,2,1,100,0,0
83293,-125,4,2,1,100,0,0
83593,-76.9230769230769,4,2,1,100,0,0

[Colours]
Combo1 : 89,89,89
Combo2 : 207,111,52
Combo3 : 82,92,103
Combo4 : 121,142,159

[HitObjects]
75,338,8443,5,0,3:0:0:0:
145,253,8593,1,0,0:0:0:0:
244,299,8743,6,0,L|221:382,1,80,2|0,0:0|0:0,0:0:0:0:
319,260,9043,2,0,L|296:177,1,80,2|0,0:0|0:0,0:0:0:0:
394,299,9343,2,0,L|371:382,1,80,2|0,0:0|0:0,0:0:0:0:
469,260,9643,1,2,0:0:0:0:
291,170,9793,5,0,3:0:0:0:
367,126,9943,2,0,L|388:48,1,80,2|0,0:0|0:0,0:0:0:0:
425,191,10243,1,2,0:0:0:0:
209,157,10393,5,0,3:0:0:0:
396,38,10543,1,2,3:2:0:0:
241,232,10693,1,0,3:0:0:0:
282,355,10843,5,2,0:0:0:0:
316,274,10993,1,0,0:0:0:0:
195,366,11143,2,0,L|102:376,1,80,2|0,0:0|0:0,0:0:0:0:
1,283,11443,2,0,L|94:293,1,80,2|0,0:0|0:0,0:0:0:0:
195,200,11743,2,0,L|102:210,1,80,2|0,0:0|0:0,0:0:0:0:
1,117,12043,1,2,0:0:0:0:
87,131,12193,5,0,3:0:0:0:
1,283,12343,1,0,3:0:0:0:
0,200,12493,1,0,3:0:0:0:
76,369,12643,6,0,P|105:375|134:370,1,40,2|0,0:0|0:0,0:0:0:0:
253,289,12793,2,0,P|233:289|213:294,1,40
128,374,12943,1,2,0:0:0:0:
320,341,13093,1,0,0:0:0:0:
325,333,13168,1,0,0:0:0:0:
333,289,13243,5,0,3:0:0:0:
421,370,13393,1,0,0:0:0:0:
389,226,13543,6,0,P|328:209|298:215,1,80,2|0,0:0|0:0,0:0:0:0:
436,153,13843,2,0,P|475:153|512:137,1,80,2|0,0:0|0:0,0:0:0:0:
384,88,14143,2,0,P|323:71|293:77,1,80,2|0,0:0|0:0,0:0:0:0:
431,15,14443,2,0,P|470:15|507:0,1,80,2|0,0:0|0:0,0:0:0:0:
258,13,14743,6,0,P|212:57|202:86,1,80,2|0,0:0|0:0,0:0:0:0:
312,210,15043,1,2,0:0:0:0:
358,135,15193,1,0,3:0:0:0:
342,136,15268,1,0,3:0:0:0:
326,138,15343,1,0,3:0:0:0:
253,161,15493,1,0,3:0:0:0:
413,296,15643,6,0,B|347:286|347:286|328:293|328:293|257:280,1,160,2|2,3:2|0:0,0:0:0:0:
178,261,16093,1,0,0:0:0:0:
357,372,16243,2,0,L|249:380,1,80,2|0,0:0|0:0,0:0:0:0:
237,160,16543,2,0,L|309:206,1,80,2|0,0:0|0:0,0:0:0:0:
178,261,16843,5,2,0:0:0:0:
154,184,16993,1,0,0:0:0:0:
204,347,17143,2,0,P|129:339|108:325,1,80,2|0,0:0|0:0,0:0:0:0:
222,118,17443,2,0,P|252:186|250:212,1,80,2|0,0:0|0:0,0:0:0:0:
15,217,17743,2,0,P|59:156|82:144,1,80,2|0,0:0|0:0,0:0:0:0:
204,347,18043,5,0,3:0:0:0:
277,377,18193,1,0,0:0:0:0:
332,319,18343,1,2,0:0:0:0:
332,319,18493,1,0,0:0:0:0:
461,372,18643,1,2,0:0:0:0:
461,372,18793,1,0,0:0:0:0:
312,234,18943,1,2,0:0:0:0:
312,234,19093,1,0,0:0:0:0:
441,287,19243,1,2,0:0:0:0:
213,264,19393,5,0,3:0:0:0:
362,167,19543,1,2,0:0:0:0:
362,167,19693,1,0,0:0:0:0:
329,93,19843,1,2,0:0:0:0:
312,234,19993,5,0,3:0:0:0:
451,183,20143,1,0,3:0:0:0:
251,152,20293,1,0,3:0:0:0:
93,241,20443,5,2,3:2:0:0:
190,75,20593,1,0,3:0:0:0:
90,73,20743,1,2,0:0:0:0:
90,73,20893,1,0,0:0:0:0:
154,150,21043,1,2,0:0:0:0:
154,150,21193,1,0,0:0:0:0:
251,152,21343,1,2,0:0:0:0:
251,152,21493,1,0,0:0:0:0:
299,230,21643,1,2,0:0:0:0:
385,384,21793,5,0,3:0:0:0:
410,260,21943,1,2,3:2:0:0:
435,136,22093,1,0,3:0:0:0:
415,271,22243,6,0,P|400:239|388:228,1,40,2|0,0:0|0:0,0:0:0:0:
447,127,22393,2,0,P|435:143|429:162,1,40
502,231,22543,1,2,0:0:0:0:
417,284,22693,1,0,3:0:0:0:
415,299,22768,1,0,3:0:0:0:
408,315,22843,5,0,3:0:0:0:
337,276,22993,1,0,0:0:0:0:
274,325,23143,1,2,0:0:0:0:
274,325,23293,1,0,0:0:0:0:
221,264,23443,1,2,0:0:0:0:
221,264,23593,1,0,0:0:0:0:
156,310,23743,1,2,0:0:0:0:
156,310,23893,1,0,0:0:0:0:
103,249,24043,5,2,0:0:0:0:
103,249,24193,1,0,0:0:0:0:
46,305,24343,1,2,0:0:0:0:
46,305,24493,1,0,0:0:0:0:
106,168,24643,1,2,0:0:0:0:
274,325,24793,1,0,3:0:0:0:
266,336,24868,1,0,3:0:0:0:
252,348,24943,1,0,3:0:0:0:
156,310,25093,1,0,3:0:0:0:
337,276,25243,6,0,P|390:280|490:331,1,160,2|2,3:2|3:2,0:0:0:0:
484,326,25693,1,0,3:0:0:0:
452,190,25843,2,0,P|392:197|362:191,1,80,2|0,3:2|0:0,0:0:0:0:
341,119,26143,2,0,P|281:112|251:118,1,80,2|0,3:2|0:0,0:0:0:0:
214,179,26443,5,2,3:2:0:0:
148,132,26593,1,0,0:0:0:0:
85,182,26743,2,0,L|95:278,1,80,2|0,3:2|0:0,0:0:0:0:
150,123,27043,2,0,L|160:27,1,80,2|0,3:2|0:0,0:0:0:0:
76,182,27343,2,0,L|86:278,1,80,2|0,3:2|0:0,0:0:0:0:
222,184,27643,5,0,3:0:0:0:
161,31,27793,1,0,0:0:0:0:
71,103,27943,1,4,3:0:0:0:
25,13,28093,1,0,0:0:0:0:
290,129,28243,6,0,P|308:187|293:240,1,100,8|0,0:0|0:0,0:0:0:0:
428,109,28543,2,0,P|421:59|438:13,1,100,0|0,3:0|0:0,0:0:0:0:
438,13,28843,1,0,3:0:0:0:
277,118,28993,2,0,L|163:122,2,100,0|0|0,0:0|3:0|0:0,0:0:0:0:
437,117,29443,1,8,0:0:0:0:
286,214,29593,5,4,3:2:0:0:
491,313,29743,1,0,3:2:0:0:
267,204,29893,1,4,3:2:0:0:
182,257,30043,5,0,3:0:0:0:
244,335,30193,2,0,P|296:330|360:352,1,100,0|0,3:0|0:0,0:0:0:0:
144,352,30493,1,0,3:0:0:0:
83,272,30643,2,0,P|70:223|75:174,1,100,8|0,0:0|0:0,0:0:0:0:
250,107,30943,1,0,3:0:0:0:
183,182,31093,1,0,0:0:0:0:
126,99,31243,1,0,3:0:0:0:
302,184,31393,5,0,3:0:0:0:
166,181,31543,1,0,3:0:0:0:
30,178,31693,1,0,3:0:0:0:
183,182,31843,6,0,P|195:221|189:261,1,50,10|0,0:0|0:0,0:0:0:0:
17,177,31993,2,0,P|19:152|29:129,1,50,0|0,3:0|0:0,0:0:0:0:
128,268,32143,1,8,0:0:0:0:
122,284,32218,1,8,0:0:0:0:
108,295,32293,1,8,0:0:0:0:
8,308,32443,5,0,3:0:0:0:
127,256,32593,1,0,3:0:0:0:
193,384,32743,1,4,3:0:0:0:
296,226,32893,1,0,0:0:0:0:
386,269,33043,6,0,P|324:264|281:219,1,100,8|0,0:0|0:0,0:0:0:0:
421,378,33343,2,0,P|462:351|511:351,1,100,0|0,3:0|0:0,0:0:0:0:
382,162,33643,1,0,3:0:0:0:
471,118,33793,1,0,0:0:0:0:
307,346,33943,5,0,3:0:0:0:
218,302,34093,1,0,0:0:0:0:
403,265,34243,5,8,0:0:0:0:
204,306,34393,1,0,3:0:0:0:
191,311,34468,1,0,3:0:0:0:
176,318,34543,1,0,3:0:0:0:
200,185,34693,1,0,0:0:0:0:
96,362,34843,5,4,3:2:0:0:
117,129,34993,2,0,L|19:151,1,100,0|0,3:0|0:0,0:0:0:0:
291,335,35293,2,0,P|290:284|268:237,2,100,0|8|0,0:0|0:0|0:0,0:0:0:0:
379,160,35743,2,0,P|380:232|396:268,1,100,0|0,3:0|0:0,0:0:0:0:
391,30,36043,6,0,P|329:66|305:98,1,100,0|0,3:0|0:0,0:0:0:0:
258,232,36343,2,0,P|196:195|172:163,1,100,8|0,0:0|0:0,0:0:0:0:
128,36,36643,1,0,3:0:0:0:
79,46,36718,1,0,3:0:0:0:
68,94,36793,1,0,3:0:0:0:
94,136,36868,1,0,3:0:0:0:
86,185,36943,2,0,P|61:206|27:213,1,50,8|0,0:0|0:0,0:0:0:0:
179,173,37093,2,0,P|201:182|220:199,1,50,0|0,3:0|0:0,0:0:0:0:
234,313,37243,5,0,3:0:0:0:
301,238,37393,1,0,3:0:0:0:
371,327,37543,2,0,P|442:339|495:329,1,100,0|0,3:0|0:0,0:0:0:0:
222,302,37843,2,0,P|151:290|98:300,1,100,8|0,0:0|0:0,0:0:0:0:
456,253,38143,2,0,P|501:197|519:146,1,100,0|0,3:0|0:0,0:0:0:0:
512,72,38443,5,0,3:0:0:0:
391,211,38593,2,0,B|344:224|344:224|277:215,2,100,0|0|0,3:0|0:0|0:0,0:0:0:0:
356,117,39043,1,8,0:0:0:0:
234,284,39193,5,4,3:2:0:0:
135,79,39343,1,0,3:2:0:0:
244,303,39493,1,4,3:2:0:0:
154,259,39643,5,0,3:0:0:0:
255,321,39793,2,0,P|307:326|371:304,1,100,0|0,3:0|0:0,0:0:0:0:
416,237,40093,1,0,3:0:0:0:
320,221,40243,2,0,P|350:178|363:112,1,100,8|0,0:0|0:0,0:0:0:0:
140,283,40543,2,0,P|153:330|182:371,1,100,0|0,3:0|0:0,0:0:0:0:
207,158,40843,1,0,3:0:0:0:
54,70,40993,5,0,3:0:0:0:
51,206,41143,1,0,3:0:0:0:
48,342,41293,1,0,3:0:0:0:
52,189,41443,6,0,P|91:177|131:183,1,50,0|0,3:0|0:0,0:0:0:0:
47,355,41593,2,0,P|22:353|-1:343,1,50,0|0,3:0|0:0,0:0:0:0:
145,253,41743,1,8,3:2:0:0:
161,259,41818,1,8,3:2:0:0:
172,273,41893,1,8,3:2:0:0:
0,257,42043,5,0,3:0:0:0:
116,181,42193,1,0,3:0:0:0:
38,117,42343,2,0,P|36:55|56:14,1,100,4|0,3:0|0:0,0:0:0:0:
180,284,42643,2,0,L|152:408,1,100,8|0,0:0|0:0,0:0:0:0:
134,81,42943,2,0,P|175:54|224:54,1,100,0|0,3:0|0:0,0:0:0:0:
295,124,43243,1,0,3:0:0:0:
382,75,43393,1,0,0:0:0:0:
365,275,43543,5,0,3:0:0:0:
409,186,43693,1,0,0:0:0:0:
441,357,43843,5,8,0:0:0:0:
299,189,43993,1,0,3:0:0:0:
286,194,44068,1,0,3:0:0:0:
271,201,44143,1,0,3:0:0:0:
262,325,44293,1,0,3:0:0:0:
382,75,44443,5,4,3:2:0:0:
138,194,44593,1,0,0:0:0:0:
58,133,44743,2,0,P|49:76|66:28,1,100,0|0,3:0|0:0,0:0:0:0:
223,249,45043,2,0,P|235:296|226:345,1,100,8|0,0:0|0:0,0:0:0:0:
206,106,45343,2,0,P|253:93|302:102,1,100,0|0,3:0|0:0,0:0:0:0:
428,278,45643,6,0,L|318:265,1,100,0|0,3:0|0:0,0:0:0:0:
213,236,45943,2,0,L|103:249,1,100,8|0,0:0|0:0,0:0:0:0:
37,311,46243,5,0,3:0:0:0:
11,268,46318,1,0,3:0:0:0:
15,218,46393,1,0,3:0:0:0:
51,183,46468,1,0,3:0:0:0:
71,137,46543,2,0,P|73:88|58:63,1,50,8|0,0:0|0:0,0:0:0:0:
108,253,46693,2,0,P|104:277|110:301,1,50,0|0,3:0|0:0,0:0:0:0:
142,30,46843,5,0,3:0:0:0:
327,110,46993,1,0,3:0:0:0:
327,110,47293,1,0,3:2:0:0:
295,148,47368,1,0,3:2:0:0:
247,132,47443,1,8,3:2:0:0:
379,175,47593,2,0,L|378:312,1,100,0|0,3:0|0:0,0:0:0:0:
376,383,47893,1,0,3:0:0:0:
6,220,48643,5,8,0:0:0:0:
6,220,48943,1,0,3:0:0:0:
151,176,49093,1,0,3:0:0:0:
215,384,49243,5,0,3:0:0:0:
81,318,49393,1,0,3:0:0:0:
81,318,49693,1,0,3:0:0:0:
118,284,49768,1,0,3:0:0:0:
166,297,49843,1,8,3:2:0:0:
14,379,49993,2,0,B|-5:333|-5:333|5:285,1,100,0|0,3:0|0:0,0:0:0:0:
120,118,50293,5,0,3:0:0:0:
15,201,50443,1,0,3:0:0:0:
15,201,50743,2,0,P|71:185|139:208,1,100,0|0,3:0|3:0,3:0:0:0:
119,204,50968,1,0,3:0:0:0:
167,190,51043,5,8,0:0:0:0:
203,76,51193,1,0,3:0:0:0:
309,292,51343,5,0,3:0:0:0:
288,171,51493,1,0,3:0:0:0:
458,291,51643,5,0,3:0:0:0:
373,196,51793,1,0,3:0:0:0:
373,196,52093,1,0,3:0:0:0:
419,176,52168,1,0,3:0:0:0:
457,207,52243,1,8,3:2:0:0:
300,384,52393,2,0,L|291:277,1,100,0|0,3:0|0:0,0:0:0:0:
283,184,52693,1,0,3:0:0:0:
479,25,53443,5,8,0:0:0:0:
479,25,53743,1,0,3:0:0:0:
339,63,53893,1,0,3:0:0:0:
512,212,54043,5,0,3:0:0:0:
358,168,54193,1,0,3:0:0:0:
358,168,54493,1,0,3:0:0:0:
407,162,54568,1,0,3:0:0:0:
430,206,54643,1,8,3:2:0:0:
298,343,54793,2,0,L|288:237,1,100,0|0,3:0|0:0,0:0:0:0:
274,144,55093,1,0,3:0:0:0:
413,315,55243,6,0,B|461:332|461:332|512:324,1,100,0|0,3:0|0:0,0:0:0:0:
298,343,55543,2,0,B|228:326|228:326|148:368,1,150,0|0,3:0|3:0,0:0:0:0:
115,331,55843,1,8,0:0:0:0:
156,240,55993,1,0,3:0:0:0:
0,154,56143,5,4,3:0:0:0:
41,245,56293,1,0,3:0:0:0:
168,224,56443,5,4,3:2:0:0:
35,45,56593,1,0,3:0:0:0:
35,45,56893,1,0,3:0:0:0:
36,94,56968,1,0,3:0:0:0:
83,109,57043,1,8,3:2:0:0:
286,28,57193,2,0,L|186:34,1,100,0|0,3:0|0:0,0:0:0:0:
380,90,57493,1,0,3:0:0:0:
66,372,58243,5,8,0:0:0:0:
66,372,58543,1,0,3:0:0:0:
33,250,58693,1,0,3:0:0:0:
232,184,58843,5,0,3:0:0:0:
196,349,58993,1,0,3:0:0:0:
196,349,59293,1,0,3:0:0:0:
162,311,59368,1,0,3:0:0:0:
184,266,59443,1,8,3:2:0:0:
326,183,59593,6,0,P|277:197|222:177,1,100,0|0,3:0|0:0,0:0:0:0:
185,94,59893,1,0,3:0:0:0:
29,199,60043,2,0,L|143:181,1,100,0|0,3:0|0:0,0:0:0:0:
314,72,60343,2,0,B|268:90|268:90|224:200,1,150,0|0,3:0|3:0,0:0:0:0:
180,183,60643,1,8,0:0:0:0:
299,270,60793,1,0,3:0:0:0:
160,346,60943,5,0,3:0:0:0:
331,377,61093,1,0,3:0:0:0:
314,72,61243,5,0,3:0:0:0:
372,195,61393,1,0,3:0:0:0:
372,195,61693,2,0,P|376:153|372:138,1,50,0|0,3:0|3:0,3:0:0:0:
225,73,61843,5,8,3:2:0:0:
379,18,61993,1,0,3:0:0:0:
205,281,62293,1,0,3:0:0:0:
205,281,62593,1,0,3:0:0:0:
205,281,62668,1,0,3:0:0:0:
241,247,62743,1,8,3:2:0:0:
284,256,62818,1,0,3:0:0:0:
306,289,62893,1,0,3:0:0:0:
345,322,62968,1,0,3:0:0:0:
402,306,63043,1,8,3:2:0:0:
402,306,63343,5,0,3:0:0:0:
433,173,63493,1,0,3:0:0:0:
213,13,63643,5,0,3:0:0:0:
253,179,63793,1,0,3:0:0:0:
253,179,64093,1,0,3:0:0:0:
280,137,64168,1,0,3:0:0:0:
258,91,64243,1,8,3:2:0:0:
147,260,64393,2,0,L|273:279,1,100,0|0,3:0|0:0,0:0:0:0:
344,294,64693,1,0,3:0:0:0:
75,316,64843,6,0,B|54:270|54:270|63:221,1,100,0|0,3:0|0:0,0:0:0:0:
168,29,65143,2,0,B|177:78|177:78|127:171,1,150,0|0,3:0|3:0,3:0:0:0:
138,215,65443,1,8,0:0:0:0:
11,151,65593,1,0,3:0:0:0:
275,145,65743,5,0,3:0:0:0:
157,13,65893,1,0,3:0:0:0:
180,349,66043,5,4,3:2:0:0:
170,219,66193,2,0,L|161:82,1,129.999994049073,0|0,3:0|0:0,0:0:0:0:
161,89,66493,5,0,3:0:0:0:
161,89,66568,1,0,3:0:0:0:
104,56,66643,1,8,3:2:0:0:
366,269,66793,2,0,B|304:292|304:292|229:278,1,129.999994049073,0|0,3:0|0:0,0:0:0:0:
241,280,67093,1,0,3:0:0:0:
440,345,67243,5,0,3:0:0:0:
456,216,67393,2,0,L|465:79,1,129.999994049073,0|0,3:0|0:0,0:0:0:0:
464,86,67693,2,0,P|470:130|465:169,1,64.9999970245363,0|0,3:0|3:0,3:0:0:0:
333,38,67843,5,8,3:2:0:0:
328,167,67993,1,0,3:0:0:0:
334,22,68143,1,0,3:0:0:0:
321,310,68293,1,8,3:2:0:0:
215,96,68443,5,0,3:0:0:0:
444,242,68593,2,0,B|499:278|499:278|467:127,1,194.999991073609,0|0,3:0|0:0,0:0:0:0:
479,144,68893,2,0,L|490:183,1,40,8|0,0:0|0:0,0:0:0:0:
436,237,69043,2,0,L|426:276,1,40,8|0,0:0|0:0,0:0:0:0:
485,137,69193,6,0,L|446:7,1,129.999994049073,0|0,3:0|0:0,0:0:0:0:
444,0,69493,1,0,3:0:0:0:
253,74,69643,1,0,3:0:0:0:
81,146,69793,6,0,L|233:160,1,129.999994049073,0|0,3:0|3:0,0:0:0:0:
227,160,70018,1,0,3:0:0:0:
239,161,70093,2,0,L|321:168,1,64.9999970245363,0|0,3:0|3:0,3:0:0:0:
5,137,70243,1,8,3:2:0:0:
1,124,70318,1,0,3:0:0:0:
4,110,70393,2,0,B|58:166|27:240|1:221|-37:280|23:366,1,259.999988098145,0|0,3:0|0:0,0:0:0:0:
348,334,70843,5,0,3:0:0:0:
228,283,70993,2,0,L|75:286,1,129.999994049073,0|0,3:0|0:0,0:0:0:0:
98,285,71293,1,0,3:0:0:0:
98,285,71368,1,0,3:0:0:0:
137,342,71443,1,8,3:2:0:0:
342,201,71593,2,0,B|366:141|366:141|347:79,1,129.999994049073,0|0,3:0|0:0,0:0:0:0:
347,78,71893,1,0,3:0:0:0:
479,263,72043,5,0,3:0:0:0:
348,334,72193,2,0,L|210:275,1,129.999994049073,0|0,3:0|0:0,0:0:0:0:
228,282,72493,1,0,3:0:0:0:
228,282,72568,1,0,3:0:0:0:
245,342,72643,5,8,3:2:0:0:
342,201,72793,1,0,3:0:0:0:
237,355,72943,5,0,3:0:0:0:
439,60,73093,1,8,3:2:0:0:
443,352,73243,5,0,3:0:0:0:
222,53,73393,2,0,B|191:9|191:9|369:43,1,194.999991073609,0|0,3:0|0:0,0:0:0:0:
336,29,73693,6,0,L|264:16,1,40,8|0,0:0|0:0,0:0:0:0:
218,62,73843,2,0,L|173:72,1,40,8|0,0:0|0:0,0:0:0:0:
342,24,73993,6,0,L|485:47,1,129.999994049073,0|0,3:0|0:0,0:0:0:0:
492,47,74293,1,0,3:0:0:0:
408,206,74443,5,0,3:0:0:0:
492,365,74593,2,0,B|501:322|501:322|396:350|396:350|376:318|376:318|295:291,1,259.999988098145,0|0,3:0|3:0,0:0:0:0:
296,291,74968,1,0,3:0:0:0:
283,287,75043,6,0,L|269:194,1,64.9999970245363,8|0,3:2|3:2,3:2:0:0:
198,16,75193,2,0,L|186:111,1,64.9999970245363,8|0,3:2|3:2,3:2:0:0:
208,332,75343,6,0,L|196:237,1,64.9999970245363,8|0,3:2|3:2,3:2:0:0:
114,0,75493,2,0,L|102:95,1,64.9999970245363,8|0,3:2|3:2,3:2:0:0:
135,384,75643,5,0,3:0:0:0:
199,267,75793,2,0,P|113:252|52:282,1,129.999994049073,0|0,3:0|0:0,0:0:0:0:
74,265,76093,1,0,3:0:0:0:
83,275,76168,1,0,3:0:0:0:
103,214,76243,1,8,3:2:0:0:
322,351,76393,2,0,P|306:270|326:205,1,129.999994049073,0|0,3:0|0:0,0:0:0:0:
423,150,76693,1,0,3:0:0:0:
235,137,76843,5,0,3:0:0:0:
47,124,76993,2,0,L|197:73,1,129.999994049073,0|0,3:0|0:0,0:0:0:0:
170,82,77293,1,0,3:0:0:0:
170,82,77368,1,0,3:0:0:0:
139,49,77443,6,0,P|157:14|200:-7,1,64.9999970245363,8|0,3:2|0:0,0:0:0:0:
33,127,77593,2,0,P|61:142|79:168,1,64.9999970245363,0|0,3:0|0:0,0:0:0:0:
194,2,77743,5,0,3:0:0:0:
80,252,77893,1,8,3:2:0:0:
339,161,78043,5,0,3:0:0:0:
204,142,78193,2,0,P|90:163|51:186,1,129.999994049073,0|0,3:0|0:0,0:0:0:0:
78,168,78493,1,8,0:0:0:0:
253,374,78643,2,0,B|254:311|254:311|261:299|261:299|262:236,2,129.999994049073,8|0|0,0:0|3:0|3:0,0:0:0:0:
181,281,79093,1,0,3:0:0:0:
359,341,79243,5,0,3:0:0:0:
512,246,79393,1,0,3:0:0:0:
512,246,79468,1,0,3:0:0:0:
512,246,79543,5,0,3:0:0:0:
485,208,79618,1,0,3:0:0:0:
433,201,79693,1,0,3:0:0:0:
392,243,79768,1,0,3:0:0:0:
397,270,79843,6,0,P|390:215|376:195,1,64.9999970245363,4|0,3:0|0:0,0:0:0:0:
210,106,79993,2,0,B|280:168|337:125|324:111|406:67|484:157,1,259.999988098145,0|0,3:0|0:0,0:0:0:0:
452,128,80443,5,0,3:0:0:0:
122,124,80593,2,0,P|123:59|147:0,1,129.999994049073,0|0,3:0|3:0,0:0:0:0:
147,0,80893,1,0,3:0:0:0:
147,0,80968,1,0,3:0:0:0:
96,30,81043,1,8,3:2:0:0:
142,248,81193,2,0,P|86:214|46:163,1,129.999994049073,0|0,3:0|0:0,0:0:0:0:
46,163,81493,1,0,3:0:0:0:
253,135,81643,5,0,3:0:0:0:
459,107,81793,2,0,P|372:153|341:187,1,129.999994049073,0|0,3:0|0:0,0:0:0:0:
350,174,82093,1,0,3:0:0:0:
350,174,82168,1,0,3:0:0:0:
361,110,82243,1,8,3:2:0:0:
185,80,82393,1,0,3:0:0:0:
382,113,82543,5,0,3:0:0:0:
9,50,82693,1,8,3:2:0:0:
427,220,82843,5,0,3:0:0:0:
38,286,82993,2,0,B|-12:247|-12:247|146:200,1,194.999991073609,0|0,3:0|0:0,0:0:0:0:
117,203,83293,6,0,L|70:217,1,40,8|0,0:0|0:0,0:0:0:0:
49,292,83443,2,0,L|15:327,1,40,8|0,0:0|0:0,0:0:0:0:
120,197,83593,2,0,L|265:158,1,129.999994049073,0|0,3:0|0:0,0:0:0:0:
245,163,83893,1,0,3:0:0:0:
415,223,84043,5,0,3:0:0:0:
501,378,84193,2,0,P|497:296|511:244,1,129.999994049073,0|0,3:0|0:0,0:0:0:0:
508,250,84493,1,0,3:0:0:0:
508,250,84568,1,0,3:0:0:0:
465,298,84643,6,0,P|429:308|391:295,1,64.9999970245363,8|0,3:2|0:0,0:0:0:0:
512,128,84793,2,0,P|502:164|472:190,1,64.9999970245363,0|0,3:0|0:0,0:0:0:0:
467,306,84943,6,0,P|431:316|393:303,1,64.9999970245363,0|0,3:0|0:0,0:0:0:0:
388,3,85093,2,0,P|414:29|422:68,1,64.9999970245363,8|0,3:2|0:0,0:0:0:0:
266,144,85243,5,0,3:0:0:0:
266,144,85318,1,0,3:0:0:0:
266,144,85393,1,8,3:2:0:0:
300,182,85468,1,8,3:2:0:0:
350,192,85543,2,8,P|385:188|417:165,1,64.9999970245363,8|8,3:2|3:2,3:2:0:0:
106,84,85693,5,0,3:0:0:0:
106,84,85768,1,8,3:2:0:0:
73,124,85843,1,8,3:2:0:0:
93,171,85918,1,8,3:2:0:0:
139,193,85993,2,8,P|147:249|121:296,1,64.9999970245363,8|8,3:2|3:2,3:2:0:0:
12,332,86143,5,0,3:0:0:0:
4,326,86218,1,0,3:0:0:0:
0,318,86293,1,8,3:2:0:0:
57,287,86368,1,8,3:2:0:0:
120,301,86443,2,8,L|125:369,1,64.9999970245363,8|8,3:2|3:2,3:2:0:0:
318,367,86593,5,0,3:0:0:0:
299,380,86668,1,8,3:2:0:0:
274,326,86743,1,8,3:2:0:0:
301,274,86818,1,8,3:2:0:0:
288,216,86893,1,8,3:2:0:0:
239,183,86968,1,8,3:2:0:0:
181,193,87043,5,12,3:2:0:0:
496,269,87193,1,4,3:2:0:0:
100,113,87343,5,4,3:2:0:0:
499,62,87493,1,4,3:2:0:0:
