osu file format v14

[General]
AudioFilename: audio.mp3
AudioLeadIn: 0
PreviewTime: 27643
Countdown: 0
SampleSet: Soft
StackLeniency: 0.7
Mode: 0
LetterboxInBreaks: 0
WidescreenStoryboard: 1

[Editor]
Bookmarks: 8443,18043,27643,37243,46843,56443,66043,75643,85243,87643
DistanceSpacing: 1
BeatDivisor: 4
GridSize: 32
TimelineZoom: 1.5

[Metadata]
Title:Dystopia
TitleUnicode:Dystopia
Artist:Napoleon
ArtistUnicode:Napoleon
Creator:Mun
Version:Expert
Source:
Tags:progressive metalcore hardcore english rock utopia
BeatmapID:2067980
BeatmapSetID:988626

[Difficulty]
HPDrainRate:6
CircleSize:3.8
OverallDifficulty:8.6
ApproachRate:9.4
SliderMultiplier:1.7
SliderTickRate:1

[Events]
//Background and Video events
0,0,"cropped-1920-1080-665742.jpg",0,0
//Break Periods
//Storyboard Layer 0 (Background)
//Storyboard Layer 1 (Fail)
//Storyboard Layer 2 (Pass)
//Storyboard Layer 3 (Foreground)
//Storyboard Sound Samples

[TimingPoints]
8443,300,4,2,1,100,1,0
8443,-166.666666666667,4,2,1,100,0,0
18043,-125,4,2,1,100,0,0
27643,-100,4,2,1,100,0,0
56443,-100,4,2,1,100,0,0
66043,-83.3333333333333,4,2,1,100,0,0
80143,-142.857142857143,4,2,1,100,0,0
80443,-83.3333333333333,4,2,1,100,0,0

[Colours]
Combo1 : 89,89,89
Combo2 : 207,111,52
Combo3 : 82,92,103
Combo4 : 121,142,159

[HitObjects]
94,100,8443,5,0,3:0:0:0:
94,100,8593,2,0,L|89:154,7,50.9999984436036,0|2|0|2|0|2|0|2,0:0|0:0|0:0|0:0|0:0|0:0|0:0|0:0,0:0:0:0:
180,257,9793,5,0,3:0:0:0:
180,257,9943,2,0,L|175:203,2,50.9999984436036,2|0|2,0:0|0:0|0:0,0:0:0:0:
91,338,10393,5,0,3:0:0:0:
188,378,10543,1,2,3:2:0:0:
294,281,10693,1,0,3:0:0:0:
396,370,10843,5,2,0:0:0:0:
396,370,10993,2,0,P|396:319|402:300,7,50.9999984436036,0|2|0|2|0|2|0|2,0:0|0:0|0:0|0:0|0:0|0:0|0:0|0:0,0:0:0:0:
512,249,12193,5,0,3:0:0:0:
512,249,12343,2,0,P|469:250|453:242,1,50.9999984436036,0|0,3:0|3:0,0:0:0:0:
337,130,12643,2,0,P|344:147|346:169,1,25.4999992218018,2|0,0:0|0:0,0:0:0:0:
424,151,12793,2,0,P|421:169|412:189,1,25.4999992218018,0|0,0:0|0:0,0:0:0:0:
368,234,12943,1,2,0:0:0:0:
202,220,13093,1,0,0:0:0:0:
190,197,13168,1,0,0:0:0:0:
235,207,13243,5,0,3:0:0:0:
235,207,13393,2,0,P|278:216|298:214,11,50.9999984436036,0|2|0|2|0|2|0|2|0|2|0|2,0:0|0:0|0:0|0:0|0:0|0:0|0:0|0:0|0:0|0:0|0:0|0:0,0:0:0:0:
352,138,15193,1,0,3:0:0:0:
352,138,15268,1,0,3:0:0:0:
352,138,15343,1,0,3:0:0:0:
380,232,15493,1,0,3:0:0:0:
201,68,15643,6,0,L|191:130,2,50.9999984436036,2|0|2,3:2|0:0|0:0,0:0:0:0:
103,173,16093,1,0,0:0:0:0:
103,173,16243,2,0,L|93:111,3,50.9999984436036,2|0|2|0,0:0|0:0|0:0|0:0,0:0:0:0:
36,24,16843,5,2,0:0:0:0:
5,110,16993,1,0,0:0:0:0:
36,24,17143,2,0,P|77:16|96:18,1,50.9999984436036,2|0,0:0|0:0,0:0:0:0:
111,185,17443,2,0,P|152:193|171:191,1,50.9999984436036,2|0,0:0|0:0,0:0:0:0:
254,61,17743,2,0,P|228:61|204:68,1,50.9999984436036,2|0,0:0|0:0,0:0:0:0:
329,196,18043,5,0,3:0:0:0:
382,143,18193,2,0,L|371:70,7,68,0|2|0|2|0|2|0|2,0:0|0:0|0:0|0:0|0:0|0:0|0:0|0:0,0:0:0:0:
260,157,19393,5,0,3:0:0:0:
332,207,19543,2,0,P|337:253|328:286,2,68,2|0|2,0:0|0:0|0:0,0:0:0:0:
259,308,19993,1,0,3:0:0:0:
183,245,20143,1,0,3:0:0:0:
124,384,20293,1,0,3:0:0:0:
6,279,20443,5,2,3:2:0:0:
248,306,20593,1,0,3:0:0:0:
173,239,20743,2,0,P|173:187|186:156,6,68,2|0|2|0|2|0|2,0:0|0:0|0:0|0:0|0:0|0:0|0:0,0:0:0:0:
238,304,21793,5,0,3:0:0:0:
297,249,21943,1,2,3:2:0:0:
278,170,22093,1,0,3:0:0:0:
336,112,22243,2,0,P|356:135|364:157,1,34,2|0,0:0|0:0,0:0:0:0:
256,91,22393,2,0,P|265:62|280:44,1,34,0|0,0:0|0:0,0:0:0:0:
275,176,22543,1,2,0:0:0:0:
286,42,22693,1,0,3:0:0:0:
309,13,22768,1,0,3:0:0:0:
320,18,22843,5,0,3:0:0:0:
196,48,22993,2,0,P|152:52|125:44,11,68,0|2|0|2|0|2|0|2|0|2|0|2,0:0|0:0|0:0|0:0|0:0|0:0|0:0|0:0|0:0|0:0|0:0|0:0,0:0:0:0:
7,18,24793,1,0,3:0:0:0:
6,25,24868,1,0,3:0:0:0:
2,35,24943,2,0,P|18:86|20:127,1,68,0|0,3:0|3:0,0:0:0:0:
15,309,25243,6,0,P|25:265|102:198,1,136,2|2,3:2|3:2,0:0:0:0:
88,202,25693,1,0,3:0:0:0:
127,377,25843,2,0,P|102:337|97:313,1,68,2|0,3:2|0:0,0:0:0:0:
272,345,26143,2,0,P|224:346|201:338,1,68,2|0,3:2|0:0,0:0:0:0:
303,271,26443,5,2,3:2:0:0:
378,315,26593,1,0,0:0:0:0:
293,264,26743,2,0,L|299:187,1,68,2|0,3:2|0:0,0:0:0:0:
283,79,27043,2,0,L|346:122,1,68,2|0,3:2|0:0,0:0:0:0:
448,162,27343,2,0,L|378:195,1,68,2|0,3:2|0:0,0:0:0:0:
123,290,27643,5,0,3:0:0:0:
179,226,27793,1,0,0:0:0:0:
127,158,27943,2,0,L|34:169,1,85,4|0,3:0|0:0,0:0:0:0:
208,311,28243,6,0,B|248:327|248:327|291:326,1,85,8|0,0:0|0:0,0:0:0:0:
408,195,28543,2,0,B|373:221|373:221|352:259,1,85,0|0,3:0|0:0,0:0:0:0:
384,348,28843,5,0,3:0:0:0:
420,194,28993,2,0,P|359:195|313:177,1,85,0|0,0:0|3:0,0:0:0:0:
275,127,29293,1,0,0:0:0:0:
481,254,29443,1,8,0:0:0:0:
282,19,29593,5,4,3:2:0:0:
343,77,29743,1,0,3:2:0:0:
221,251,29893,1,4,3:2:0:0:
285,320,30043,5,0,3:0:0:0:
415,341,30193,2,0,L|504:353,1,85,0|0,3:0|0:0,0:0:0:0:
499,352,30493,1,0,3:0:0:0:
271,319,30643,2,0,P|235:278|217:241,1,85,8|0,0:0|0:0,0:0:0:0:
194,116,30943,6,0,P|173:152|143:183,2,85,0|0|0,3:0|0:0|3:0,0:0:0:0:
148,44,31393,5,0,3:0:0:0:
303,98,31543,1,0,3:0:0:0:
458,44,31693,1,0,3:0:0:0:
373,36,31843,6,0,P|379:75|389:92,1,42.5,10|0,0:0|0:0,0:0:0:0:
433,147,31993,2,0,P|427:186|417:203,1,42.5,0|0,3:0|0:0,0:0:0:0:
379,253,32143,1,8,0:0:0:0:
379,253,32218,1,8,0:0:0:0:
379,253,32293,1,8,0:0:0:0:
313,198,32443,5,0,3:0:0:0:
256,262,32593,1,0,3:0:0:0:
193,204,32744,2,0,P|151:197|110:206,1,85,4|0,3:0|0:0,0:0:0:0:
54,341,33043,5,8,0:0:0:0:
0,117,33193,1,0,0:0:0:0:
65,63,33343,2,0,P|106:70|141:94,1,85,0|0,3:0|0:0,0:0:0:0:
315,83,33643,6,0,P|256:83|218:68,2,85,0|0|0,3:0|0:0|3:0,0:0:0:0:
374,21,34093,1,0,0:0:0:0:
354,211,34243,1,8,0:0:0:0:
454,253,34393,1,0,3:0:0:0:
464,245,34468,1,0,3:0:0:0:
472,235,34543,2,0,P|448:184|404:165,1,85,0|0,3:0|0:0,0:0:0:0:
320,288,34843,5,4,3:2:0:0:
364,360,34993,2,0,L|474:342,1,85,0|0,3:0|0:0,0:0:0:0:
447,346,35293,1,0,0:0:0:0:
240,272,35443,2,0,L|130:254,1,85,8|0,0:0|0:0,0:0:0:0:
94,316,35743,2,0,L|-16:334,1,85,0|0,3:0|0:0,0:0:0:0:
148,383,36043,5,0,3:0:0:0:
148,383,36193,1,0,0:0:0:0:
101,192,36343,2,0,P|105:139|128:98,1,85,8|0,0:0|0:0,0:0:0:0:
356,234,36643,1,0,3:0:0:0:
338,245,36718,1,0,3:0:0:0:
312,248,36793,1,0,3:0:0:0:
285,234,36868,1,0,3:0:0:0:
251,231,36943,2,0,P|239:267|245:298,1,42.5,8|0,0:0|0:0,0:0:0:0:
338,349,37093,2,0,P|312:320|282:310,1,42.5,0|0,3:0|0:0,0:0:0:0:
234,357,37243,5,0,3:0:0:0:
234,357,37393,1,0,3:0:0:0:
341,367,37543,2,0,P|395:348|436:353,1,85,0|0,3:0|0:0,0:0:0:0:
512,218,37843,2,0,P|511:275|492:312,1,85,8|0,0:0|0:0,0:0:0:0:
440,156,38143,2,0,P|437:113|451:73,1,85,0|0,3:0|0:0,0:0:0:0:
510,12,38443,5,0,3:0:0:0:
344,149,38593,2,0,L|233:129,2,85,0|0|0,3:0|0:0|0:0,0:0:0:0:
427,353,39043,2,0,P|445:319|435:295,1,42.5,8|0,0:0|0:0,0:0:0:0:
365,234,39193,2,0,P|385:266|411:269,1,42.5,4|0,3:2|0:0,0:0:0:0:
459,240,39343,5,0,3:2:0:0:
357,237,39493,2,0,P|377:269|403:272,1,42.5,4|0,3:2|0:0,0:0:0:0:
467,230,39643,5,0,3:0:0:0:
344,149,39793,1,0,3:0:0:0:
388,69,39943,2,0,P|347:58|306:64,1,85,0|0,0:0|3:0,0:0:0:0:
357,237,40243,2,0,P|362:195|351:154,1,85,8|0,0:0|0:0,0:0:0:0:
202,352,40543,5,0,3:0:0:0:
250,281,40693,1,0,0:0:0:0:
331,304,40843,1,0,3:0:0:0:
464,249,40993,6,0,P|401:254|359:232,1,85,0|0,3:0|3:0,0:0:0:0:
321,186,41293,1,0,3:0:0:0:
497,88,41443,6,0,P|506:110|500:136,1,42.5,0|0,3:0|0:0,0:0:0:0:
408,37,41593,2,0,P|422:18|448:10,1,42.5,0|0,3:0|0:0,3:0:0:0:
409,140,41743,1,8,3:2:0:0:
388,137,41818,1,8,3:2:0:0:
370,125,41893,2,0,P|338:111|306:110,1,42.5,8|0,3:2|0:0,0:0:0:0:
252,136,42043,5,0,3:0:0:0:
222,56,42193,1,0,3:0:0:0:
185,187,42343,2,0,P|187:225|206:280,1,85,4|0,3:0|0:0,0:0:0:0:
153,109,42643,2,0,P|119:91|61:80,1,85,8|0,0:0|0:0,0:0:0:0:
14,142,42943,1,0,3:0:0:0:
14,142,43093,1,0,0:0:0:0:
65,296,43243,6,0,L|79:202,1,85,0|0,3:0|0:0,0:0:0:0:
153,109,43543,2,0,L|167:203,1,85,0|0,3:0|0:0,0:0:0:0:
87,51,43843,1,8,0:0:0:0:
240,93,43993,1,0,3:0:0:0:
257,87,44068,1,0,3:0:0:0:
271,76,44143,2,0,P|289:31|286:-6,1,85,0|0,3:0|3:0,0:0:0:0:
153,109,44443,5,4,3:2:0:0:
270,174,44593,1,0,0:0:0:0:
340,127,44743,2,0,P|410:128|439:149,1,85,0|0,3:0|0:0,0:0:0:0:
306,247,45043,5,8,0:0:0:0:
306,247,45193,1,0,0:0:0:0:
234,292,45343,2,0,P|194:276|167:245,1,85,0|0,3:0|0:0,0:0:0:0:
76,207,45643,5,0,3:0:0:0:
29,279,45793,1,0,0:0:0:0:
0,128,45943,2,0,P|41:133|81:119,1,85,8|0,0:0|0:0,0:0:0:0:
215,55,46243,1,0,3:0:0:0:
221,80,46318,1,0,3:0:0:0:
201,103,46393,1,0,3:0:0:0:
203,137,46468,1,0,3:0:0:0:
235,158,46543,1,8,0:0:0:0:
166,244,46693,1,0,3:0:0:0:
207,27,46843,5,0,3:0:0:0:
398,98,46993,1,0,3:0:0:0:
207,27,47293,5,0,3:2:0:0:
226,35,47368,1,0,3:2:0:0:
245,43,47443,1,8,3:2:0:0:
409,104,47593,1,0,3:0:0:0:
409,104,47893,1,0,3:0:0:0:
169,362,48643,5,8,0:0:0:0:
169,362,48943,1,0,3:0:0:0:
137,167,49093,1,0,3:0:0:0:
169,362,49243,1,0,3:0:0:0:
137,167,49393,1,0,3:0:0:0:
169,362,49693,5,0,3:0:0:0:
165,341,49768,1,0,3:0:0:0:
162,319,49843,1,8,3:2:0:0:
133,149,49993,1,0,3:0:0:0:
133,149,50293,5,0,3:0:0:0:
245,119,50443,2,0,B|287:124|287:124|342:156,1,85,0|0,3:0|0:0,0:0:0:0:
165,37,50743,2,0,B|201:15|201:15|243:10,1,85,0|0,3:0|3:0,0:0:0:0:
264,14,50968,1,0,3:0:0:0:
284,18,51043,5,8,0:0:0:0:
380,44,51193,1,0,3:0:0:0:
354,140,51343,1,0,3:0:0:0:
258,114,51493,1,0,3:0:0:0:
117,255,51643,5,0,3:0:0:0:
404,228,51793,1,0,3:0:0:0:
117,255,52093,5,0,3:0:0:0:
138,252,52168,1,0,3:0:0:0:
159,250,52243,1,8,3:2:0:0:
409,232,52393,1,0,3:0:0:0:
409,232,52693,5,0,3:0:0:0:
23,303,53443,6,0,B|60:281|60:281|105:282,1,85,8|0,0:0|0:0,0:0:0:0:
205,293,53743,1,0,3:0:0:0:
289,305,53893,1,0,3:0:0:0:
301,220,54043,1,0,3:0:0:0:
217,208,54193,1,0,3:0:0:0:
217,208,54493,5,0,3:0:0:0:
228,190,54568,1,0,3:0:0:0:
229,168,54643,1,8,3:2:0:0:
188,68,54793,2,0,P|231:94|273:97,1,85,0|0,3:0|0:0,0:0:0:0:
351,58,55093,1,0,3:0:0:0:
301,220,55243,5,0,3:0:0:0:
301,220,55543,1,0,3:0:0:0:
407,191,55768,1,0,3:0:0:0:
388,180,55843,1,8,0:0:0:0:
373,313,55993,1,0,3:0:0:0:
499,181,56143,5,4,3:0:0:0:
383,306,56293,1,0,3:0:0:0:
447,83,56443,5,4,3:2:0:0:
256,154,56593,1,0,3:0:0:0:
447,83,56893,5,0,3:0:0:0:
428,91,56968,1,0,3:0:0:0:
409,99,57043,1,8,3:2:0:0:
246,162,57193,1,0,3:0:0:0:
246,162,57493,1,0,3:0:0:0:
319,361,58243,5,8,0:0:0:0:
319,361,58543,1,0,3:0:0:0:
351,166,58693,1,0,3:0:0:0:
319,361,58843,1,0,3:0:0:0:
351,166,58993,1,0,3:0:0:0:
319,361,59293,5,0,3:0:0:0:
323,340,59368,1,0,3:0:0:0:
326,318,59443,1,8,3:2:0:0:
355,148,59593,1,0,3:0:0:0:
355,148,59893,5,0,3:0:0:0:
272,167,60043,2,0,B|250:203|250:203|245:245,1,85,0|0,3:0|0:0,0:0:0:0:
130,118,60343,2,0,B|151:154|151:154|156:196,1,85,0|0,3:0|0:0,0:0:0:0:
157,218,60568,1,0,3:0:0:0:
124,244,60643,5,8,0:0:0:0:
26,273,60793,1,0,3:0:0:0:
52,369,60943,1,0,3:0:0:0:
148,343,61093,1,0,3:0:0:0:
286,384,61243,5,0,3:0:0:0:
334,198,61393,1,0,3:0:0:0:
286,384,61693,5,0,3:0:0:0:
293,355,61768,1,0,3:0:0:0:
300,326,61843,1,8,3:2:0:0:
342,189,61993,1,0,3:0:0:0:
342,189,62293,5,0,3:0:0:0:
118,61,62593,1,0,3:0:0:0:
118,61,62668,1,0,3:0:0:0:
118,61,62743,1,8,3:2:0:0:
145,98,62818,1,0,3:0:0:0:
135,139,62893,1,0,3:0:0:0:
103,161,62968,1,0,3:0:0:0:
73,165,63043,6,0,P|91:224|83:283,1,85,8|0,3:2|0:0,0:0:0:0:
144,372,63343,1,0,3:0:0:0:
156,288,63493,1,0,3:0:0:0:
241,300,63643,1,0,3:0:0:0:
229,384,63793,1,0,3:0:0:0:
235,384,64093,5,0,3:0:0:0:
257,383,64168,1,0,3:0:0:0:
275,372,64243,1,8,3:2:0:0:
377,252,64393,2,0,P|351:295|348:337,1,85,0|0,3:0|0:0,0:0:0:0:
414,384,64693,1,0,3:0:0:0:
271,236,64843,5,0,3:0:0:0:
271,236,65143,1,0,3:0:0:0:
393,211,65368,5,0,3:0:0:0:
402,230,65443,1,8,0:0:0:0:
331,138,65593,1,0,3:0:0:0:
480,203,65743,1,0,3:0:0:0:
347,328,65893,1,0,3:0:0:0:
271,236,66043,5,4,3:2:0:0:
512,284,66193,1,0,3:0:0:0:
166,347,66493,5,0,3:0:0:0:
165,334,66568,1,0,3:0:0:0:
139,299,66643,1,8,3:2:0:0:
262,224,66793,2,0,L|236:329,1,101.999996887207,0|0,3:0|0:0,0:0:0:0:
237,323,67093,1,0,3:0:0:0:
195,143,67243,5,0,3:0:0:0:
406,240,67393,1,0,3:0:0:0:
406,240,67693,2,0,P|412:206|404:171,1,50.9999984436036,0|0,3:0|3:0,0:0:0:0:
356,91,67843,1,8,3:2:0:0:
455,111,67993,1,0,3:0:0:0:
337,85,68143,1,0,3:0:0:0:
509,39,68293,1,8,3:2:0:0:
274,146,68443,5,0,3:0:0:0:
213,1,68593,1,0,3:0:0:0:
213,1,68893,5,8,0:0:0:0:
172,94,69043,1,8,0:0:0:0:
60,66,69193,2,0,P|138:91|170:113,1,101.999996887207,0|0,3:0|0:0,0:0:0:0:
211,324,69493,5,0,3:0:0:0:
180,226,69643,1,0,3:0:0:0:
216,342,69793,2,0,P|288:355|324:345,1,101.999996887207,0|0,3:0|3:0,0:0:0:0:
334,330,70018,1,0,3:0:0:0:
372,363,70093,1,0,3:0:0:0:
414,334,70168,1,0,3:0:0:0:
414,334,70243,6,0,P|421:303|402:264,1,50.9999984436036,8|0,3:2|3:0,0:0:0:0:
310,205,70393,2,0,P|333:226|376:229,1,50.9999984436036,0|0,3:0|3:0,0:0:0:0:
431,205,70543,1,0,3:0:0:0:
431,205,70843,5,0,3:0:0:0:
180,226,70993,1,0,3:0:0:0:
491,133,71293,5,0,3:0:0:0:
500,120,71368,1,0,3:0:0:0:
502,104,71443,1,8,3:2:0:0:
339,178,71593,2,0,P|325:129|326:78,1,101.999996887207,0|0,3:0|0:0,0:0:0:0:
326,78,71893,1,0,3:0:0:0:
405,245,72043,5,0,3:0:0:0:
163,131,72193,1,0,3:0:0:0:
472,356,72493,5,0,3:0:0:0:
481,344,72568,1,0,3:0:0:0:
431,358,72643,1,8,3:2:0:0:
352,292,72793,1,0,3:0:0:0:
276,384,72943,1,0,3:0:0:0:
191,256,73093,1,8,3:2:0:0:
0,352,73243,5,0,3:0:0:0:
96,384,73393,2,0,P|113:321|97:276,1,101.999996887207,0|0,3:0|0:0,0:0:0:0:
9,172,73693,1,8,0:0:0:0:
181,99,73843,1,8,0:0:0:0:
181,99,73993,2,0,P|115:86|70:96,1,101.999996887207,0|0,3:0|0:0,0:0:0:0:
237,170,74293,5,0,3:0:0:0:
370,87,74443,1,0,3:0:0:0:
508,175,74593,1,0,3:0:0:0:
508,175,74893,5,0,3:0:0:0:
508,175,74968,1,0,3:0:0:0:
486,221,75043,1,8,3:2:0:0:
438,238,75118,1,0,3:2:0:0:
394,212,75193,1,8,3:2:0:0:
364,202,75268,1,0,3:2:0:0:
335,213,75343,2,0,P|331:254|342:297,1,50.9999984436036,8|0,3:2|3:2,0:0:0:0:
271,155,75493,2,0,P|272:129|268:104,1,50.9999984436036,8|0,3:2|3:2,0:0:0:0:
390,323,75643,5,0,3:0:0:0:
172,381,75793,1,0,3:0:0:0:
476,368,76093,5,0,3:0:0:0:
496,370,76168,1,0,3:0:0:0:
512,324,76243,1,8,3:2:0:0:
280,306,76393,2,0,P|347:333|406:326,1,101.999996887207,0|0,3:0|0:0,0:0:0:0:
375,332,76693,1,0,3:0:0:0:
172,381,76843,5,0,3:0:0:0:
31,221,76993,1,0,3:0:0:0:
126,6,77293,5,0,3:0:0:0:
118,12,77368,1,0,3:0:0:0:
139,41,77443,2,0,P|182:53|206:36,1,50.9999984436036,8|0,3:2|0:0,0:0:0:0:
293,0,77593,2,0,P|261:31|263:60,1,50.9999984436036,0|0,3:0|0:0,0:0:0:0:
241,113,77743,1,0,3:0:0:0:
137,51,77893,6,0,P|180:63|204:46,1,50.9999984436036,8|0,3:2|0:0,0:0:0:0:
369,21,78043,1,0,3:0:0:0:
507,144,78193,1,0,3:0:0:0:
507,144,78493,5,8,0:0:0:0:
410,112,78643,1,8,0:0:0:0:
457,328,78793,2,0,L|469:223,1,101.999996887207,0|0,3:0|3:0,0:0:0:0:
468,226,79093,1,0,3:0:0:0:
377,364,79243,5,0,3:0:0:0:
217,378,79393,1,0,3:0:0:0:
167,294,79543,1,0,3:0:0:0:
185,285,79618,1,0,3:0:0:0:
215,295,79693,1,0,3:0:0:0:
250,287,79768,1,0,3:0:0:0:
261,253,79843,6,0,P|256:217|239:190,1,50.9999984436036,4|0,3:0|0:0,0:0:0:0:
285,112,79993,2,0,P|251:98|219:99,1,50.9999984436036,0|0,3:0|0:0,0:0:0:0:
267,260,80143,2,0,P|259:204|219:170,1,89.2499972763062,0|0,0:0|0:0,0:0:0:0:
215,172,80443,5,0,3:0:0:0:
409,234,80593,1,0,3:0:0:0:
116,218,80893,5,0,3:0:0:0:
109,206,80968,1,0,3:0:0:0:
111,167,81043,1,8,3:2:0:0:
127,309,81193,2,0,L|-19:272,1,101.999996887207,0|0,3:0|0:0,0:0:0:0:
28,283,81493,1,0,3:0:0:0:
232,264,81643,5,0,3:0:0:0:
436,245,81793,1,0,3:0:0:0:
90,55,82093,5,0,3:0:0:0:
87,39,82168,1,0,3:0:0:0:
133,59,82243,2,0,P|144:91|147:136,1,50.9999984436036,8|0,3:2|0:0,0:0:0:0:
233,133,82393,2,0,P|210:158|188:182,1,50.9999984436036,0|0,3:0|0:0,0:0:0:0:
71,153,82543,1,0,3:0:0:0:
143,55,82693,2,0,P|154:87|157:132,1,50.9999984436036,8|0,3:2|0:0,0:0:0:0:
120,250,82843,5,0,3:0:0:0:
367,341,82993,1,0,3:0:0:0:
367,341,83293,5,8,0:0:0:0:
297,265,83443,1,8,0:0:0:0:
512,236,83593,2,0,L|408:233,1,101.999996887207,0|0,3:0|0:0,0:0:0:0:
410,233,83893,1,0,3:0:0:0:
261,371,84043,5,0,3:0:0:0:
210,168,84193,1,0,3:0:0:0:
210,168,84493,5,0,3:0:0:0:
231,159,84568,1,0,3:0:0:0:
276,182,84643,2,0,P|281:216|283:256,1,50.9999984436036,8|0,3:2|0:0,0:0:0:0:
199,77,84793,2,0,P|201:51|205:26,1,50.9999984436036,0|0,3:0|0:0,0:0:0:0:
284,183,84943,6,0,P|289:217|291:257,1,50.9999984436036,0|0,3:0|0:0,0:0:0:0:
190,73,85093,2,0,P|192:47|196:22,1,50.9999984436036,8|0,3:2|0:0,0:0:0:0:
103,186,85243,6,0,P|60:194|29:188,1,50.9999984436036,0|0,3:0|3:0,0:0:0:0:
144,273,85393,1,8,3:2:0:0:
193,261,85468,1,8,3:2:0:0:
237,285,85543,1,8,3:2:0:0:
261,329,85618,1,8,3:2:0:0:
250,325,85693,2,0,P|262:290|280:269,1,50.9999984436036,0|8,3:0|3:2,0:0:0:0:
459,249,85843,5,8,3:2:0:0:
416,277,85918,1,8,3:2:0:0:
382,238,85993,2,0,P|340:218|298:216,1,50.9999984436036,8|8,3:2|3:2,0:0:0:0:
234,134,86143,2,0,P|258:126|280:113,1,50.9999984436036,0|0,3:0|3:0,0:0:0:0:
399,14,86293,5,8,3:2:0:0:
365,52,86368,1,8,3:2:0:0:
390,96,86443,2,0,P|418:103|466:100,1,50.9999984436036,8|8,3:2|3:2,0:0:0:0:
352,266,86593,5,0,3:0:0:0:
335,217,86668,1,8,3:2:0:0:
284,220,86743,1,8,3:2:0:0:
276,227,86818,2,0,P|321:202|328:191,1,50.9999984436036,8|8,3:2|3:2,0:0:0:0:
181,221,86968,1,8,3:2:0:0:
181,221,87043,5,12,3:2:0:0:
202,320,87193,1,4,3:2:0:0:
80,145,87343,5,4,3:2:0:0:
101,46,87493,1,4,3:2:0:0:
