osu file format v14

[General]
AudioFilename: Unlucky Morpheus.mp3
AudioLeadIn: 0
PreviewTime: -1
Countdown: 1
SampleSet: Normal
StackLeniency: 0.7
Mode: 0
LetterboxInBreaks: 0
WidescreenStoryboard: 1

[Editor]
DistanceSpacing: 1.1
BeatDivisor: 4
GridSize: 8
TimelineZoom: 1.7

[Metadata]
Title:Streams!
TitleUnicode:Streams!
Artist:Napkins Stream Compilation
ArtistUnicode:Napkins Stream Compilation
Creator:Napkins
Version:1. Unlucky Morpheus - Black Pentagram ( 186 BPM )
Source:
Tags:
BeatmapID:1211225
BeatmapSetID:479691

[Difficulty]
HPDrainRate:7
CircleSize:5
OverallDifficulty:8
ApproachRate:9.6
SliderMultiplier:1.4
SliderTickRate:1

[Events]
//Background and Video events
0,0,"55763244_p0.jpg",0,0
//Break Periods
//Storyboard Layer 0 (Background)
//Storyboard Layer 1 (Fail)
//Storyboard Layer 2 (Pass)
//Storyboard Layer 3 (Foreground)
//Storyboard Sound Samples

[TimingPoints]
186,322.58064516129,4,1,0,100,1,0
27605,-66.6666666666667,4,1,0,100,0,0
28573,-100,4,1,0,100,0,0
49218,-200,4,1,0,100,0,0
49540,-58.8235294117647,4,1,0,100,0,0
49863,-200,4,1,0,100,0,0
50185,-58.8235294117647,4,1,0,100,0,0
52444,-100,4,1,0,100,0,0
54540,-50,4,1,0,100,0,0
55669,-100,4,1,0,100,0,0

[HitObjects]
104,88,186,5,0,0:0:0:0:
104,88,266,1,0,0:0:0:0:
104,88,347,1,0,0:0:0:0:
200,168,508,1,0,0:0:0:0:
296,120,669,2,0,P|320:160|312:192,1,70
400,248,992,1,0,0:0:0:0:
312,280,1153,2,0,P|256:288|232:264,1,70
184,232,1476,6,0,L|248:176,1,70
320,160,1798,1,0,0:0:0:0:
416,144,1960,2,0,P|432:104|408:80,1,70
352,56,2282,1,0,0:0:0:0:
112,192,2444,1,0,0:0:0:0:
232,128,2605,5,0,0:0:0:0:
232,128,2686,1,0,0:0:0:0:
232,128,2766,1,0,0:0:0:0:
256,136,2847,1,0,0:0:0:0:
272,120,2927,1,0,0:0:0:0:
296,104,3008,1,0,0:0:0:0:
320,104,3089,1,0,0:0:0:0:
344,112,3169,5,0,0:0:0:0:
360,136,3250,1,0,0:0:0:0:
368,160,3331,1,0,0:0:0:0:
360,184,3411,1,0,0:0:0:0:
344,208,3492,1,0,0:0:0:0:
328,224,3573,1,0,0:0:0:0:
304,232,3653,1,0,0:0:0:0:
280,232,3734,1,0,0:0:0:0:
256,224,3815,1,0,0:0:0:0:
240,208,3895,5,0,0:0:0:0:
240,184,3976,1,0,0:0:0:0:
248,160,4056,1,0,0:0:0:0:
240,136,4137,1,0,0:0:0:0:
216,128,4218,1,0,0:0:0:0:
192,136,4298,1,0,0:0:0:0:
176,152,4379,1,0,0:0:0:0:
168,176,4460,1,0,0:0:0:0:
168,200,4540,1,0,0:0:0:0:
176,224,4621,5,0,0:0:0:0:
168,248,4702,1,0,0:0:0:0:
144,264,4782,1,0,0:0:0:0:
120,264,4863,1,0,0:0:0:0:
96,280,4944,1,0,0:0:0:0:
88,304,5024,1,0,0:0:0:0:
96,328,5105,1,0,0:0:0:0:
120,336,5185,1,0,0:0:0:0:
144,336,5266,5,0,0:0:0:0:
168,344,5347,1,0,0:0:0:0:
192,336,5427,1,0,0:0:0:0:
208,320,5508,1,0,0:0:0:0:
216,296,5589,1,0,0:0:0:0:
216,272,5669,1,0,0:0:0:0:
208,248,5750,1,0,0:0:0:0:
192,232,5831,1,0,0:0:0:0:
192,208,5911,1,0,0:0:0:0:
200,184,5992,5,0,0:0:0:0:
216,160,6073,1,0,0:0:0:0:
240,152,6153,1,0,0:0:0:0:
264,152,6234,1,0,0:0:0:0:
288,160,6315,1,0,0:0:0:0:
304,176,6395,1,0,0:0:0:0:
320,192,6476,1,0,0:0:0:0:
328,216,6556,1,0,0:0:0:0:
320,240,6637,5,0,0:0:0:0:
304,256,6718,1,0,0:0:0:0:
296,280,6798,1,0,0:0:0:0:
312,304,6879,1,0,0:0:0:0:
336,320,6960,1,0,0:0:0:0:
360,320,7040,1,0,0:0:0:0:
384,312,7121,1,0,0:0:0:0:
408,304,7202,1,0,0:0:0:0:
416,280,7282,5,0,0:0:0:0:
424,256,7363,1,0,0:0:0:0:
424,232,7444,1,0,0:0:0:0:
416,208,7524,1,0,0:0:0:0:
400,192,7605,1,0,0:0:0:0:
376,184,7685,1,0,0:0:0:0:
352,192,7766,1,0,0:0:0:0:
336,208,7847,5,0,0:0:0:0:
312,224,7927,1,0,0:0:0:0:
288,224,8008,1,0,0:0:0:0:
264,216,8089,1,0,0:0:0:0:
248,192,8169,1,0,0:0:0:0:
240,168,8250,1,0,0:0:0:0:
248,144,8331,1,0,0:0:0:0:
264,120,8411,1,0,0:0:0:0:
280,96,8492,5,0,0:0:0:0:
264,80,8573,1,0,0:0:0:0:
240,72,8653,1,0,0:0:0:0:
216,72,8734,1,0,0:0:0:0:
192,80,8815,1,0,0:0:0:0:
176,96,8895,1,0,0:0:0:0:
176,120,8976,1,0,0:0:0:0:
176,144,9056,1,0,0:0:0:0:
200,152,9137,5,0,0:0:0:0:
224,160,9218,1,0,0:0:0:0:
248,160,9298,1,0,0:0:0:0:
272,152,9379,1,0,0:0:0:0:
288,136,9460,1,0,0:0:0:0:
304,120,9540,1,0,0:0:0:0:
320,104,9621,1,0,0:0:0:0:
344,104,9702,1,0,0:0:0:0:
368,120,9782,5,0,0:0:0:0:
384,144,9863,1,0,0:0:0:0:
392,168,9944,1,0,0:0:0:0:
392,192,10024,1,0,0:0:0:0:
376,216,10105,1,0,0:0:0:0:
360,232,10185,1,0,0:0:0:0:
336,240,10266,1,0,0:0:0:0:
312,232,10347,5,0,0:0:0:0:
288,224,10427,1,0,0:0:0:0:
272,208,10508,1,0,0:0:0:0:
248,200,10589,1,0,0:0:0:0:
224,208,10669,1,0,0:0:0:0:
200,216,10750,1,0,0:0:0:0:
184,240,10831,1,0,0:0:0:0:
176,264,10911,1,0,0:0:0:0:
160,288,10992,5,0,0:0:0:0:
136,288,11073,1,0,0:0:0:0:
112,280,11153,1,0,0:0:0:0:
96,264,11234,1,0,0:0:0:0:
80,240,11315,1,0,0:0:0:0:
80,216,11395,1,0,0:0:0:0:
80,192,11476,1,0,0:0:0:0:
96,168,11556,1,0,0:0:0:0:
120,152,11637,5,0,0:0:0:0:
128,128,11718,1,0,0:0:0:0:
136,104,11798,1,0,0:0:0:0:
152,88,11879,1,0,0:0:0:0:
176,80,11960,1,0,0:0:0:0:
200,88,12040,1,0,0:0:0:0:
224,104,12121,5,0,0:0:0:0:
248,112,12202,1,0,0:0:0:0:
272,104,12282,1,0,0:0:0:0:
288,88,12363,1,0,0:0:0:0:
304,72,12444,1,0,0:0:0:0:
328,64,12524,1,0,0:0:0:0:
352,72,12605,1,0,0:0:0:0:
376,88,12685,5,0,0:0:0:0:
384,112,12766,1,0,0:0:0:0:
384,136,12847,1,0,0:0:0:0:
376,160,12927,1,0,0:0:0:0:
360,176,13008,1,0,0:0:0:0:
360,200,13089,1,0,0:0:0:0:
368,224,13169,1,0,0:0:0:0:
384,240,13250,1,0,0:0:0:0:
400,256,13331,1,0,0:0:0:0:
408,280,13411,5,0,0:0:0:0:
400,304,13492,1,0,0:0:0:0:
384,320,13573,1,0,0:0:0:0:
360,328,13653,1,0,0:0:0:0:
336,336,13734,1,0,0:0:0:0:
312,336,13815,1,0,0:0:0:0:
288,328,13895,1,0,0:0:0:0:
272,312,13976,1,0,0:0:0:0:
264,288,14056,1,0,0:0:0:0:
264,264,14137,5,0,0:0:0:0:
272,240,14218,1,0,0:0:0:0:
272,216,14298,1,0,0:0:0:0:
256,200,14379,1,0,0:0:0:0:
248,176,14460,1,0,0:0:0:0:
256,152,14540,1,0,0:0:0:0:
272,136,14621,1,0,0:0:0:0:
288,120,14702,1,0,0:0:0:0:
304,104,14782,1,0,0:0:0:0:
304,80,14863,5,0,0:0:0:0:
288,56,14944,1,0,0:0:0:0:
264,48,15024,1,0,0:0:0:0:
240,40,15105,1,0,0:0:0:0:
216,40,15185,1,0,0:0:0:0:
192,48,15266,1,0,0:0:0:0:
168,64,15347,1,0,0:0:0:0:
152,80,15427,1,0,0:0:0:0:
136,96,15508,1,0,0:0:0:0:
136,120,15589,5,0,0:0:0:0:
152,144,15669,1,0,0:0:0:0:
168,160,15750,1,0,0:0:0:0:
192,168,15831,1,0,0:0:0:0:
216,176,15911,1,0,0:0:0:0:
240,176,15992,1,0,0:0:0:0:
264,168,16073,1,0,0:0:0:0:
288,160,16153,1,0,0:0:0:0:
312,160,16234,1,0,0:0:0:0:
336,160,16315,1,0,0:0:0:0:
360,168,16395,5,0,0:0:0:0:
368,192,16476,1,0,0:0:0:0:
368,216,16556,1,0,0:0:0:0:
360,240,16637,1,0,0:0:0:0:
344,256,16718,1,0,0:0:0:0:
328,272,16798,1,0,0:0:0:0:
304,272,16879,1,0,0:0:0:0:
280,264,16960,1,0,0:0:0:0:
264,248,17040,1,0,0:0:0:0:
264,224,17121,5,0,0:0:0:0:
272,200,17202,1,0,0:0:0:0:
264,176,17282,1,0,0:0:0:0:
248,160,17363,1,0,0:0:0:0:
224,152,17444,1,0,0:0:0:0:
200,152,17524,1,0,0:0:0:0:
176,160,17605,1,0,0:0:0:0:
160,176,17685,1,0,0:0:0:0:
152,200,17766,1,0,0:0:0:0:
160,224,17847,5,0,0:0:0:0:
176,248,17927,1,0,0:0:0:0:
200,256,18008,1,0,0:0:0:0:
224,256,18089,1,0,0:0:0:0:
248,248,18169,1,0,0:0:0:0:
264,232,18250,1,0,0:0:0:0:
280,216,18331,1,0,0:0:0:0:
288,192,18411,1,0,0:0:0:0:
296,168,18492,1,0,0:0:0:0:
312,152,18573,5,0,0:0:0:0:
336,144,18653,1,0,0:0:0:0:
360,144,18734,1,0,0:0:0:0:
384,160,18815,1,0,0:0:0:0:
400,176,18895,1,0,0:0:0:0:
424,168,18976,1,0,0:0:0:0:
440,184,19056,1,0,0:0:0:0:
448,208,19137,1,0,0:0:0:0:
440,232,19218,5,0,0:0:0:0:
432,256,19298,1,0,0:0:0:0:
424,280,19379,1,0,0:0:0:0:
416,304,19460,1,0,0:0:0:0:
400,320,19540,1,0,0:0:0:0:
376,328,19621,1,0,0:0:0:0:
352,328,19702,1,0,0:0:0:0:
328,320,19782,1,0,0:0:0:0:
304,304,19863,1,0,0:0:0:0:
304,280,19944,5,0,0:0:0:0:
312,256,20024,1,0,0:0:0:0:
320,232,20105,1,0,0:0:0:0:
304,208,20185,1,0,0:0:0:0:
280,192,20266,1,0,0:0:0:0:
256,192,20347,1,0,0:0:0:0:
232,208,20427,1,0,0:0:0:0:
216,224,20508,1,0,0:0:0:0:
192,216,20589,5,0,0:0:0:0:
176,200,20669,1,0,0:0:0:0:
168,176,20750,1,0,0:0:0:0:
144,176,20831,1,0,0:0:0:0:
120,184,20911,1,0,0:0:0:0:
104,200,20992,1,0,0:0:0:0:
96,224,21073,1,0,0:0:0:0:
104,248,21153,1,0,0:0:0:0:
120,264,21234,5,0,0:0:0:0:
144,272,21315,1,0,0:0:0:0:
168,272,21395,1,0,0:0:0:0:
192,280,21476,1,0,0:0:0:0:
208,296,21556,1,0,0:0:0:0:
224,312,21637,1,0,0:0:0:0:
248,328,21718,1,0,0:0:0:0:
272,336,21798,1,0,0:0:0:0:
296,328,21879,1,0,0:0:0:0:
320,312,21960,5,0,0:0:0:0:
336,296,22040,1,0,0:0:0:0:
352,272,22121,1,0,0:0:0:0:
360,248,22202,1,0,0:0:0:0:
360,224,22282,1,0,0:0:0:0:
352,200,22363,1,0,0:0:0:0:
336,176,22444,1,0,0:0:0:0:
320,160,22524,1,0,0:0:0:0:
296,144,22605,5,0,0:0:0:0:
272,136,22685,1,0,0:0:0:0:
248,136,22766,1,0,0:0:0:0:
224,128,22847,1,0,0:0:0:0:
208,112,22927,1,0,0:0:0:0:
192,96,23008,1,0,0:0:0:0:
168,80,23089,1,0,0:0:0:0:
80,88,23250,5,0,0:0:0:0:
80,296,23411,5,0,0:0:0:0:
408,64,23573,1,0,0:0:0:0:
432,128,23734,5,0,0:0:0:0:
64,232,23895,1,0,0:0:0:0:
64,160,24056,5,0,0:0:0:0:
440,192,24218,1,0,0:0:0:0:
440,256,24379,5,0,0:0:0:0:
64,96,24540,1,0,0:0:0:0:
88,32,24702,5,0,0:0:0:0:
392,304,24863,1,0,0:0:0:0:
336,344,25024,5,0,0:0:0:0:
152,32,25185,1,0,0:0:0:0:
224,32,25347,5,0,0:0:0:0:
272,344,25508,1,0,0:0:0:0:
200,344,25669,5,0,0:0:0:0:
288,32,25831,1,0,0:0:0:0:
376,104,25992,5,0,0:0:0:0:
376,104,26073,1,0,0:0:0:0:
376,104,26153,1,0,0:0:0:0:
112,288,26315,1,0,0:0:0:0:
168,320,26476,5,0,0:0:0:0:
168,320,26556,1,0,0:0:0:0:
168,320,26637,1,0,0:0:0:0:
312,80,26798,1,0,0:0:0:0:
232,64,26960,5,0,0:0:0:0:
232,64,27040,1,0,0:0:0:0:
232,64,27121,1,0,0:0:0:0:
240,320,27282,1,0,0:0:0:0:
216,168,27444,5,0,0:0:0:0:
216,168,27524,1,0,0:0:0:0:
216,168,27605,6,0,L|304:112,1,105.000004005432
248,216,27927,6,0,L|336:160,1,105.000004005432
288,264,28250,6,0,L|376:208,1,105.000004005432
216,280,28573,5,0,0:0:0:0:
184,272,28653,1,0,0:0:0:0:
160,256,28734,1,0,0:0:0:0:
144,224,28815,1,0,0:0:0:0:
144,192,28895,1,0,0:0:0:0:
152,160,28976,1,0,0:0:0:0:
168,136,29056,1,0,0:0:0:0:
192,112,29137,1,0,0:0:0:0:
224,104,29218,1,0,0:0:0:0:
256,96,29298,5,0,0:0:0:0:
288,112,29379,1,0,0:0:0:0:
312,128,29460,1,0,0:0:0:0:
344,128,29540,1,0,0:0:0:0:
376,128,29621,1,0,0:0:0:0:
408,112,29702,1,0,0:0:0:0:
440,120,29782,1,0,0:0:0:0:
456,144,29863,1,0,0:0:0:0:
456,176,29944,1,0,0:0:0:0:
440,200,30024,5,0,0:0:0:0:
408,208,30105,1,0,0:0:0:0:
376,192,30185,1,0,0:0:0:0:
360,168,30266,1,0,0:0:0:0:
352,136,30347,1,0,0:0:0:0:
352,104,30427,1,0,0:0:0:0:
336,80,30508,1,0,0:0:0:0:
304,72,30589,1,0,0:0:0:0:
272,80,30669,1,0,0:0:0:0:
248,104,30750,5,0,0:0:0:0:
240,136,30831,1,0,0:0:0:0:
248,168,30911,1,0,0:0:0:0:
272,184,30992,1,0,0:0:0:0:
296,208,31073,1,0,0:0:0:0:
280,232,31153,1,0,0:0:0:0:
256,248,31234,1,0,0:0:0:0:
224,248,31315,1,0,0:0:0:0:
192,232,31395,1,0,0:0:0:0:
176,208,31476,5,0,0:0:0:0:
176,176,31556,1,0,0:0:0:0:
184,144,31637,1,0,0:0:0:0:
168,120,31718,1,0,0:0:0:0:
144,104,31798,1,0,0:0:0:0:
112,104,31879,1,0,0:0:0:0:
88,128,31960,1,0,0:0:0:0:
80,160,32040,1,0,0:0:0:0:
88,192,32121,1,0,0:0:0:0:
112,208,32202,5,0,0:0:0:0:
144,200,32282,1,0,0:0:0:0:
176,176,32363,1,0,0:0:0:0:
208,184,32444,1,0,0:0:0:0:
232,200,32524,1,0,0:0:0:0:
240,232,32605,1,0,0:0:0:0:
232,264,32685,1,0,0:0:0:0:
200,280,32766,1,0,0:0:0:0:
184,304,32847,1,0,0:0:0:0:
200,328,32927,5,0,0:0:0:0:
232,344,33008,1,0,0:0:0:0:
264,344,33089,1,0,0:0:0:0:
288,328,33169,1,0,0:0:0:0:
304,304,33250,1,0,0:0:0:0:
312,272,33331,1,0,0:0:0:0:
312,240,33411,1,0,0:0:0:0:
296,208,33492,1,0,0:0:0:0:
280,184,33573,1,0,0:0:0:0:
256,160,33653,5,0,0:0:0:0:
256,128,33734,1,0,0:0:0:0:
256,96,33815,1,0,0:0:0:0:
240,72,33895,1,0,0:0:0:0:
208,56,33976,1,0,0:0:0:0:
176,48,34056,1,0,0:0:0:0:
144,56,34137,1,0,0:0:0:0:
120,80,34218,1,0,0:0:0:0:
112,112,34298,1,0,0:0:0:0:
128,136,34379,5,0,0:0:0:0:
160,144,34460,1,0,0:0:0:0:
192,144,34540,1,0,0:0:0:0:
224,136,34621,1,0,0:0:0:0:
256,120,34702,1,0,0:0:0:0:
272,96,34782,1,0,0:0:0:0:
296,72,34863,1,0,0:0:0:0:
328,72,34944,1,0,0:0:0:0:
352,96,35024,1,0,0:0:0:0:
368,120,35105,5,0,0:0:0:0:
368,152,35185,1,0,0:0:0:0:
352,176,35266,1,0,0:0:0:0:
320,192,35347,1,0,0:0:0:0:
288,192,35427,1,0,0:0:0:0:
256,184,35508,1,0,0:0:0:0:
232,160,35589,1,0,0:0:0:0:
216,136,35669,1,0,0:0:0:0:
184,128,35750,1,0,0:0:0:0:
152,136,35831,5,0,0:0:0:0:
128,160,35911,1,0,0:0:0:0:
128,192,35992,1,0,0:0:0:0:
136,224,36073,1,0,0:0:0:0:
160,240,36153,1,0,0:0:0:0:
192,248,36234,1,0,0:0:0:0:
224,240,36315,1,0,0:0:0:0:
256,224,36395,1,0,0:0:0:0:
280,208,36476,1,0,0:0:0:0:
296,184,36556,5,0,0:0:0:0:
312,152,36637,1,0,0:0:0:0:
320,120,36718,1,0,0:0:0:0:
344,104,36798,1,0,0:0:0:0:
376,96,36879,1,0,0:0:0:0:
408,104,36960,1,0,0:0:0:0:
432,128,37040,1,0,0:0:0:0:
440,160,37121,1,0,0:0:0:0:
432,192,37202,1,0,0:0:0:0:
408,208,37282,5,0,0:0:0:0:
376,192,37363,1,0,0:0:0:0:
352,168,37444,1,0,0:0:0:0:
320,160,37524,1,0,0:0:0:0:
288,168,37605,1,0,0:0:0:0:
264,192,37685,1,0,0:0:0:0:
256,224,37766,1,0,0:0:0:0:
264,256,37847,1,0,0:0:0:0:
280,280,37927,5,0,0:0:0:0:
280,312,38008,1,0,0:0:0:0:
256,336,38089,1,0,0:0:0:0:
224,344,38169,1,0,0:0:0:0:
192,344,38250,1,0,0:0:0:0:
168,328,38331,1,0,0:0:0:0:
152,304,38411,1,0,0:0:0:0:
152,272,38492,1,0,0:0:0:0:
160,240,38573,5,0,0:0:0:0:
176,216,38653,1,0,0:0:0:0:
192,192,38734,1,0,0:0:0:0:
200,160,38815,1,0,0:0:0:0:
216,136,38895,5,0,0:0:0:0:
240,152,38976,1,0,0:0:0:0:
264,168,39056,1,0,0:0:0:0:
288,184,39137,1,0,0:0:0:0:
312,160,39218,5,0,0:0:0:0:
328,136,39298,1,0,0:0:0:0:
352,112,39379,1,0,0:0:0:0:
368,88,39460,1,0,0:0:0:0:
392,104,39540,5,0,0:0:0:0:
416,120,39621,1,0,0:0:0:0:
440,136,39702,1,0,0:0:0:0:
464,160,39782,1,0,0:0:0:0:
448,184,39863,5,0,0:0:0:0:
432,208,39944,1,0,0:0:0:0:
416,232,40024,1,0,0:0:0:0:
400,256,40105,1,0,0:0:0:0:
376,240,40185,5,0,0:0:0:0:
352,224,40266,1,0,0:0:0:0:
328,208,40347,1,0,0:0:0:0:
304,192,40427,1,0,0:0:0:0:
280,176,40508,5,0,0:0:0:0:
264,200,40589,1,0,0:0:0:0:
248,224,40669,1,0,0:0:0:0:
232,248,40750,1,0,0:0:0:0:
208,232,40831,5,0,0:0:0:0:
184,216,40911,1,0,0:0:0:0:
160,200,40992,1,0,0:0:0:0:
136,184,41073,1,0,0:0:0:0:
152,160,41153,5,0,0:0:0:0:
176,136,41234,1,0,0:0:0:0:
192,112,41315,1,0,0:0:0:0:
216,88,41395,1,0,0:0:0:0:
240,104,41476,5,0,0:0:0:0:
264,120,41556,1,0,0:0:0:0:
288,136,41637,1,0,0:0:0:0:
312,152,41718,1,0,0:0:0:0:
288,176,41798,5,0,0:0:0:0:
272,200,41879,1,0,0:0:0:0:
256,224,41960,1,0,0:0:0:0:
240,248,42040,1,0,0:0:0:0:
208,232,42121,5,0,0:0:0:0:
184,216,42202,1,0,0:0:0:0:
160,200,42282,1,0,0:0:0:0:
136,184,42363,1,0,0:0:0:0:
112,208,42444,5,0,0:0:0:0:
96,232,42524,1,0,0:0:0:0:
80,256,42605,1,0,0:0:0:0:
64,280,42685,1,0,0:0:0:0:
88,296,42766,5,0,0:0:0:0:
112,312,42847,1,0,0:0:0:0:
136,328,42927,1,0,0:0:0:0:
168,336,43008,1,0,0:0:0:0:
160,304,43089,5,0,0:0:0:0:
152,272,43169,1,0,0:0:0:0:
144,240,43250,1,0,0:0:0:0:
136,208,43331,1,0,0:0:0:0:
152,184,43411,5,0,0:0:0:0:
168,160,43492,1,0,0:0:0:0:
184,136,43573,1,0,0:0:0:0:
200,112,43653,1,0,0:0:0:0:
224,128,43734,5,0,0:0:0:0:
248,152,43815,1,0,0:0:0:0:
272,176,43895,1,0,0:0:0:0:
296,200,43976,1,0,0:0:0:0:
336,216,44056,5,0,0:0:0:0:
376,200,44137,1,0,0:0:0:0:
416,216,44218,1,0,0:0:0:0:
440,248,44298,1,0,0:0:0:0:
432,288,44379,1,0,0:0:0:0:
400,312,44460,1,0,0:0:0:0:
360,296,44540,1,0,0:0:0:0:
336,256,44621,1,0,0:0:0:0:
344,216,44702,1,0,0:0:0:0:
360,176,44782,5,0,0:0:0:0:
368,136,44863,1,0,0:0:0:0:
344,96,44944,1,0,0:0:0:0:
312,72,45024,1,0,0:0:0:0:
272,72,45105,1,0,0:0:0:0:
232,80,45185,1,0,0:0:0:0:
200,104,45266,1,0,0:0:0:0:
200,144,45347,1,0,0:0:0:0:
224,176,45427,1,0,0:0:0:0:
264,184,45508,5,0,0:0:0:0:
296,160,45589,1,0,0:0:0:0:
296,120,45669,1,0,0:0:0:0:
272,88,45750,1,0,0:0:0:0:
232,80,45831,1,0,0:0:0:0:
200,104,45911,1,0,0:0:0:0:
200,144,45992,1,0,0:0:0:0:
224,176,46073,5,0,0:0:0:0:
216,216,46153,1,0,0:0:0:0:
176,224,46234,1,0,0:0:0:0:
144,200,46315,1,0,0:0:0:0:
144,160,46395,1,0,0:0:0:0:
160,120,46476,1,0,0:0:0:0:
200,120,46556,1,0,0:0:0:0:
232,152,46637,1,0,0:0:0:0:
240,192,46718,5,0,0:0:0:0:
216,224,46798,1,0,0:0:0:0:
176,232,46879,1,0,0:0:0:0:
136,232,46960,1,0,0:0:0:0:
104,256,47040,1,0,0:0:0:0:
112,296,47121,1,0,0:0:0:0:
152,312,47202,1,0,0:0:0:0:
192,296,47282,1,0,0:0:0:0:
192,256,47363,1,0,0:0:0:0:
168,224,47444,5,0,0:0:0:0:
144,192,47524,1,0,0:0:0:0:
152,152,47605,1,0,0:0:0:0:
176,120,47685,1,0,0:0:0:0:
216,112,47766,1,0,0:0:0:0:
248,136,47847,1,0,0:0:0:0:
256,176,47927,1,0,0:0:0:0:
232,208,48008,1,0,0:0:0:0:
192,224,48089,1,0,0:0:0:0:
160,200,48169,5,0,0:0:0:0:
168,160,48250,1,0,0:0:0:0:
208,152,48331,1,0,0:0:0:0:
248,168,48411,1,0,0:0:0:0:
256,208,48492,1,0,0:0:0:0:
224,240,48573,1,0,0:0:0:0:
192,224,48653,1,0,0:0:0:0:
208,184,48734,1,0,0:0:0:0:
248,168,48815,5,0,0:0:0:0:
288,176,48895,1,0,0:0:0:0:
312,208,48976,1,0,0:0:0:0:
312,248,49056,1,0,0:0:0:0:
400,240,49218,6,0,L|384:200,1,35
360,136,49540,2,0,P|296:120|224:136,1,119.000002269745
160,168,49863,6,0,L|152:208,1,35
200,104,50185,2,0,P|272:88|336:112,1,119.000002269745
360,160,50508,5,0,0:0:0:0:
304,104,50669,1,0,0:0:0:0:
224,96,50831,1,0,0:0:0:0:
168,144,50992,1,0,0:0:0:0:
144,216,51153,1,0,0:0:0:0:
176,280,51315,5,0,0:0:0:0:
248,296,51476,2,0,L|368:232,1,119.000002269745
368,176,51798,5,0,0:0:0:0:
320,120,51879,1,0,0:0:0:0:
248,96,51960,1,0,0:0:0:0:
176,104,52040,1,0,0:0:0:0:
120,144,52121,1,0,0:0:0:0:
88,208,52202,1,0,0:0:0:0:
88,280,52282,1,0,0:0:0:0:
136,328,52363,1,0,0:0:0:0:
200,288,52444,6,0,P|280:248|336:264,1,140
400,240,52927,1,0,0:0:0:0:
368,176,53089,5,0,0:0:0:0:
320,120,53170,1,0,0:0:0:0:
248,96,53251,1,0,0:0:0:0:
176,104,53331,1,0,0:0:0:0:
120,144,53412,1,0,0:0:0:0:
88,208,53493,1,0,0:0:0:0:
88,280,53573,1,0,0:0:0:0:
136,328,53654,1,0,0:0:0:0:
200,288,53734,6,0,P|280:248|336:264,1,140
400,240,54218,1,0,0:0:0:0:
368,96,54379,5,0,0:0:0:0:
272,88,54540,2,0,P|176:96|136:136,1,140
128,200,54863,5,0,0:0:0:0:
208,232,55024,2,0,P|280:248|352:192,1,140
264,160,55347,2,0,P|328:128|416:176,1,140
432,200,55669,5,0,0:0:0:0:
96,72,55831,1,0,0:0:0:0:
64,136,55992,5,0,0:0:0:0:
448,136,56153,1,0,0:0:0:0:
448,72,56315,5,0,0:0:0:0:
72,200,56476,1,0,0:0:0:0:
256,96,56637,6,0,L|256:176,1,70
256,240,56960,5,0,0:0:0:0:
320,200,57040,1,0,0:0:0:0:
336,128,57121,1,0,0:0:0:0:
288,72,57202,1,0,0:0:0:0:
216,64,57282,1,0,0:0:0:0:
160,112,57363,1,0,0:0:0:0:
152,184,57444,1,0,0:0:0:0:
208,232,57524,1,0,0:0:0:0:
280,208,57605,6,0,P|352:192|368:200,1,70
416,208,57927,5,0,0:0:0:0:
384,272,58089,2,0,L|312:304,1,70
256,256,58411,1,0,0:0:0:0:
120,152,58573,1,0,0:0:0:0:
176,80,58734,5,0,0:0:0:0:
240,48,58815,1,0,0:0:0:0:
304,72,58895,1,0,0:0:0:0:
352,128,58976,1,0,0:0:0:0:
336,200,59056,1,0,0:0:0:0:
272,232,59137,1,0,0:0:0:0:
200,216,59218,1,0,0:0:0:0:
136,168,59298,6,0,L|104:208,1,35
96,272,59540,5,0,0:0:0:0:
128,288,59621,1,0,0:0:0:0:
168,296,59702,1,0,0:0:0:0:
200,280,59782,1,0,0:0:0:0:
232,256,59863,1,0,0:0:0:0:
232,216,59944,1,0,0:0:0:0:
224,176,60024,1,0,0:0:0:0:
192,152,60105,1,0,0:0:0:0:
168,120,60185,5,0,0:0:0:0:
184,88,60266,1,0,0:0:0:0:
216,72,60347,1,0,0:0:0:0:
256,72,60427,1,0,0:0:0:0:
288,88,60508,1,0,0:0:0:0:
320,112,60589,1,0,0:0:0:0:
336,144,60669,1,0,0:0:0:0:
328,184,60750,1,0,0:0:0:0:
344,216,60831,5,0,0:0:0:0:
384,224,60911,1,0,0:0:0:0:
416,208,60992,1,0,0:0:0:0:
448,224,61073,1,0,0:0:0:0:
464,256,61153,1,0,0:0:0:0:
456,296,61234,1,0,0:0:0:0:
432,328,61315,1,0,0:0:0:0:
400,344,61395,1,0,0:0:0:0:
360,336,61476,1,0,0:0:0:0:
