osu file format v14

[General]
AudioFilename: audio.mp3
AudioLeadIn: 0
PreviewTime: -1
Countdown: 1
SampleSet: Normal
StackLeniency: 0.7
Mode: 0
LetterboxInBreaks: 0
WidescreenStoryboard: 0

[Editor]
DistanceSpacing: 1.2
BeatDivisor: 4
GridSize: 8
TimelineZoom: 1

[Metadata]
Title:Maps 4 My Hubby
TitleUnicode:Maps 4 My Hubby
Artist:Napkins Stream Compilation
ArtistUnicode:Napkins Stream Compilation
Creator:Napkins
Version:Etneral Melody - Apocalypce ( 165 BPM )
Source:
Tags:
BeatmapID:1024254
BeatmapSetID:479691

[Difficulty]
HPDrainRate:7
CircleSize:5
OverallDifficulty:9
ApproachRate:9.6
SliderMultiplier:1.4
SliderTickRate:1

[Events]
//Background and Video events
0,0,"55763244_p0.jpg",0,0
//Break Periods
//Storyboard Layer 0 (Background)
//Storyboard Layer 1 (Fail)
//Storyboard Layer 2 (Pass)
//Storyboard Layer 3 (Foreground)
//Storyboard Sound Samples

[TimingPoints]
22245,363.636363636364,4,1,0,100,1,0
23700.5348291355,363.636363636364,4,1,0,100,1,0

[HitObjects]
112,64,22244,5,0,0:0:0:0:
152,64,22335,1,0,0:0:0:0:
192,64,22426,1,0,0:0:0:0:
232,64,22517,1,0,0:0:0:0:
272,64,22608,1,0,0:0:0:0:
312,64,22699,1,0,0:0:0:0:
352,64,22790,1,0,0:0:0:0:
392,64,22881,1,0,0:0:0:0:
432,64,22972,1,0,0:0:0:0:
432,104,23063,1,0,0:0:0:0:
432,144,23154,5,0,0:0:0:0:
432,184,23244,1,0,0:0:0:0:
432,224,23335,1,0,0:0:0:0:
432,264,23426,1,0,0:0:0:0:
432,304,23517,1,0,0:0:0:0:
432,344,23608,1,0,0:0:0:0:
392,344,23699,1,0,0:0:0:0:
352,344,23791,1,0,0:0:0:0:
312,344,23882,1,0,0:0:0:0:
272,344,23973,1,0,0:0:0:0:
232,344,24064,5,0,0:0:0:0:
192,344,24155,1,0,0:0:0:0:
152,344,24245,1,0,0:0:0:0:
112,344,24336,1,0,0:0:0:0:
112,304,24427,1,0,0:0:0:0:
112,264,24518,1,0,0:0:0:0:
112,224,24609,1,0,0:0:0:0:
112,184,24700,1,0,0:0:0:0:
112,144,24791,1,0,0:0:0:0:
112,104,24882,1,0,0:0:0:0:
112,64,24973,5,0,0:0:0:0:
152,64,25064,1,0,0:0:0:0:
192,64,25155,1,0,0:0:0:0:
232,64,25245,1,0,0:0:0:0:
272,64,25336,1,0,0:0:0:0:
312,64,25427,1,0,0:0:0:0:
352,64,25518,1,0,0:0:0:0:
392,64,25609,1,0,0:0:0:0:
432,64,25700,1,0,0:0:0:0:
432,104,25791,1,0,0:0:0:0:
432,144,25882,5,0,0:0:0:0:
432,184,25973,1,0,0:0:0:0:
432,224,26064,1,0,0:0:0:0:
432,264,26155,1,0,0:0:0:0:
432,304,26245,1,0,0:0:0:0:
432,344,26336,1,0,0:0:0:0:
392,344,26427,1,0,0:0:0:0:
352,344,26518,1,0,0:0:0:0:
312,344,26609,1,0,0:0:0:0:
272,344,26700,1,0,0:0:0:0:
232,344,26791,5,0,0:0:0:0:
192,344,26882,1,0,0:0:0:0:
152,344,26973,1,0,0:0:0:0:
112,344,27064,1,0,0:0:0:0:
72,344,27155,1,0,0:0:0:0:
72,304,27245,1,0,0:0:0:0:
72,264,27336,1,0,0:0:0:0:
72,224,27427,1,0,0:0:0:0:
72,184,27518,1,0,0:0:0:0:
72,144,27609,1,0,0:0:0:0:
72,104,27700,5,0,0:0:0:0:
72,64,27791,1,0,0:0:0:0:
112,64,27882,1,0,0:0:0:0:
152,64,27973,1,0,0:0:0:0:
192,64,28064,1,0,0:0:0:0:
232,64,28155,1,0,0:0:0:0:
272,64,28245,1,0,0:0:0:0:
312,64,28336,1,0,0:0:0:0:
352,64,28427,1,0,0:0:0:0:
392,64,28518,1,0,0:0:0:0:
432,64,28609,5,0,0:0:0:0:
432,104,28700,1,0,0:0:0:0:
432,144,28791,1,0,0:0:0:0:
432,184,28882,1,0,0:0:0:0:
432,224,28973,1,0,0:0:0:0:
432,264,29064,1,0,0:0:0:0:
432,304,29155,1,0,0:0:0:0:
432,344,29245,1,0,0:0:0:0:
392,344,29336,1,0,0:0:0:0:
352,344,29427,1,0,0:0:0:0:
312,344,29518,5,0,0:0:0:0:
272,344,29609,1,0,0:0:0:0:
232,344,29700,1,0,0:0:0:0:
192,344,29791,1,0,0:0:0:0:
152,344,29882,1,0,0:0:0:0:
112,344,29973,1,0,0:0:0:0:
72,344,30064,1,0,0:0:0:0:
72,304,30155,1,0,0:0:0:0:
72,264,30245,1,0,0:0:0:0:
72,224,30336,1,0,0:0:0:0:
72,184,30427,5,0,0:0:0:0:
72,144,30518,1,0,0:0:0:0:
72,104,30609,1,0,0:0:0:0:
72,64,30700,1,0,0:0:0:0:
112,64,30791,1,0,0:0:0:0:
152,64,30882,1,0,0:0:0:0:
192,64,30973,1,0,0:0:0:0:
232,64,31064,1,0,0:0:0:0:
272,64,31155,1,0,0:0:0:0:
312,64,31245,1,0,0:0:0:0:
352,64,31336,5,0,0:0:0:0:
392,64,31427,1,0,0:0:0:0:
432,64,31518,1,0,0:0:0:0:
432,104,31609,1,0,0:0:0:0:
432,144,31700,1,0,0:0:0:0:
432,184,31791,1,0,0:0:0:0:
432,224,31882,1,0,0:0:0:0:
432,264,31973,1,0,0:0:0:0:
432,304,32064,1,0,0:0:0:0:
432,344,32155,1,0,0:0:0:0:
392,344,32245,5,0,0:0:0:0:
352,344,32336,1,0,0:0:0:0:
312,344,32427,1,0,0:0:0:0:
272,344,32518,1,0,0:0:0:0:
232,344,32609,1,0,0:0:0:0:
192,344,32700,1,0,0:0:0:0:
152,344,32791,1,0,0:0:0:0:
112,344,32882,1,0,0:0:0:0:
72,344,32973,1,0,0:0:0:0:
72,304,33064,1,0,0:0:0:0:
72,264,33155,5,0,0:0:0:0:
72,224,33245,1,0,0:0:0:0:
72,184,33336,1,0,0:0:0:0:
72,144,33427,1,0,0:0:0:0:
72,104,33518,1,0,0:0:0:0:
72,64,33609,1,0,0:0:0:0:
112,64,33700,1,0,0:0:0:0:
152,64,33791,1,0,0:0:0:0:
192,64,33882,1,0,0:0:0:0:
232,64,33973,1,0,0:0:0:0:
272,64,34064,5,0,0:0:0:0:
312,64,34155,1,0,0:0:0:0:
352,64,34245,1,0,0:0:0:0:
392,64,34336,1,0,0:0:0:0:
432,64,34427,1,0,0:0:0:0:
432,104,34518,1,0,0:0:0:0:
432,144,34609,1,0,0:0:0:0:
432,184,34700,1,0,0:0:0:0:
432,224,34791,1,0,0:0:0:0:
432,264,34882,1,0,0:0:0:0:
432,304,34973,5,0,0:0:0:0:
432,344,35064,1,0,0:0:0:0:
392,344,35155,1,0,0:0:0:0:
352,344,35245,1,0,0:0:0:0:
312,344,35336,1,0,0:0:0:0:
272,344,35427,1,0,0:0:0:0:
232,344,35518,1,0,0:0:0:0:
192,344,35609,1,0,0:0:0:0:
152,344,35700,1,0,0:0:0:0:
112,344,35791,1,0,0:0:0:0:
72,344,35882,5,0,0:0:0:0:
72,304,35973,1,0,0:0:0:0:
72,264,36064,1,0,0:0:0:0:
72,224,36155,1,0,0:0:0:0:
72,184,36245,1,0,0:0:0:0:
72,144,36336,1,0,0:0:0:0:
72,104,36427,1,0,0:0:0:0:
72,64,36518,1,0,0:0:0:0:
112,64,36609,1,0,0:0:0:0:
152,64,36700,1,0,0:0:0:0:
192,64,36791,5,0,0:0:0:0:
232,64,36882,1,0,0:0:0:0:
272,64,36973,1,0,0:0:0:0:
312,64,37064,1,0,0:0:0:0:
352,64,37155,1,0,0:0:0:0:
392,64,37245,1,0,0:0:0:0:
432,64,37336,1,0,0:0:0:0:
432,104,37427,1,0,0:0:0:0:
432,144,37518,1,0,0:0:0:0:
432,184,37609,1,0,0:0:0:0:
432,224,37700,5,0,0:0:0:0:
432,264,37791,1,0,0:0:0:0:
432,304,37882,1,0,0:0:0:0:
432,344,37973,1,0,0:0:0:0:
392,344,38064,1,0,0:0:0:0:
352,344,38155,1,0,0:0:0:0:
312,344,38245,1,0,0:0:0:0:
272,344,38336,1,0,0:0:0:0:
232,344,38427,1,0,0:0:0:0:
192,344,38518,1,0,0:0:0:0:
152,344,38609,5,0,0:0:0:0:
112,344,38700,1,0,0:0:0:0:
72,344,38791,1,0,0:0:0:0:
72,304,38882,1,0,0:0:0:0:
72,264,38973,1,0,0:0:0:0:
72,224,39064,1,0,0:0:0:0:
72,184,39155,1,0,0:0:0:0:
72,144,39245,1,0,0:0:0:0:
72,104,39336,1,0,0:0:0:0:
72,64,39427,1,0,0:0:0:0:
112,64,39518,5,0,0:0:0:0:
152,64,39609,1,0,0:0:0:0:
192,64,39700,1,0,0:0:0:0:
232,64,39791,1,0,0:0:0:0:
272,64,39882,1,0,0:0:0:0:
312,64,39973,1,0,0:0:0:0:
352,64,40064,1,0,0:0:0:0:
392,64,40155,1,0,0:0:0:0:
432,64,40245,1,0,0:0:0:0:
432,104,40336,5,0,0:0:0:0:
432,144,40427,1,0,0:0:0:0:
432,184,40518,1,0,0:0:0:0:
432,224,40609,1,0,0:0:0:0:
432,264,40700,1,0,0:0:0:0:
432,304,40791,1,0,0:0:0:0:
432,344,40882,1,0,0:0:0:0:
392,344,40973,1,0,0:0:0:0:
352,344,41064,1,0,0:0:0:0:
312,344,41155,1,0,0:0:0:0:
272,344,41245,5,0,0:0:0:0:
232,344,41336,1,0,0:0:0:0:
192,344,41427,1,0,0:0:0:0:
152,344,41518,1,0,0:0:0:0:
112,344,41609,1,0,0:0:0:0:
72,344,41700,1,0,0:0:0:0:
72,304,41791,1,0,0:0:0:0:
72,264,41882,1,0,0:0:0:0:
72,224,41973,1,0,0:0:0:0:
72,184,42064,1,0,0:0:0:0:
72,144,42155,5,0,0:0:0:0:
72,104,42245,1,0,0:0:0:0:
72,64,42336,1,0,0:0:0:0:
112,64,42427,1,0,0:0:0:0:
152,64,42518,1,0,0:0:0:0:
192,64,42609,1,0,0:0:0:0:
232,64,42700,1,0,0:0:0:0:
272,64,42791,1,0,0:0:0:0:
312,64,42882,1,0,0:0:0:0:
352,64,42973,1,0,0:0:0:0:
392,64,43064,5,0,0:0:0:0:
432,64,43155,1,0,0:0:0:0:
432,104,43245,1,0,0:0:0:0:
432,144,43336,1,0,0:0:0:0:
432,184,43427,1,0,0:0:0:0:
432,224,43518,1,0,0:0:0:0:
432,264,43609,1,0,0:0:0:0:
432,304,43700,1,0,0:0:0:0:
432,344,43791,1,0,0:0:0:0:
392,344,43882,1,0,0:0:0:0:
352,344,43973,5,0,0:0:0:0:
312,344,44064,1,0,0:0:0:0:
272,344,44155,1,0,0:0:0:0:
232,344,44245,1,0,0:0:0:0:
192,344,44336,1,0,0:0:0:0:
152,344,44427,1,0,0:0:0:0:
112,344,44518,1,0,0:0:0:0:
72,344,44609,1,0,0:0:0:0:
72,304,44700,1,0,0:0:0:0:
72,264,44791,1,0,0:0:0:0:
72,224,44882,5,0,0:0:0:0:
72,184,44973,1,0,0:0:0:0:
72,144,45064,1,0,0:0:0:0:
72,104,45155,1,0,0:0:0:0:
72,64,45245,1,0,0:0:0:0:
112,64,45336,1,0,0:0:0:0:
152,64,45427,1,0,0:0:0:0:
192,64,45518,1,0,0:0:0:0:
232,64,45609,1,0,0:0:0:0:
272,64,45700,1,0,0:0:0:0:
312,64,45791,5,0,0:0:0:0:
352,64,45882,1,0,0:0:0:0:
392,64,45973,1,0,0:0:0:0:
432,64,46064,1,0,0:0:0:0:
432,104,46155,1,0,0:0:0:0:
432,144,46245,1,0,0:0:0:0:
432,184,46336,1,0,0:0:0:0:
432,224,46427,1,0,0:0:0:0:
432,264,46518,1,0,0:0:0:0:
432,304,46609,1,0,0:0:0:0:
432,344,46700,5,0,0:0:0:0:
392,344,46791,1,0,0:0:0:0:
352,344,46882,1,0,0:0:0:0:
312,344,46973,1,0,0:0:0:0:
272,344,47064,1,0,0:0:0:0:
232,344,47155,1,0,0:0:0:0:
192,344,47245,1,0,0:0:0:0:
152,344,47336,1,0,0:0:0:0:
112,344,47427,1,0,0:0:0:0:
72,344,47518,1,0,0:0:0:0:
72,304,47609,5,0,0:0:0:0:
72,264,47700,1,0,0:0:0:0:
72,224,47791,1,0,0:0:0:0:
72,184,47882,1,0,0:0:0:0:
72,144,47973,1,0,0:0:0:0:
72,104,48064,1,0,0:0:0:0:
72,64,48155,1,0,0:0:0:0:
112,64,48245,1,0,0:0:0:0:
152,64,48336,1,0,0:0:0:0:
192,64,48427,1,0,0:0:0:0:
232,64,48518,5,0,0:0:0:0:
272,64,48609,1,0,0:0:0:0:
312,64,48700,1,0,0:0:0:0:
352,64,48791,1,0,0:0:0:0:
392,64,48882,1,0,0:0:0:0:
432,64,48973,1,0,0:0:0:0:
432,104,49064,1,0,0:0:0:0:
432,144,49155,1,0,0:0:0:0:
432,184,49245,1,0,0:0:0:0:
432,224,49336,1,0,0:0:0:0:
432,264,49427,5,0,0:0:0:0:
432,304,49518,1,0,0:0:0:0:
432,344,49609,1,0,0:0:0:0:
392,344,49700,1,0,0:0:0:0:
352,344,49791,1,0,0:0:0:0:
312,344,49882,1,0,0:0:0:0:
272,344,49973,1,0,0:0:0:0:
232,344,50064,1,0,0:0:0:0:
192,344,50155,1,0,0:0:0:0:
152,344,50245,1,0,0:0:0:0:
112,344,50336,5,0,0:0:0:0:
72,344,50427,1,0,0:0:0:0:
72,304,50518,1,0,0:0:0:0:
72,264,50609,1,0,0:0:0:0:
72,224,50700,1,0,0:0:0:0:
72,184,50791,1,0,0:0:0:0:
72,144,50882,1,0,0:0:0:0:
72,104,50973,1,0,0:0:0:0:
72,64,51064,1,0,0:0:0:0:
112,64,51155,1,0,0:0:0:0:
152,64,51245,5,0,0:0:0:0:
192,64,51336,1,0,0:0:0:0:
232,64,51427,1,0,0:0:0:0:
272,64,51518,1,0,0:0:0:0:
312,64,51609,1,0,0:0:0:0:
352,64,51700,1,0,0:0:0:0:
392,64,51791,1,0,0:0:0:0:
432,64,51882,1,0,0:0:0:0:
432,104,51973,1,0,0:0:0:0:
432,144,52064,1,0,0:0:0:0:
432,184,52155,5,0,0:0:0:0:
432,224,52245,1,0,0:0:0:0:
432,264,52336,1,0,0:0:0:0:
432,304,52427,1,0,0:0:0:0:
432,344,52518,1,0,0:0:0:0:
392,344,52609,1,0,0:0:0:0:
352,344,52700,1,0,0:0:0:0:
312,344,52791,1,0,0:0:0:0:
272,344,52882,1,0,0:0:0:0:
232,344,52973,1,0,0:0:0:0:
192,344,53064,5,0,0:0:0:0:
152,344,53155,1,0,0:0:0:0:
112,344,53245,1,0,0:0:0:0:
72,344,53336,1,0,0:0:0:0:
72,304,53427,1,0,0:0:0:0:
72,264,53518,1,0,0:0:0:0:
72,224,53609,1,0,0:0:0:0:
72,184,53700,1,0,0:0:0:0:
72,144,53791,1,0,0:0:0:0:
72,104,53882,1,0,0:0:0:0:
72,64,53973,5,0,0:0:0:0:
112,64,54064,1,0,0:0:0:0:
152,64,54155,1,0,0:0:0:0:
192,64,54245,1,0,0:0:0:0:
232,64,54336,1,0,0:0:0:0:
272,64,54427,1,0,0:0:0:0:
312,64,54518,1,0,0:0:0:0:
352,64,54609,1,0,0:0:0:0:
392,64,54700,1,0,0:0:0:0:
432,64,54791,1,0,0:0:0:0:
432,104,54882,5,0,0:0:0:0:
432,144,54973,1,0,0:0:0:0:
432,184,55064,1,0,0:0:0:0:
432,224,55155,1,0,0:0:0:0:
432,264,55245,1,0,0:0:0:0:
432,304,55336,1,0,0:0:0:0:
432,344,55427,1,0,0:0:0:0:
392,344,55518,1,0,0:0:0:0:
352,344,55609,1,0,0:0:0:0:
312,344,55700,1,0,0:0:0:0:
272,344,55791,5,0,0:0:0:0:
232,344,55882,1,0,0:0:0:0:
192,344,55973,1,0,0:0:0:0:
152,344,56064,1,0,0:0:0:0:
112,344,56155,1,0,0:0:0:0:
72,344,56245,1,0,0:0:0:0:
72,304,56336,1,0,0:0:0:0:
72,264,56427,1,0,0:0:0:0:
72,224,56518,1,0,0:0:0:0:
72,184,56609,1,0,0:0:0:0:
72,144,56700,5,0,0:0:0:0:
72,104,56791,1,0,0:0:0:0:
72,64,56882,1,0,0:0:0:0:
112,64,56973,1,0,0:0:0:0:
152,64,57064,1,0,0:0:0:0:
192,64,57155,1,0,0:0:0:0:
232,64,57245,1,0,0:0:0:0:
272,64,57336,1,0,0:0:0:0:
312,64,57427,1,0,0:0:0:0:
352,64,57518,1,0,0:0:0:0:
392,64,57609,5,0,0:0:0:0:
432,64,57700,1,0,0:0:0:0:
432,104,57791,1,0,0:0:0:0:
432,144,57882,1,0,0:0:0:0:
432,184,57973,1,0,0:0:0:0:
432,224,58064,1,0,0:0:0:0:
432,264,58155,1,0,0:0:0:0:
432,304,58245,1,0,0:0:0:0:
432,344,58336,1,0,0:0:0:0:
392,344,58427,1,0,0:0:0:0:
352,344,58518,5,0,0:0:0:0:
312,344,58609,1,0,0:0:0:0:
272,344,58700,1,0,0:0:0:0:
232,344,58791,1,0,0:0:0:0:
192,344,58882,1,0,0:0:0:0:
152,344,58973,1,0,0:0:0:0:
112,344,59064,1,0,0:0:0:0:
72,344,59155,1,0,0:0:0:0:
72,304,59245,1,0,0:0:0:0:
72,264,59336,1,0,0:0:0:0:
72,224,59427,5,0,0:0:0:0:
72,184,59518,1,0,0:0:0:0:
72,144,59609,1,0,0:0:0:0:
72,104,59700,1,0,0:0:0:0:
72,64,59791,1,0,0:0:0:0:
112,64,59882,1,0,0:0:0:0:
152,64,59973,1,0,0:0:0:0:
192,64,60064,1,0,0:0:0:0:
232,64,60155,1,0,0:0:0:0:
272,64,60245,1,0,0:0:0:0:
312,64,60336,5,0,0:0:0:0:
352,64,60427,1,0,0:0:0:0:
392,64,60518,1,0,0:0:0:0:
432,64,60609,1,0,0:0:0:0:
432,104,60700,1,0,0:0:0:0:
432,144,60791,1,0,0:0:0:0:
432,184,60882,1,0,0:0:0:0:
432,224,60973,1,0,0:0:0:0:
432,264,61064,1,0,0:0:0:0:
432,304,61155,1,0,0:0:0:0:
432,344,61245,5,0,0:0:0:0:
392,344,61336,1,0,0:0:0:0:
352,344,61427,1,0,0:0:0:0:
312,344,61518,1,0,0:0:0:0:
272,344,61609,1,0,0:0:0:0:
232,344,61700,1,0,0:0:0:0:
192,344,61791,1,0,0:0:0:0:
152,344,61882,1,0,0:0:0:0:
112,344,61973,1,0,0:0:0:0:
72,344,62064,1,0,0:0:0:0:
72,304,62155,5,0,0:0:0:0:
72,264,62245,1,0,0:0:0:0:
72,224,62336,1,0,0:0:0:0:
72,184,62427,1,0,0:0:0:0:
72,144,62518,1,0,0:0:0:0:
72,104,62609,1,0,0:0:0:0:
72,64,62700,1,0,0:0:0:0:
112,64,62791,1,0,0:0:0:0:
152,64,62882,1,0,0:0:0:0:
192,64,62973,1,0,0:0:0:0:
232,64,63064,5,0,0:0:0:0:
272,64,63155,1,0,0:0:0:0:
312,64,63245,1,0,0:0:0:0:
352,64,63336,1,0,0:0:0:0:
392,64,63427,1,0,0:0:0:0:
432,64,63518,1,0,0:0:0:0:
432,104,63609,1,0,0:0:0:0:
432,144,63700,1,0,0:0:0:0:
432,184,63791,1,0,0:0:0:0:
432,224,63882,1,0,0:0:0:0:
432,264,63973,5,0,0:0:0:0:
432,304,64064,1,0,0:0:0:0:
432,344,64155,1,0,0:0:0:0:
392,344,64245,1,0,0:0:0:0:
352,344,64336,1,0,0:0:0:0:
312,344,64427,1,0,0:0:0:0:
272,344,64518,1,0,0:0:0:0:
232,344,64609,1,0,0:0:0:0:
192,344,64700,1,0,0:0:0:0:
152,344,64791,1,0,0:0:0:0:
112,344,64882,5,0,0:0:0:0:
72,344,64973,1,0,0:0:0:0:
72,304,65064,1,0,0:0:0:0:
72,264,65155,1,0,0:0:0:0:
72,224,65245,1,0,0:0:0:0:
72,184,65336,1,0,0:0:0:0:
72,144,65427,1,0,0:0:0:0:
72,104,65518,1,0,0:0:0:0:
72,64,65609,1,0,0:0:0:0:
112,64,65700,1,0,0:0:0:0:
152,64,65791,5,0,0:0:0:0:
192,64,65882,1,0,0:0:0:0:
232,64,65973,1,0,0:0:0:0:
272,64,66064,1,0,0:0:0:0:
312,64,66155,1,0,0:0:0:0:
352,64,66245,1,0,0:0:0:0:
392,64,66336,1,0,0:0:0:0:
432,64,66427,1,0,0:0:0:0:
432,104,66518,1,0,0:0:0:0:
432,144,66609,1,0,0:0:0:0:
432,184,66700,5,0,0:0:0:0:
432,224,66791,1,0,0:0:0:0:
432,264,66882,1,0,0:0:0:0:
432,304,66973,1,0,0:0:0:0:
432,344,67064,1,0,0:0:0:0:
392,344,67155,1,0,0:0:0:0:
352,344,67245,1,0,0:0:0:0:
312,344,67336,1,0,0:0:0:0:
272,344,67427,1,0,0:0:0:0:
232,344,67518,1,0,0:0:0:0:
192,344,67609,5,0,0:0:0:0:
152,344,67700,1,0,0:0:0:0:
112,344,67791,1,0,0:0:0:0:
72,344,67882,1,0,0:0:0:0:
72,304,67973,1,0,0:0:0:0:
72,264,68064,1,0,0:0:0:0:
72,224,68155,1,0,0:0:0:0:
72,184,68245,1,0,0:0:0:0:
72,144,68336,1,0,0:0:0:0:
72,104,68427,1,0,0:0:0:0:
72,64,68518,5,0,0:0:0:0:
112,64,68609,1,0,0:0:0:0:
152,64,68700,1,0,0:0:0:0:
192,64,68791,1,0,0:0:0:0:
232,64,68882,1,0,0:0:0:0:
272,64,68973,1,0,0:0:0:0:
312,64,69064,1,0,0:0:0:0:
352,64,69155,1,0,0:0:0:0:
392,64,69245,1,0,0:0:0:0:
432,64,69336,1,0,0:0:0:0:
432,104,69427,5,0,0:0:0:0:
432,144,69518,1,0,0:0:0:0:
432,184,69609,1,0,0:0:0:0:
432,224,69700,1,0,0:0:0:0:
432,264,69791,1,0,0:0:0:0:
432,304,69882,1,0,0:0:0:0:
432,344,69973,1,0,0:0:0:0:
392,344,70064,1,0,0:0:0:0:
352,344,70155,1,0,0:0:0:0:
312,344,70245,1,0,0:0:0:0:
272,344,70336,5,0,0:0:0:0:
232,344,70427,1,0,0:0:0:0:
192,344,70518,1,0,0:0:0:0:
152,344,70609,1,0,0:0:0:0:
112,344,70700,1,0,0:0:0:0:
72,344,70791,1,0,0:0:0:0:
72,304,70882,1,0,0:0:0:0:
72,264,70973,1,0,0:0:0:0:
72,224,71064,1,0,0:0:0:0:
72,184,71155,1,0,0:0:0:0:
72,144,71245,5,0,0:0:0:0:
72,104,71336,1,0,0:0:0:0:
72,64,71427,1,0,0:0:0:0:
112,64,71518,1,0,0:0:0:0:
152,64,71609,1,0,0:0:0:0:
192,64,71700,1,0,0:0:0:0:
232,64,71791,1,0,0:0:0:0:
272,64,71882,1,0,0:0:0:0:
312,64,71973,1,0,0:0:0:0:
352,64,72064,1,0,0:0:0:0:
392,64,72155,5,0,0:0:0:0:
432,64,72245,1,0,0:0:0:0:
432,104,72336,1,0,0:0:0:0:
432,144,72427,1,0,0:0:0:0:
432,184,72518,1,0,0:0:0:0:
432,224,72609,1,0,0:0:0:0:
432,264,72700,1,0,0:0:0:0:
432,304,72791,1,0,0:0:0:0:
432,344,72882,1,0,0:0:0:0:
392,344,72973,1,0,0:0:0:0:
352,344,73064,5,0,0:0:0:0:
312,344,73155,1,0,0:0:0:0:
272,344,73245,1,0,0:0:0:0:
232,344,73336,1,0,0:0:0:0:
192,344,73427,1,0,0:0:0:0:
152,344,73518,1,0,0:0:0:0:
112,344,73609,1,0,0:0:0:0:
72,344,73700,1,0,0:0:0:0:
72,304,73791,1,0,0:0:0:0:
72,264,73882,1,0,0:0:0:0:
72,224,73973,5,0,0:0:0:0:
72,184,74064,1,0,0:0:0:0:
72,144,74155,1,0,0:0:0:0:
72,104,74245,1,0,0:0:0:0:
72,64,74336,1,0,0:0:0:0:
112,64,74427,1,0,0:0:0:0:
152,64,74518,1,0,0:0:0:0:
192,64,74609,1,0,0:0:0:0:
232,64,74700,1,0,0:0:0:0:
272,64,74791,1,0,0:0:0:0:
312,64,74882,5,0,0:0:0:0:
352,64,74973,1,0,0:0:0:0:
392,64,75064,1,0,0:0:0:0:
432,64,75155,1,0,0:0:0:0:
432,104,75245,1,0,0:0:0:0:
432,144,75336,1,0,0:0:0:0:
432,184,75427,1,0,0:0:0:0:
432,224,75518,1,0,0:0:0:0:
432,264,75609,1,0,0:0:0:0:
432,304,75700,1,0,0:0:0:0:
432,344,75791,5,0,0:0:0:0:
392,344,75882,1,0,0:0:0:0:
352,344,75973,1,0,0:0:0:0:
312,344,76064,1,0,0:0:0:0:
272,344,76155,1,0,0:0:0:0:
232,344,76245,1,0,0:0:0:0:
192,344,76336,1,0,0:0:0:0:
152,344,76427,1,0,0:0:0:0:
112,344,76518,1,0,0:0:0:0:
72,344,76609,1,0,0:0:0:0:
72,304,76700,5,0,0:0:0:0:
72,264,76791,1,0,0:0:0:0:
72,224,76882,1,0,0:0:0:0:
72,184,76973,1,0,0:0:0:0:
72,144,77064,1,0,0:0:0:0:
72,104,77155,1,0,0:0:0:0:
72,64,77245,1,0,0:0:0:0:
112,64,77336,1,0,0:0:0:0:
152,64,77427,1,0,0:0:0:0:
192,64,77518,1,0,0:0:0:0:
232,64,77609,5,0,0:0:0:0:
272,64,77700,1,0,0:0:0:0:
312,64,77791,1,0,0:0:0:0:
352,64,77882,1,0,0:0:0:0:
392,64,77973,1,0,0:0:0:0:
432,64,78064,1,0,0:0:0:0:
432,104,78155,1,0,0:0:0:0:
432,144,78245,1,0,0:0:0:0:
432,184,78336,1,0,0:0:0:0:
432,224,78427,1,0,0:0:0:0:
432,264,78518,5,0,0:0:0:0:
432,304,78609,1,0,0:0:0:0:
432,344,78700,1,0,0:0:0:0:
392,344,78791,1,0,0:0:0:0:
352,344,78882,1,0,0:0:0:0:
312,344,78973,1,0,0:0:0:0:
272,344,79064,1,0,0:0:0:0:
232,344,79155,1,0,0:0:0:0:
192,344,79245,1,0,0:0:0:0:
152,344,79336,1,0,0:0:0:0:
112,344,79427,5,0,0:0:0:0:
72,344,79518,1,0,0:0:0:0:
72,304,79609,1,0,0:0:0:0:
72,264,79700,1,0,0:0:0:0:
72,224,79791,1,0,0:0:0:0:
72,184,79882,1,0,0:0:0:0:
72,144,79973,1,0,0:0:0:0:
72,104,80064,1,0,0:0:0:0:
72,64,80155,1,0,0:0:0:0:
112,64,80245,1,0,0:0:0:0:
152,64,80336,5,0,0:0:0:0:
192,64,80427,1,0,0:0:0:0:
232,64,80518,1,0,0:0:0:0:
272,64,80609,1,0,0:0:0:0:
312,64,80700,1,0,0:0:0:0:
352,64,80791,1,0,0:0:0:0:
392,64,80882,1,0,0:0:0:0:
432,64,80973,1,0,0:0:0:0:
432,104,81064,1,0,0:0:0:0:
432,144,81155,1,0,0:0:0:0:
432,184,81245,5,0,0:0:0:0:
432,224,81336,1,0,0:0:0:0:
432,264,81427,1,0,0:0:0:0:
432,304,81518,1,0,0:0:0:0:
432,344,81609,1,0,0:0:0:0:
392,344,81700,1,0,0:0:0:0:
352,344,81791,1,0,0:0:0:0:
312,344,81882,1,0,0:0:0:0:
272,344,81973,1,0,0:0:0:0:
232,344,82064,1,0,0:0:0:0:
192,344,82155,5,0,0:0:0:0:
152,344,82245,1,0,0:0:0:0:
112,344,82336,1,0,0:0:0:0:
72,344,82427,1,0,0:0:0:0:
72,304,82518,1,0,0:0:0:0:
72,264,82609,1,0,0:0:0:0:
72,224,82700,1,0,0:0:0:0:
72,184,82791,1,0,0:0:0:0:
72,144,82882,1,0,0:0:0:0:
72,104,82973,1,0,0:0:0:0:
72,64,83064,5,0,0:0:0:0:
112,64,83155,1,0,0:0:0:0:
152,64,83245,1,0,0:0:0:0:
192,64,83336,1,0,0:0:0:0:
232,64,83427,1,0,0:0:0:0:
272,64,83518,1,0,0:0:0:0:
312,64,83609,1,0,0:0:0:0:
352,64,83700,1,0,0:0:0:0:
392,64,83791,1,0,0:0:0:0:
432,64,83882,1,0,0:0:0:0:
432,104,83973,5,0,0:0:0:0:
432,144,84064,1,0,0:0:0:0:
432,184,84155,1,0,0:0:0:0:
432,224,84245,1,0,0:0:0:0:
432,264,84336,1,0,0:0:0:0:
432,304,84427,1,0,0:0:0:0:
432,344,84518,1,0,0:0:0:0:
392,344,84609,1,0,0:0:0:0:
352,344,84700,1,0,0:0:0:0:
312,344,84791,1,0,0:0:0:0:
272,344,84882,5,0,0:0:0:0:
232,344,84973,1,0,0:0:0:0:
192,344,85064,1,0,0:0:0:0:
152,344,85155,1,0,0:0:0:0:
112,344,85245,1,0,0:0:0:0:
72,344,85336,1,0,0:0:0:0:
72,304,85427,1,0,0:0:0:0:
72,264,85518,1,0,0:0:0:0:
72,224,85609,1,0,0:0:0:0:
72,184,85700,1,0,0:0:0:0:
72,144,85791,5,0,0:0:0:0:
72,104,85882,1,0,0:0:0:0:
72,64,85973,1,0,0:0:0:0:
112,64,86064,1,0,0:0:0:0:
152,64,86155,1,0,0:0:0:0:
192,64,86245,1,0,0:0:0:0:
232,64,86336,1,0,0:0:0:0:
272,64,86427,1,0,0:0:0:0:
312,64,86518,1,0,0:0:0:0:
352,64,86609,1,0,0:0:0:0:
392,64,86700,5,0,0:0:0:0:
432,64,86791,1,0,0:0:0:0:
432,104,86882,1,0,0:0:0:0:
432,144,86973,1,0,0:0:0:0:
432,184,87064,1,0,0:0:0:0:
432,224,87155,1,0,0:0:0:0:
432,264,87245,1,0,0:0:0:0:
432,304,87336,1,0,0:0:0:0:
432,344,87427,1,0,0:0:0:0:
392,344,87518,1,0,0:0:0:0:
352,344,87609,5,0,0:0:0:0:
312,344,87700,1,0,0:0:0:0:
272,344,87791,1,0,0:0:0:0:
232,344,87882,1,0,0:0:0:0:
192,344,87973,1,0,0:0:0:0:
152,344,88064,1,0,0:0:0:0:
112,344,88155,1,0,0:0:0:0:
72,344,88245,1,0,0:0:0:0:
72,304,88336,1,0,0:0:0:0:
72,264,88427,1,0,0:0:0:0:
72,224,88518,5,0,0:0:0:0:
72,184,88609,1,0,0:0:0:0:
72,144,88700,1,0,0:0:0:0:
72,104,88791,1,0,0:0:0:0:
72,64,88882,1,0,0:0:0:0:
112,64,88973,1,0,0:0:0:0:
152,64,89064,1,0,0:0:0:0:
192,64,89155,1,0,0:0:0:0:
232,64,89245,1,0,0:0:0:0:
272,64,89336,1,0,0:0:0:0:
312,64,89427,5,0,0:0:0:0:
352,64,89518,1,0,0:0:0:0:
392,64,89609,1,0,0:0:0:0:
432,64,89700,1,0,0:0:0:0:
432,104,89791,1,0,0:0:0:0:
432,144,89882,1,0,0:0:0:0:
432,184,89973,1,0,0:0:0:0:
432,224,90064,1,0,0:0:0:0:
432,264,90155,1,0,0:0:0:0:
432,304,90245,1,0,0:0:0:0:
432,344,90336,5,0,0:0:0:0:
392,344,90427,1,0,0:0:0:0:
352,344,90518,1,0,0:0:0:0:
312,344,90609,1,0,0:0:0:0:
272,344,90700,1,0,0:0:0:0:
232,344,90791,1,0,0:0:0:0:
192,344,90882,1,0,0:0:0:0:
152,344,90973,1,0,0:0:0:0:
112,344,91064,1,0,0:0:0:0:
72,344,91155,1,0,0:0:0:0:
72,304,91245,5,0,0:0:0:0:
72,264,91336,1,0,0:0:0:0:
72,224,91427,1,0,0:0:0:0:
72,184,91518,1,0,0:0:0:0:
72,144,91609,1,0,0:0:0:0:
72,104,91700,1,0,0:0:0:0:
72,64,91791,1,0,0:0:0:0:
112,64,91882,1,0,0:0:0:0:
152,64,91973,1,0,0:0:0:0:
192,64,92064,1,0,0:0:0:0:
232,64,92155,5,0,0:0:0:0:
272,64,92245,1,0,0:0:0:0:
312,64,92336,1,0,0:0:0:0:
352,64,92427,1,0,0:0:0:0:
392,64,92518,1,0,0:0:0:0:
432,64,92609,1,0,0:0:0:0:
432,104,92700,1,0,0:0:0:0:
432,144,92791,1,0,0:0:0:0:
432,184,92882,1,0,0:0:0:0:
432,224,92973,1,0,0:0:0:0:
432,264,93064,5,0,0:0:0:0:
432,304,93155,1,0,0:0:0:0:
432,344,93245,1,0,0:0:0:0:
392,344,93336,1,0,0:0:0:0:
352,344,93427,1,0,0:0:0:0:
312,344,93518,1,0,0:0:0:0:
272,344,93609,1,0,0:0:0:0:
232,344,93700,1,0,0:0:0:0:
192,344,93791,1,0,0:0:0:0:
152,344,93882,1,0,0:0:0:0:
112,344,93973,5,0,0:0:0:0:
72,344,94064,1,0,0:0:0:0:
72,304,94155,1,0,0:0:0:0:
72,264,94245,1,0,0:0:0:0:
72,224,94336,1,0,0:0:0:0:
72,184,94427,1,0,0:0:0:0:
72,144,94518,1,0,0:0:0:0:
72,104,94609,1,0,0:0:0:0:
72,64,94700,1,0,0:0:0:0:
112,64,94791,1,0,0:0:0:0:
152,64,94882,5,0,0:0:0:0:
192,64,94973,1,0,0:0:0:0:
232,64,95064,1,0,0:0:0:0:
272,64,95155,1,0,0:0:0:0:
312,64,95245,1,0,0:0:0:0:
352,64,95336,1,0,0:0:0:0:
392,64,95427,1,0,0:0:0:0:
432,64,95518,1,0,0:0:0:0:
432,104,95609,1,0,0:0:0:0:
432,144,95700,1,0,0:0:0:0:
432,184,95791,5,0,0:0:0:0:
432,224,95882,1,0,0:0:0:0:
432,264,95973,1,0,0:0:0:0:
432,304,96064,1,0,0:0:0:0:
432,344,96155,1,0,0:0:0:0:
392,344,96245,1,0,0:0:0:0:
352,344,96336,1,0,0:0:0:0:
312,344,96427,1,0,0:0:0:0:
272,344,96518,1,0,0:0:0:0:
232,344,96609,1,0,0:0:0:0:
192,344,96700,5,0,0:0:0:0:
152,344,96791,1,0,0:0:0:0:
112,344,96882,1,0,0:0:0:0:
72,344,96973,1,0,0:0:0:0:
72,304,97064,1,0,0:0:0:0:
72,264,97155,1,0,0:0:0:0:
72,224,97245,1,0,0:0:0:0:
72,184,97336,1,0,0:0:0:0:
72,144,97427,1,0,0:0:0:0:
72,104,97518,1,0,0:0:0:0:
72,64,97609,5,0,0:0:0:0:
112,64,97700,1,0,0:0:0:0:
152,64,97791,1,0,0:0:0:0:
192,64,97882,1,0,0:0:0:0:
232,64,97973,1,0,0:0:0:0:
272,64,98064,1,0,0:0:0:0:
312,64,98155,1,0,0:0:0:0:
352,64,98245,1,0,0:0:0:0:
392,64,98336,1,0,0:0:0:0:
432,64,98427,1,0,0:0:0:0:
432,104,98518,1,0,0:0:0:0:
432,144,98609,1,0,0:0:0:0:
432,184,98700,5,0,0:0:0:0:
432,224,98791,1,0,0:0:0:0:
432,264,98882,1,0,0:0:0:0:
432,304,98973,1,0,0:0:0:0:
432,344,99064,1,0,0:0:0:0:
392,344,99154,1,0,0:0:0:0:
352,344,99245,1,0,0:0:0:0:
312,344,99336,1,0,0:0:0:0:
272,344,99427,1,0,0:0:0:0:
232,344,99518,1,0,0:0:0:0:
192,344,99609,5,0,0:0:0:0:
152,344,99700,1,0,0:0:0:0:
112,344,99791,1,0,0:0:0:0:
72,344,99882,1,0,0:0:0:0:
72,304,99973,1,0,0:0:0:0:
72,264,100064,1,0,0:0:0:0:
72,224,100154,1,0,0:0:0:0:
72,184,100245,1,0,0:0:0:0:
72,144,100336,1,0,0:0:0:0:
72,104,100427,1,0,0:0:0:0:
72,64,100518,5,0,0:0:0:0:
112,64,100609,1,0,0:0:0:0:
152,64,100700,1,0,0:0:0:0:
192,64,100791,1,0,0:0:0:0:
232,64,100882,1,0,0:0:0:0:
272,64,100973,1,0,0:0:0:0:
312,64,101064,1,0,0:0:0:0:
352,64,101155,1,0,0:0:0:0:
392,64,101245,1,0,0:0:0:0:
432,64,101336,1,0,0:0:0:0:
432,104,101427,5,0,0:0:0:0:
432,144,101518,1,0,0:0:0:0:
432,184,101609,1,0,0:0:0:0:
432,224,101700,1,0,0:0:0:0:
432,264,101791,1,0,0:0:0:0:
432,304,101882,1,0,0:0:0:0:
432,344,101973,1,0,0:0:0:0:
392,344,102064,1,0,0:0:0:0:
352,344,102155,1,0,0:0:0:0:
312,344,102245,1,0,0:0:0:0:
272,344,102336,5,0,0:0:0:0:
232,344,102427,1,0,0:0:0:0:
192,344,102518,1,0,0:0:0:0:
152,344,102609,1,0,0:0:0:0:
112,344,102700,1,0,0:0:0:0:
72,344,102791,1,0,0:0:0:0:
72,304,102882,1,0,0:0:0:0:
72,264,102973,1,0,0:0:0:0:
72,224,103064,1,0,0:0:0:0:
72,184,103155,1,0,0:0:0:0:
72,144,103245,5,0,0:0:0:0:
72,104,103336,1,0,0:0:0:0:
72,64,103427,1,0,0:0:0:0:
112,64,103518,1,0,0:0:0:0:
152,64,103609,1,0,0:0:0:0:
192,64,103700,1,0,0:0:0:0:
232,64,103791,1,0,0:0:0:0:
272,64,103882,1,0,0:0:0:0:
312,64,103973,1,0,0:0:0:0:
352,64,104064,1,0,0:0:0:0:
392,64,104154,1,0,0:0:0:0:
432,64,104245,1,0,0:0:0:0:
432,104,104336,5,0,0:0:0:0:
432,144,104427,1,0,0:0:0:0:
432,184,104518,1,0,0:0:0:0:
432,224,104609,1,0,0:0:0:0:
432,264,104700,1,0,0:0:0:0:
432,304,104791,1,0,0:0:0:0:
432,344,104882,1,0,0:0:0:0:
392,344,104973,1,0,0:0:0:0:
352,344,105064,1,0,0:0:0:0:
312,344,105154,1,0,0:0:0:0:
272,344,105245,5,0,0:0:0:0:
232,344,105336,1,0,0:0:0:0:
192,344,105427,1,0,0:0:0:0:
152,344,105518,1,0,0:0:0:0:
112,344,105609,1,0,0:0:0:0:
72,344,105700,1,0,0:0:0:0:
72,304,105791,1,0,0:0:0:0:
72,264,105882,1,0,0:0:0:0:
72,224,105973,1,0,0:0:0:0:
72,184,106064,1,0,0:0:0:0:
72,144,106154,5,0,0:0:0:0:
72,104,106245,1,0,0:0:0:0:
72,64,106336,1,0,0:0:0:0:
112,64,106427,1,0,0:0:0:0:
152,64,106518,1,0,0:0:0:0:
192,64,106609,1,0,0:0:0:0:
232,64,106700,1,0,0:0:0:0:
272,64,106791,1,0,0:0:0:0:
312,64,106882,1,0,0:0:0:0:
352,64,106973,1,0,0:0:0:0:
392,64,107063,1,0,0:0:0:0:
432,64,107154,1,0,0:0:0:0:
432,104,107245,5,0,0:0:0:0:
432,144,107336,1,0,0:0:0:0:
432,184,107427,1,0,0:0:0:0:
432,224,107518,1,0,0:0:0:0:
432,264,107609,1,0,0:0:0:0:
432,304,107700,1,0,0:0:0:0:
432,344,107791,1,0,0:0:0:0:
392,344,107882,1,0,0:0:0:0:
352,344,107973,1,0,0:0:0:0:
312,344,108063,1,0,0:0:0:0:
272,344,108154,5,0,0:0:0:0:
232,344,108245,1,0,0:0:0:0:
192,344,108336,1,0,0:0:0:0:
152,344,108427,1,0,0:0:0:0:
112,344,108518,1,0,0:0:0:0:
72,344,108609,1,0,0:0:0:0:
72,304,108700,1,0,0:0:0:0:
72,264,108791,1,0,0:0:0:0:
72,224,108882,1,0,0:0:0:0:
72,184,108973,1,0,0:0:0:0:
72,144,109063,5,0,0:0:0:0:
72,104,109154,1,0,0:0:0:0:
72,64,109245,1,0,0:0:0:0:
112,64,109336,1,0,0:0:0:0:
152,64,109427,1,0,0:0:0:0:
192,64,109518,1,0,0:0:0:0:
232,64,109609,1,0,0:0:0:0:
272,64,109700,1,0,0:0:0:0:
312,64,109791,1,0,0:0:0:0:
352,64,109882,1,0,0:0:0:0:
392,64,109972,1,0,0:0:0:0:
432,64,110063,1,0,0:0:0:0:
432,104,110154,5,0,0:0:0:0:
432,144,110245,1,0,0:0:0:0:
432,184,110336,1,0,0:0:0:0:
432,224,110427,1,0,0:0:0:0:
432,264,110518,1,0,0:0:0:0:
432,304,110609,1,0,0:0:0:0:
432,344,110700,1,0,0:0:0:0:
392,344,110791,1,0,0:0:0:0:
352,344,110882,1,0,0:0:0:0:
312,344,110972,1,0,0:0:0:0:
272,344,111063,5,0,0:0:0:0:
232,344,111154,1,0,0:0:0:0:
192,344,111245,1,0,0:0:0:0:
152,344,111336,1,0,0:0:0:0:
112,344,111427,1,0,0:0:0:0:
72,344,111518,1,0,0:0:0:0:
72,304,111609,1,0,0:0:0:0:
72,264,111700,1,0,0:0:0:0:
72,224,111791,1,0,0:0:0:0:
72,184,111882,1,0,0:0:0:0:
72,144,111972,5,0,0:0:0:0:
72,104,112063,1,0,0:0:0:0:
72,64,112155,1,0,0:0:0:0:
112,64,112245,1,0,0:0:0:0:
152,64,112336,1,0,0:0:0:0:
192,64,112427,1,0,0:0:0:0:
232,64,112518,1,0,0:0:0:0:
272,64,112609,1,0,0:0:0:0:
312,64,112700,1,0,0:0:0:0:
352,64,112791,1,0,0:0:0:0:
392,64,112881,1,0,0:0:0:0:
432,64,112972,1,0,0:0:0:0:
432,104,113063,5,0,0:0:0:0:
432,144,113154,1,0,0:0:0:0:
432,184,113245,1,0,0:0:0:0:
432,224,113336,1,0,0:0:0:0:
432,264,113427,1,0,0:0:0:0:
432,304,113518,1,0,0:0:0:0:
432,344,113609,1,0,0:0:0:0:
392,344,113700,1,0,0:0:0:0:
352,344,113791,1,0,0:0:0:0:
312,344,113881,1,0,0:0:0:0:
272,344,113972,5,0,0:0:0:0:
232,344,114063,1,0,0:0:0:0:
192,344,114154,1,0,0:0:0:0:
152,344,114245,1,0,0:0:0:0:
112,344,114336,1,0,0:0:0:0:
72,344,114427,1,0,0:0:0:0:
72,304,114518,1,0,0:0:0:0:
72,264,114609,1,0,0:0:0:0:
72,224,114700,1,0,0:0:0:0:
72,184,114791,1,0,0:0:0:0:
72,144,114881,5,0,0:0:0:0:
72,104,114972,1,0,0:0:0:0:
72,64,115064,1,0,0:0:0:0:
112,64,115155,1,0,0:0:0:0:
152,64,115246,1,0,0:0:0:0:
192,64,115337,1,0,0:0:0:0:
232,64,115428,1,0,0:0:0:0:
272,64,115519,1,0,0:0:0:0:
312,64,115610,1,0,0:0:0:0:
352,64,115701,1,0,0:0:0:0:
392,64,115791,1,0,0:0:0:0:
432,64,115882,1,0,0:0:0:0:
432,104,115973,5,0,0:0:0:0:
432,144,116064,1,0,0:0:0:0:
432,184,116155,1,0,0:0:0:0:
432,224,116246,1,0,0:0:0:0:
432,264,116337,1,0,0:0:0:0:
432,304,116428,1,0,0:0:0:0:
432,344,116519,1,0,0:0:0:0:
392,344,116610,1,0,0:0:0:0:
352,344,116701,1,0,0:0:0:0:
312,344,116791,1,0,0:0:0:0:
272,344,116882,5,0,0:0:0:0:
232,344,116973,1,0,0:0:0:0:
192,344,117064,1,0,0:0:0:0:
152,344,117155,1,0,0:0:0:0:
112,344,117246,1,0,0:0:0:0:
72,344,117337,1,0,0:0:0:0:
72,304,117428,1,0,0:0:0:0:
72,264,117519,1,0,0:0:0:0:
72,224,117610,1,0,0:0:0:0:
72,184,117701,1,0,0:0:0:0:
72,144,117791,5,0,0:0:0:0:
72,104,117882,1,0,0:0:0:0:
72,64,117973,1,0,0:0:0:0:
112,64,118064,1,0,0:0:0:0:
152,64,118155,1,0,0:0:0:0:
192,64,118246,1,0,0:0:0:0:
232,64,118337,1,0,0:0:0:0:
272,64,118428,1,0,0:0:0:0:
312,64,118519,1,0,0:0:0:0:
352,64,118610,1,0,0:0:0:0:
392,64,118700,1,0,0:0:0:0:
432,64,118791,1,0,0:0:0:0:
432,104,118882,5,0,0:0:0:0:
432,144,118973,1,0,0:0:0:0:
432,184,119064,1,0,0:0:0:0:
432,224,119155,1,0,0:0:0:0:
432,264,119246,1,0,0:0:0:0:
432,304,119337,1,0,0:0:0:0:
432,344,119428,1,0,0:0:0:0:
392,344,119519,1,0,0:0:0:0:
352,344,119610,1,0,0:0:0:0:
312,344,119700,1,0,0:0:0:0:
272,344,119791,5,0,0:0:0:0:
232,344,119882,1,0,0:0:0:0:
192,344,119973,1,0,0:0:0:0:
152,344,120064,1,0,0:0:0:0:
112,344,120155,1,0,0:0:0:0:
72,344,120246,1,0,0:0:0:0:
72,304,120337,1,0,0:0:0:0:
72,264,120428,1,0,0:0:0:0:
72,224,120519,1,0,0:0:0:0:
72,184,120610,1,0,0:0:0:0:
72,144,120700,5,0,0:0:0:0:
72,104,120791,1,0,0:0:0:0:
72,64,120882,1,0,0:0:0:0:
112,64,120973,1,0,0:0:0:0:
152,64,121064,1,0,0:0:0:0:
192,64,121155,1,0,0:0:0:0:
232,64,121246,1,0,0:0:0:0:
272,64,121337,1,0,0:0:0:0:
312,64,121428,1,0,0:0:0:0:
352,64,121519,1,0,0:0:0:0:
392,64,121609,1,0,0:0:0:0:
432,64,121700,1,0,0:0:0:0:
432,104,121791,5,0,0:0:0:0:
432,144,121882,1,0,0:0:0:0:
432,184,121973,1,0,0:0:0:0:
432,224,122064,1,0,0:0:0:0:
432,264,122155,1,0,0:0:0:0:
432,304,122246,1,0,0:0:0:0:
432,344,122337,1,0,0:0:0:0:
392,344,122428,1,0,0:0:0:0:
352,344,122519,1,0,0:0:0:0:
312,344,122609,1,0,0:0:0:0:
272,344,122700,5,0,0:0:0:0:
232,344,122791,1,0,0:0:0:0:
192,344,122882,1,0,0:0:0:0:
152,344,122973,1,0,0:0:0:0:
112,344,123064,1,0,0:0:0:0:
72,344,123155,1,0,0:0:0:0:
72,304,123246,1,0,0:0:0:0:
72,264,123337,1,0,0:0:0:0:
72,224,123428,1,0,0:0:0:0:
72,184,123519,1,0,0:0:0:0:
72,144,123609,5,0,0:0:0:0:
72,104,123700,1,0,0:0:0:0:
72,64,123791,1,0,0:0:0:0:
112,64,123882,1,0,0:0:0:0:
152,64,123973,1,0,0:0:0:0:
192,64,124064,1,0,0:0:0:0:
232,64,124155,1,0,0:0:0:0:
272,64,124246,1,0,0:0:0:0:
312,64,124337,1,0,0:0:0:0:
352,64,124428,1,0,0:0:0:0:
392,64,124518,1,0,0:0:0:0:
432,64,124609,1,0,0:0:0:0:
432,104,124700,5,0,0:0:0:0:
432,144,124791,1,0,0:0:0:0:
432,184,124882,1,0,0:0:0:0:
432,224,124973,1,0,0:0:0:0:
432,264,125064,1,0,0:0:0:0:
432,304,125155,1,0,0:0:0:0:
432,344,125246,1,0,0:0:0:0:
392,344,125337,1,0,0:0:0:0:
352,344,125428,1,0,0:0:0:0:
312,344,125518,1,0,0:0:0:0:
272,344,125609,5,0,0:0:0:0:
232,344,125700,1,0,0:0:0:0:
192,344,125791,1,0,0:0:0:0:
152,344,125882,1,0,0:0:0:0:
112,344,125973,1,0,0:0:0:0:
72,344,126064,1,0,0:0:0:0:
72,304,126155,1,0,0:0:0:0:
72,264,126246,1,0,0:0:0:0:
72,224,126337,1,0,0:0:0:0:
72,184,126428,1,0,0:0:0:0:
72,144,126518,5,0,0:0:0:0:
72,104,126609,1,0,0:0:0:0:
72,64,126700,1,0,0:0:0:0:
112,64,126791,1,0,0:0:0:0:
152,64,126882,1,0,0:0:0:0:
192,64,126973,1,0,0:0:0:0:
232,64,127064,1,0,0:0:0:0:
272,64,127155,1,0,0:0:0:0:
312,64,127246,1,0,0:0:0:0:
352,64,127337,1,0,0:0:0:0:
392,64,127427,1,0,0:0:0:0:
432,64,127518,1,0,0:0:0:0:
432,104,127609,5,0,0:0:0:0:
432,144,127700,1,0,0:0:0:0:
432,184,127791,1,0,0:0:0:0:
432,224,127882,1,0,0:0:0:0:
432,264,127973,1,0,0:0:0:0:
432,304,128064,1,0,0:0:0:0:
432,344,128155,1,0,0:0:0:0:
392,344,128246,1,0,0:0:0:0:
352,344,128337,1,0,0:0:0:0:
312,344,128427,1,0,0:0:0:0:
272,344,128518,5,0,0:0:0:0:
232,344,128609,1,0,0:0:0:0:
192,344,128700,1,0,0:0:0:0:
152,344,128791,1,0,0:0:0:0:
112,344,128882,1,0,0:0:0:0:
72,344,128973,1,0,0:0:0:0:
72,304,129064,1,0,0:0:0:0:
72,264,129155,1,0,0:0:0:0:
72,224,129246,1,0,0:0:0:0:
72,184,129337,1,0,0:0:0:0:
72,144,129427,5,0,0:0:0:0:
72,104,129518,1,0,0:0:0:0:
72,64,129609,1,0,0:0:0:0:
112,64,129700,1,0,0:0:0:0:
152,64,129791,1,0,0:0:0:0:
192,64,129882,1,0,0:0:0:0:
232,64,129973,1,0,0:0:0:0:
272,64,130064,1,0,0:0:0:0:
312,64,130155,1,0,0:0:0:0:
352,64,130246,1,0,0:0:0:0:
392,64,130336,1,0,0:0:0:0:
432,64,130427,1,0,0:0:0:0:
432,104,130518,5,0,0:0:0:0:
432,144,130609,1,0,0:0:0:0:
432,184,130700,1,0,0:0:0:0:
432,224,130791,1,0,0:0:0:0:
432,264,130882,1,0,0:0:0:0:
432,304,130973,1,0,0:0:0:0:
432,344,131064,1,0,0:0:0:0:
392,344,131155,1,0,0:0:0:0:
352,344,131246,1,0,0:0:0:0:
312,344,131336,1,0,0:0:0:0:
272,344,131427,5,0,0:0:0:0:
232,344,131518,1,0,0:0:0:0:
192,344,131609,1,0,0:0:0:0:
152,344,131700,1,0,0:0:0:0:
112,344,131791,1,0,0:0:0:0:
72,344,131882,1,0,0:0:0:0:
72,304,131973,1,0,0:0:0:0:
72,264,132064,1,0,0:0:0:0:
72,224,132155,1,0,0:0:0:0:
72,184,132246,1,0,0:0:0:0:
72,144,132336,5,0,0:0:0:0:
72,104,132427,1,0,0:0:0:0:
72,64,132518,1,0,0:0:0:0:
112,64,132609,1,0,0:0:0:0:
152,64,132700,1,0,0:0:0:0:
192,64,132791,1,0,0:0:0:0:
232,64,132882,1,0,0:0:0:0:
272,64,132973,1,0,0:0:0:0:
312,64,133064,1,0,0:0:0:0:
352,64,133155,1,0,0:0:0:0:
392,64,133245,1,0,0:0:0:0:
432,64,133336,1,0,0:0:0:0:
432,104,133427,5,0,0:0:0:0:
432,144,133518,1,0,0:0:0:0:
432,184,133609,1,0,0:0:0:0:
432,224,133700,1,0,0:0:0:0:
432,264,133791,1,0,0:0:0:0:
432,304,133882,1,0,0:0:0:0:
432,344,133973,1,0,0:0:0:0:
392,344,134064,1,0,0:0:0:0:
352,344,134155,1,0,0:0:0:0:
312,344,134245,1,0,0:0:0:0:
272,344,134336,5,0,0:0:0:0:
232,344,134427,1,0,0:0:0:0:
192,344,134518,1,0,0:0:0:0:
152,344,134609,1,0,0:0:0:0:
112,344,134700,1,0,0:0:0:0:
72,344,134791,1,0,0:0:0:0:
72,304,134882,1,0,0:0:0:0:
72,264,134973,1,0,0:0:0:0:
72,224,135064,1,0,0:0:0:0:
72,184,135155,1,0,0:0:0:0:
72,144,135245,5,0,0:0:0:0:
72,104,135336,1,0,0:0:0:0:
72,64,135427,1,0,0:0:0:0:
112,64,135518,1,0,0:0:0:0:
152,64,135609,1,0,0:0:0:0:
192,64,135700,1,0,0:0:0:0:
232,64,135791,1,0,0:0:0:0:
272,64,135882,1,0,0:0:0:0:
312,64,135973,1,0,0:0:0:0:
352,64,136064,1,0,0:0:0:0:
392,64,136154,1,0,0:0:0:0:
432,64,136245,1,0,0:0:0:0:
432,104,136336,5,0,0:0:0:0:
432,144,136427,1,0,0:0:0:0:
432,184,136518,1,0,0:0:0:0:
432,224,136609,1,0,0:0:0:0:
432,264,136700,1,0,0:0:0:0:
432,304,136791,1,0,0:0:0:0:
432,344,136882,1,0,0:0:0:0:
392,344,136973,1,0,0:0:0:0:
352,344,137064,1,0,0:0:0:0:
312,344,137154,1,0,0:0:0:0:
272,344,137245,5,0,0:0:0:0:
232,344,137336,1,0,0:0:0:0:
192,344,137427,1,0,0:0:0:0:
152,344,137518,1,0,0:0:0:0:
112,344,137609,1,0,0:0:0:0:
72,344,137700,1,0,0:0:0:0:
72,304,137791,1,0,0:0:0:0:
72,264,137882,1,0,0:0:0:0:
72,224,137973,1,0,0:0:0:0:
72,184,138064,1,0,0:0:0:0:
72,144,138154,5,0,0:0:0:0:
72,104,138245,1,0,0:0:0:0:
72,64,138336,1,0,0:0:0:0:
112,64,138427,1,0,0:0:0:0:
152,64,138518,1,0,0:0:0:0:
192,64,138609,1,0,0:0:0:0:
232,64,138700,1,0,0:0:0:0:
272,64,138791,1,0,0:0:0:0:
312,64,138882,1,0,0:0:0:0:
352,64,138973,1,0,0:0:0:0:
392,64,139063,1,0,0:0:0:0:
432,64,139154,1,0,0:0:0:0:
432,104,139245,5,0,0:0:0:0:
432,144,139336,1,0,0:0:0:0:
432,184,139427,1,0,0:0:0:0:
432,224,139518,1,0,0:0:0:0:
432,264,139609,1,0,0:0:0:0:
432,304,139700,1,0,0:0:0:0:
432,344,139791,1,0,0:0:0:0:
392,344,139882,1,0,0:0:0:0:
352,344,139973,1,0,0:0:0:0:
312,344,140063,1,0,0:0:0:0:
272,344,140154,5,0,0:0:0:0:
232,344,140245,1,0,0:0:0:0:
192,344,140336,1,0,0:0:0:0:
152,344,140427,1,0,0:0:0:0:
112,344,140518,1,0,0:0:0:0:
72,344,140609,1,0,0:0:0:0:
72,304,140700,1,0,0:0:0:0:
72,264,140791,1,0,0:0:0:0:
72,224,140882,1,0,0:0:0:0:
72,184,140973,1,0,0:0:0:0:
72,144,141063,5,0,0:0:0:0:
72,104,141154,1,0,0:0:0:0:
72,64,141245,1,0,0:0:0:0:
112,64,141336,1,0,0:0:0:0:
152,64,141427,1,0,0:0:0:0:
192,64,141518,1,0,0:0:0:0:
232,64,141609,1,0,0:0:0:0:
272,64,141700,1,0,0:0:0:0:
312,64,141791,1,0,0:0:0:0:
352,64,141882,1,0,0:0:0:0:
392,64,141972,1,0,0:0:0:0:
432,64,142063,1,0,0:0:0:0:
432,104,142154,5,0,0:0:0:0:
432,144,142245,1,0,0:0:0:0:
432,184,142336,1,0,0:0:0:0:
432,224,142427,1,0,0:0:0:0:
432,264,142518,1,0,0:0:0:0:
432,304,142609,1,0,0:0:0:0:
432,344,142700,1,0,0:0:0:0:
392,344,142791,1,0,0:0:0:0:
352,344,142882,1,0,0:0:0:0:
312,344,142972,1,0,0:0:0:0:
272,344,143063,5,0,0:0:0:0:
232,344,143154,1,0,0:0:0:0:
192,344,143245,1,0,0:0:0:0:
152,344,143336,1,0,0:0:0:0:
112,344,143427,1,0,0:0:0:0:
72,344,143518,1,0,0:0:0:0:
72,304,143609,1,0,0:0:0:0:
72,264,143700,1,0,0:0:0:0:
72,224,143791,1,0,0:0:0:0:
72,184,143882,1,0,0:0:0:0:
72,144,143972,5,0,0:0:0:0:
72,104,144063,1,0,0:0:0:0:
72,64,144155,1,0,0:0:0:0:
112,64,144245,1,0,0:0:0:0:
152,64,144336,1,0,0:0:0:0:
192,64,144427,1,0,0:0:0:0:
232,64,144518,1,0,0:0:0:0:
272,64,144609,1,0,0:0:0:0:
312,64,144700,1,0,0:0:0:0:
352,64,144791,1,0,0:0:0:0:
392,64,144881,1,0,0:0:0:0:
432,64,144972,1,0,0:0:0:0:
432,104,145063,5,0,0:0:0:0:
432,144,145154,1,0,0:0:0:0:
432,184,145245,1,0,0:0:0:0:
432,224,145336,1,0,0:0:0:0:
432,264,145427,1,0,0:0:0:0:
432,304,145518,1,0,0:0:0:0:
432,344,145609,1,0,0:0:0:0:
392,344,145700,1,0,0:0:0:0:
352,344,145791,1,0,0:0:0:0:
312,344,145881,1,0,0:0:0:0:
272,344,145972,5,0,0:0:0:0:
232,344,146063,1,0,0:0:0:0:
192,344,146154,1,0,0:0:0:0:
152,344,146245,1,0,0:0:0:0:
112,344,146336,1,0,0:0:0:0:
72,344,146427,1,0,0:0:0:0:
72,304,146518,1,0,0:0:0:0:
72,264,146609,1,0,0:0:0:0:
72,224,146700,1,0,0:0:0:0:
72,184,146791,1,0,0:0:0:0:
72,144,146881,5,0,0:0:0:0:
72,104,146972,1,0,0:0:0:0:
72,64,147064,1,0,0:0:0:0:
112,64,147155,1,0,0:0:0:0:
152,64,147246,1,0,0:0:0:0:
192,64,147337,1,0,0:0:0:0:
232,64,147428,1,0,0:0:0:0:
272,64,147519,1,0,0:0:0:0:
312,64,147610,1,0,0:0:0:0:
352,64,147701,1,0,0:0:0:0:
392,64,147791,1,0,0:0:0:0:
432,64,147882,1,0,0:0:0:0:
432,104,147973,5,0,0:0:0:0:
432,144,148064,1,0,0:0:0:0:
432,184,148155,1,0,0:0:0:0:
432,224,148246,1,0,0:0:0:0:
432,264,148337,1,0,0:0:0:0:
432,304,148428,1,0,0:0:0:0:
432,344,148519,1,0,0:0:0:0:
392,344,148610,1,0,0:0:0:0:
352,344,148701,1,0,0:0:0:0:
312,344,148791,1,0,0:0:0:0:
272,344,148882,5,0,0:0:0:0:
232,344,148973,1,0,0:0:0:0:
192,344,149064,1,0,0:0:0:0:
152,344,149155,1,0,0:0:0:0:
112,344,149246,1,0,0:0:0:0:
72,344,149337,1,0,0:0:0:0:
72,304,149428,1,0,0:0:0:0:
72,264,149519,1,0,0:0:0:0:
72,224,149610,1,0,0:0:0:0:
72,184,149701,1,0,0:0:0:0:
72,144,149791,5,0,0:0:0:0:
72,104,149882,1,0,0:0:0:0:
72,64,149973,1,0,0:0:0:0:
112,64,150064,1,0,0:0:0:0:
152,64,150155,1,0,0:0:0:0:
192,64,150246,1,0,0:0:0:0:
232,64,150337,1,0,0:0:0:0:
272,64,150428,1,0,0:0:0:0:
312,64,150519,1,0,0:0:0:0:
352,64,150610,1,0,0:0:0:0:
392,64,150700,1,0,0:0:0:0:
432,64,150791,1,0,0:0:0:0:
432,104,150882,5,0,0:0:0:0:
432,144,150973,1,0,0:0:0:0:
432,184,151064,1,0,0:0:0:0:
432,224,151155,1,0,0:0:0:0:
432,264,151246,1,0,0:0:0:0:
432,304,151337,1,0,0:0:0:0:
432,344,151428,1,0,0:0:0:0:
392,344,151519,1,0,0:0:0:0:
352,344,151610,1,0,0:0:0:0:
312,344,151700,1,0,0:0:0:0:
272,344,151791,5,0,0:0:0:0:
232,344,151882,1,0,0:0:0:0:
192,344,151973,1,0,0:0:0:0:
152,344,152064,1,0,0:0:0:0:
112,344,152155,1,0,0:0:0:0:
72,344,152246,1,0,0:0:0:0:
72,304,152337,1,0,0:0:0:0:
72,264,152428,1,0,0:0:0:0:
72,224,152519,1,0,0:0:0:0:
72,184,152610,1,0,0:0:0:0:
72,144,152700,5,0,0:0:0:0:
72,104,152791,1,0,0:0:0:0:
72,64,152882,1,0,0:0:0:0:
112,64,152973,1,0,0:0:0:0:
152,64,153064,1,0,0:0:0:0:
192,64,153155,1,0,0:0:0:0:
232,64,153246,1,0,0:0:0:0:
272,64,153337,1,0,0:0:0:0:
312,64,153428,1,0,0:0:0:0:
352,64,153519,1,0,0:0:0:0:
392,64,153609,1,0,0:0:0:0:
432,64,153700,1,0,0:0:0:0:
432,104,153791,5,0,0:0:0:0:
432,144,153882,1,0,0:0:0:0:
432,184,153973,1,0,0:0:0:0:
432,224,154064,1,0,0:0:0:0:
432,264,154155,1,0,0:0:0:0:
432,304,154246,1,0,0:0:0:0:
432,344,154337,1,0,0:0:0:0:
392,344,154428,1,0,0:0:0:0:
352,344,154519,1,0,0:0:0:0:
312,344,154609,1,0,0:0:0:0:
272,344,154700,5,0,0:0:0:0:
232,344,154791,1,0,0:0:0:0:
192,344,154882,1,0,0:0:0:0:
152,344,154973,1,0,0:0:0:0:
112,344,155064,1,0,0:0:0:0:
72,344,155155,1,0,0:0:0:0:
72,304,155246,1,0,0:0:0:0:
72,264,155337,1,0,0:0:0:0:
72,224,155428,1,0,0:0:0:0:
72,184,155519,1,0,0:0:0:0:
72,144,155609,5,0,0:0:0:0:
72,104,155700,1,0,0:0:0:0:
72,64,155791,1,0,0:0:0:0:
112,64,155882,1,0,0:0:0:0:
152,64,155973,1,0,0:0:0:0:
192,64,156064,1,0,0:0:0:0:
232,64,156155,1,0,0:0:0:0:
272,64,156246,1,0,0:0:0:0:
312,64,156337,1,0,0:0:0:0:
352,64,156428,1,0,0:0:0:0:
392,64,156518,1,0,0:0:0:0:
432,64,156609,1,0,0:0:0:0:
432,104,156700,5,0,0:0:0:0:
432,144,156791,1,0,0:0:0:0:
432,184,156882,1,0,0:0:0:0:
432,224,156973,1,0,0:0:0:0:
432,264,157064,1,0,0:0:0:0:
432,304,157155,1,0,0:0:0:0:
432,344,157246,1,0,0:0:0:0:
392,344,157337,1,0,0:0:0:0:
352,344,157428,1,0,0:0:0:0:
312,344,157518,1,0,0:0:0:0:
272,344,157609,5,0,0:0:0:0:
232,344,157700,1,0,0:0:0:0:
192,344,157791,1,0,0:0:0:0:
152,344,157882,1,0,0:0:0:0:
112,344,157973,1,0,0:0:0:0:
72,344,158064,1,0,0:0:0:0:
72,304,158155,1,0,0:0:0:0:
72,264,158246,1,0,0:0:0:0:
72,224,158337,1,0,0:0:0:0:
72,184,158428,1,0,0:0:0:0:
72,144,158518,5,0,0:0:0:0:
72,104,158609,1,0,0:0:0:0:
72,64,158700,1,0,0:0:0:0:
112,64,158791,1,0,0:0:0:0:
152,64,158882,1,0,0:0:0:0:
192,64,158973,1,0,0:0:0:0:
232,64,159064,1,0,0:0:0:0:
272,64,159155,1,0,0:0:0:0:
312,64,159246,1,0,0:0:0:0:
352,64,159337,1,0,0:0:0:0:
392,64,159427,1,0,0:0:0:0:
432,64,159518,1,0,0:0:0:0:
432,104,159609,5,0,0:0:0:0:
432,144,159700,1,0,0:0:0:0:
432,184,159791,1,0,0:0:0:0:
432,224,159882,1,0,0:0:0:0:
432,264,159973,1,0,0:0:0:0:
432,304,160064,1,0,0:0:0:0:
432,344,160155,1,0,0:0:0:0:
392,344,160246,1,0,0:0:0:0:
352,344,160337,1,0,0:0:0:0:
312,344,160427,1,0,0:0:0:0:
272,344,160518,5,0,0:0:0:0:
232,344,160609,1,0,0:0:0:0:
192,344,160700,1,0,0:0:0:0:
152,344,160791,1,0,0:0:0:0:
112,344,160882,1,0,0:0:0:0:
72,344,160973,1,0,0:0:0:0:
72,304,161064,1,0,0:0:0:0:
72,264,161155,1,0,0:0:0:0:
72,224,161246,1,0,0:0:0:0:
72,184,161337,1,0,0:0:0:0:
72,144,161427,5,0,0:0:0:0:
72,104,161518,1,0,0:0:0:0:
72,64,161609,1,0,0:0:0:0:
112,64,161700,1,0,0:0:0:0:
152,64,161791,1,0,0:0:0:0:
192,64,161882,1,0,0:0:0:0:
232,64,161973,1,0,0:0:0:0:
272,64,162064,1,0,0:0:0:0:
312,64,162155,1,0,0:0:0:0:
352,64,162246,1,0,0:0:0:0:
392,64,162336,1,0,0:0:0:0:
432,64,162427,1,0,0:0:0:0:
432,104,162518,5,0,0:0:0:0:
432,144,162609,1,0,0:0:0:0:
432,184,162700,1,0,0:0:0:0:
432,224,162791,1,0,0:0:0:0:
432,264,162882,1,0,0:0:0:0:
432,304,162973,1,0,0:0:0:0:
432,344,163064,1,0,0:0:0:0:
392,344,163155,1,0,0:0:0:0:
352,344,163246,1,0,0:0:0:0:
312,344,163336,1,0,0:0:0:0:
272,344,163427,5,0,0:0:0:0:
232,344,163518,1,0,0:0:0:0:
192,344,163609,1,0,0:0:0:0:
152,344,163700,1,0,0:0:0:0:
112,344,163791,1,0,0:0:0:0:
72,344,163882,1,0,0:0:0:0:
72,304,163973,1,0,0:0:0:0:
72,264,164064,1,0,0:0:0:0:
72,224,164155,1,0,0:0:0:0:
72,184,164246,1,0,0:0:0:0:
72,144,164336,5,0,0:0:0:0:
72,104,164427,1,0,0:0:0:0:
72,64,164518,1,0,0:0:0:0:
112,64,164609,1,0,0:0:0:0:
152,64,164700,1,0,0:0:0:0:
192,64,164791,1,0,0:0:0:0:
232,64,164882,1,0,0:0:0:0:
272,64,164973,1,0,0:0:0:0:
312,64,165064,1,0,0:0:0:0:
352,64,165155,1,0,0:0:0:0:
392,64,165245,1,0,0:0:0:0:
432,64,165336,1,0,0:0:0:0:
432,104,165427,5,0,0:0:0:0:
432,144,165518,1,0,0:0:0:0:
432,184,165609,1,0,0:0:0:0:
432,224,165700,1,0,0:0:0:0:
432,264,165791,1,0,0:0:0:0:
432,304,165882,1,0,0:0:0:0:
432,344,165973,1,0,0:0:0:0:
392,344,166064,1,0,0:0:0:0:
352,344,166155,1,0,0:0:0:0:
312,344,166245,1,0,0:0:0:0:
272,344,166336,5,0,0:0:0:0:
232,344,166427,1,0,0:0:0:0:
192,344,166518,1,0,0:0:0:0:
152,344,166609,1,0,0:0:0:0:
112,344,166700,1,0,0:0:0:0:
72,344,166791,1,0,0:0:0:0:
72,304,166882,1,0,0:0:0:0:
72,264,166973,1,0,0:0:0:0:
72,224,167064,1,0,0:0:0:0:
72,184,167155,1,0,0:0:0:0:
72,144,167245,5,0,0:0:0:0:
72,104,167336,1,0,0:0:0:0:
72,64,167427,1,0,0:0:0:0:
112,64,167518,1,0,0:0:0:0:
152,64,167609,1,0,0:0:0:0:
192,64,167700,1,0,0:0:0:0:
232,64,167791,1,0,0:0:0:0:
272,64,167882,1,0,0:0:0:0:
312,64,167973,1,0,0:0:0:0:
352,64,168064,1,0,0:0:0:0:
392,64,168154,1,0,0:0:0:0:
432,64,168245,1,0,0:0:0:0:
432,104,168336,5,0,0:0:0:0:
432,144,168427,1,0,0:0:0:0:
432,184,168518,1,0,0:0:0:0:
432,224,168609,1,0,0:0:0:0:
432,264,168700,1,0,0:0:0:0:
432,304,168791,1,0,0:0:0:0:
432,344,168882,1,0,0:0:0:0:
392,344,168973,1,0,0:0:0:0:
352,344,169064,1,0,0:0:0:0:
312,344,169154,1,0,0:0:0:0:
272,344,169245,5,0,0:0:0:0:
232,344,169336,1,0,0:0:0:0:
192,344,169427,1,0,0:0:0:0:
152,344,169518,1,0,0:0:0:0:
112,344,169609,1,0,0:0:0:0:
72,344,169700,1,0,0:0:0:0:
72,304,169791,1,0,0:0:0:0:
72,264,169882,1,0,0:0:0:0:
72,224,169973,1,0,0:0:0:0:
72,184,170064,1,0,0:0:0:0:
72,144,170155,5,0,0:0:0:0:
72,104,170245,1,0,0:0:0:0:
72,64,170336,1,0,0:0:0:0:
112,64,170427,1,0,0:0:0:0:
152,64,170518,1,0,0:0:0:0:
192,64,170609,1,0,0:0:0:0:
232,64,170700,1,0,0:0:0:0:
272,64,170791,1,0,0:0:0:0:
312,64,170882,1,0,0:0:0:0:
352,64,170973,1,0,0:0:0:0:
392,64,171063,1,0,0:0:0:0:
432,64,171154,1,0,0:0:0:0:
432,104,171245,5,0,0:0:0:0:
432,144,171336,1,0,0:0:0:0:
432,184,171427,1,0,0:0:0:0:
432,224,171518,1,0,0:0:0:0:
432,264,171609,1,0,0:0:0:0:
432,304,171700,1,0,0:0:0:0:
432,344,171791,1,0,0:0:0:0:
392,344,171882,1,0,0:0:0:0:
352,344,171973,1,0,0:0:0:0:
312,344,172063,1,0,0:0:0:0:
272,344,172154,5,0,0:0:0:0:
232,344,172245,1,0,0:0:0:0:
192,344,172336,1,0,0:0:0:0:
152,344,172427,1,0,0:0:0:0:
112,344,172518,1,0,0:0:0:0:
72,344,172609,1,0,0:0:0:0:
72,304,172700,1,0,0:0:0:0:
72,264,172791,1,0,0:0:0:0:
72,224,172882,1,0,0:0:0:0:
72,184,172973,1,0,0:0:0:0:
72,144,173064,5,0,0:0:0:0:
72,104,173154,1,0,0:0:0:0:
72,64,173245,1,0,0:0:0:0:
112,64,173336,1,0,0:0:0:0:
152,64,173427,1,0,0:0:0:0:
192,64,173518,1,0,0:0:0:0:
232,64,173609,1,0,0:0:0:0:
272,64,173700,1,0,0:0:0:0:
312,64,173791,1,0,0:0:0:0:
352,64,173882,1,0,0:0:0:0:
392,64,173972,1,0,0:0:0:0:
432,64,174063,1,0,0:0:0:0:
432,104,174154,5,0,0:0:0:0:
432,144,174245,1,0,0:0:0:0:
432,184,174336,1,0,0:0:0:0:
432,224,174427,1,0,0:0:0:0:
432,264,174518,1,0,0:0:0:0:
432,304,174609,1,0,0:0:0:0:
432,344,174700,1,0,0:0:0:0:
392,344,174791,1,0,0:0:0:0:
352,344,174882,1,0,0:0:0:0:
312,344,174972,1,0,0:0:0:0:
272,344,175063,5,0,0:0:0:0:
232,344,175154,1,0,0:0:0:0:
192,344,175245,1,0,0:0:0:0:
152,344,175336,1,0,0:0:0:0:
112,344,175427,1,0,0:0:0:0:
72,344,175518,1,0,0:0:0:0:
72,304,175609,1,0,0:0:0:0:
72,264,175700,1,0,0:0:0:0:
72,224,175791,1,0,0:0:0:0:
72,184,175882,1,0,0:0:0:0:
72,144,175973,5,0,0:0:0:0:
72,104,176063,1,0,0:0:0:0:
72,64,176155,1,0,0:0:0:0:
112,64,176246,1,0,0:0:0:0:
152,64,176337,1,0,0:0:0:0:
192,64,176428,1,0,0:0:0:0:
232,64,176519,1,0,0:0:0:0:
272,64,176610,1,0,0:0:0:0:
312,64,176701,1,0,0:0:0:0:
352,64,176792,1,0,0:0:0:0:
392,64,176882,1,0,0:0:0:0:
432,64,176973,1,0,0:0:0:0:
432,104,177064,5,0,0:0:0:0:
432,144,177155,1,0,0:0:0:0:
432,184,177246,1,0,0:0:0:0:
432,224,177337,1,0,0:0:0:0:
432,264,177428,1,0,0:0:0:0:
432,304,177519,1,0,0:0:0:0:
432,344,177610,1,0,0:0:0:0:
392,344,177701,1,0,0:0:0:0:
352,344,177792,1,0,0:0:0:0:
312,344,177882,1,0,0:0:0:0:
272,344,177973,5,0,0:0:0:0:
232,344,178064,1,0,0:0:0:0:
192,344,178155,1,0,0:0:0:0:
152,344,178246,1,0,0:0:0:0:
112,344,178337,1,0,0:0:0:0:
72,344,178428,1,0,0:0:0:0:
72,304,178519,1,0,0:0:0:0:
72,264,178610,1,0,0:0:0:0:
72,224,178701,1,0,0:0:0:0:
72,184,178792,1,0,0:0:0:0:
72,144,178883,5,0,0:0:0:0:
72,104,178973,1,0,0:0:0:0:
72,64,179064,1,0,0:0:0:0:
112,64,179155,1,0,0:0:0:0:
152,64,179246,1,0,0:0:0:0:
192,64,179337,1,0,0:0:0:0:
232,64,179428,1,0,0:0:0:0:
272,64,179519,1,0,0:0:0:0:
312,64,179610,1,0,0:0:0:0:
352,64,179701,1,0,0:0:0:0:
392,64,179791,1,0,0:0:0:0:
432,64,179882,1,0,0:0:0:0:
432,104,179973,5,0,0:0:0:0:
432,144,180064,1,0,0:0:0:0:
432,184,180155,1,0,0:0:0:0:
432,224,180246,1,0,0:0:0:0:
432,264,180337,1,0,0:0:0:0:
432,304,180428,1,0,0:0:0:0:
432,344,180519,1,0,0:0:0:0:
392,344,180610,1,0,0:0:0:0:
352,344,180701,1,0,0:0:0:0:
312,344,180791,1,0,0:0:0:0:
272,344,180882,5,0,0:0:0:0:
232,344,180973,1,0,0:0:0:0:
192,344,181064,1,0,0:0:0:0:
152,344,181155,1,0,0:0:0:0:
112,344,181246,1,0,0:0:0:0:
72,344,181337,1,0,0:0:0:0:
72,304,181428,1,0,0:0:0:0:
72,264,181519,1,0,0:0:0:0:
72,224,181610,1,0,0:0:0:0:
72,184,181701,1,0,0:0:0:0:
72,144,181792,5,0,0:0:0:0:
72,104,181882,1,0,0:0:0:0:
72,64,181973,1,0,0:0:0:0:
112,64,182064,1,0,0:0:0:0:
152,64,182155,1,0,0:0:0:0:
192,64,182246,1,0,0:0:0:0:
232,64,182337,1,0,0:0:0:0:
272,64,182428,1,0,0:0:0:0:
312,64,182519,1,0,0:0:0:0:
352,64,182610,1,0,0:0:0:0:
392,64,182700,1,0,0:0:0:0:
432,64,182791,1,0,0:0:0:0:
432,104,182882,5,0,0:0:0:0:
432,144,182973,1,0,0:0:0:0:
432,184,183064,1,0,0:0:0:0:
432,224,183155,1,0,0:0:0:0:
432,264,183246,1,0,0:0:0:0:
432,304,183337,1,0,0:0:0:0:
432,344,183428,1,0,0:0:0:0:
392,344,183519,1,0,0:0:0:0:
352,344,183610,1,0,0:0:0:0:
312,344,183700,1,0,0:0:0:0:
272,344,183791,5,0,0:0:0:0:
232,344,183882,1,0,0:0:0:0:
192,344,183973,1,0,0:0:0:0:
152,344,184064,1,0,0:0:0:0:
112,344,184155,1,0,0:0:0:0:
72,344,184246,1,0,0:0:0:0:
72,304,184337,1,0,0:0:0:0:
72,264,184428,1,0,0:0:0:0:
72,224,184519,1,0,0:0:0:0:
72,184,184610,1,0,0:0:0:0:
72,144,184701,5,0,0:0:0:0:
72,104,184791,1,0,0:0:0:0:
72,64,184882,1,0,0:0:0:0:
112,64,184973,1,0,0:0:0:0:
152,64,185064,1,0,0:0:0:0:
192,64,185155,1,0,0:0:0:0:
232,64,185246,1,0,0:0:0:0:
272,64,185337,1,0,0:0:0:0:
312,64,185428,1,0,0:0:0:0:
352,64,185519,1,0,0:0:0:0:
392,64,185609,1,0,0:0:0:0:
432,64,185700,1,0,0:0:0:0:
432,104,185791,5,0,0:0:0:0:
432,144,185882,1,0,0:0:0:0:
432,184,185973,1,0,0:0:0:0:
432,224,186064,1,0,0:0:0:0:
432,264,186155,1,0,0:0:0:0:
432,304,186246,1,0,0:0:0:0:
432,344,186337,1,0,0:0:0:0:
392,344,186428,1,0,0:0:0:0:
352,344,186519,1,0,0:0:0:0:
312,344,186609,1,0,0:0:0:0:
272,344,186700,5,0,0:0:0:0:
232,344,186791,1,0,0:0:0:0:
192,344,186882,1,0,0:0:0:0:
152,344,186973,1,0,0:0:0:0:
112,344,187064,1,0,0:0:0:0:
72,344,187155,1,0,0:0:0:0:
72,304,187246,1,0,0:0:0:0:
72,264,187337,1,0,0:0:0:0:
72,224,187428,1,0,0:0:0:0:
72,184,187519,1,0,0:0:0:0:
72,144,187610,5,0,0:0:0:0:
72,104,187700,1,0,0:0:0:0:
72,64,187791,1,0,0:0:0:0:
112,64,187882,1,0,0:0:0:0:
152,64,187973,1,0,0:0:0:0:
192,64,188064,1,0,0:0:0:0:
232,64,188155,1,0,0:0:0:0:
272,64,188246,1,0,0:0:0:0:
312,64,188337,1,0,0:0:0:0:
352,64,188428,1,0,0:0:0:0:
392,64,188518,1,0,0:0:0:0:
432,64,188609,1,0,0:0:0:0:
432,104,188700,5,0,0:0:0:0:
432,144,188791,1,0,0:0:0:0:
432,184,188882,1,0,0:0:0:0:
432,224,188973,1,0,0:0:0:0:
432,264,189064,1,0,0:0:0:0:
432,304,189155,1,0,0:0:0:0:
432,344,189246,1,0,0:0:0:0:
392,344,189337,1,0,0:0:0:0:
352,344,189428,1,0,0:0:0:0:
312,344,189518,1,0,0:0:0:0:
272,344,189609,5,0,0:0:0:0:
232,344,189700,1,0,0:0:0:0:
192,344,189791,1,0,0:0:0:0:
152,344,189882,1,0,0:0:0:0:
112,344,189973,1,0,0:0:0:0:
72,344,190064,1,0,0:0:0:0:
72,304,190155,1,0,0:0:0:0:
72,264,190246,1,0,0:0:0:0:
72,224,190337,1,0,0:0:0:0:
72,184,190428,1,0,0:0:0:0:
72,144,190519,5,0,0:0:0:0:
72,104,190609,1,0,0:0:0:0:
72,64,190700,1,0,0:0:0:0:
112,64,190791,1,0,0:0:0:0:
152,64,190882,1,0,0:0:0:0:
192,64,190973,1,0,0:0:0:0:
232,64,191064,1,0,0:0:0:0:
272,64,191155,1,0,0:0:0:0:
312,64,191246,1,0,0:0:0:0:
352,64,191337,1,0,0:0:0:0:
392,64,191427,1,0,0:0:0:0:
432,64,191518,1,0,0:0:0:0:
432,104,191609,5,0,0:0:0:0:
432,144,191700,1,0,0:0:0:0:
432,184,191791,1,0,0:0:0:0:
432,224,191882,1,0,0:0:0:0:
432,264,191973,1,0,0:0:0:0:
432,304,192064,1,0,0:0:0:0:
432,344,192155,1,0,0:0:0:0:
392,344,192246,1,0,0:0:0:0:
352,344,192337,1,0,0:0:0:0:
312,344,192427,1,0,0:0:0:0:
272,344,192518,5,0,0:0:0:0:
232,344,192609,1,0,0:0:0:0:
192,344,192700,1,0,0:0:0:0:
152,344,192791,1,0,0:0:0:0:
112,344,192882,1,0,0:0:0:0:
72,344,192973,1,0,0:0:0:0:
72,304,193064,1,0,0:0:0:0:
72,264,193155,1,0,0:0:0:0:
72,224,193246,1,0,0:0:0:0:
72,184,193337,1,0,0:0:0:0:
72,144,193428,5,0,0:0:0:0:
72,104,193518,1,0,0:0:0:0:
72,64,193609,1,0,0:0:0:0:
112,64,193700,1,0,0:0:0:0:
152,64,193791,1,0,0:0:0:0:
192,64,193882,1,0,0:0:0:0:
232,64,193973,1,0,0:0:0:0:
272,64,194064,1,0,0:0:0:0:
312,64,194155,1,0,0:0:0:0:
352,64,194246,1,0,0:0:0:0:
392,64,194336,1,0,0:0:0:0:
432,64,194427,1,0,0:0:0:0:
432,104,194518,5,0,0:0:0:0:
432,144,194609,1,0,0:0:0:0:
432,184,194700,1,0,0:0:0:0:
432,224,194791,1,0,0:0:0:0:
432,264,194882,1,0,0:0:0:0:
432,304,194973,1,0,0:0:0:0:
432,344,195064,1,0,0:0:0:0:
392,344,195155,1,0,0:0:0:0:
352,344,195246,1,0,0:0:0:0:
312,344,195336,1,0,0:0:0:0:
272,344,195427,5,0,0:0:0:0:
232,344,195518,1,0,0:0:0:0:
192,344,195609,1,0,0:0:0:0:
152,344,195700,1,0,0:0:0:0:
112,344,195791,1,0,0:0:0:0:
72,344,195882,1,0,0:0:0:0:
72,304,195973,1,0,0:0:0:0:
72,264,196064,1,0,0:0:0:0:
72,224,196155,1,0,0:0:0:0:
72,184,196246,1,0,0:0:0:0:
72,144,196337,5,0,0:0:0:0:
72,104,196427,1,0,0:0:0:0:
72,64,196518,1,0,0:0:0:0:
112,64,196609,1,0,0:0:0:0:
152,64,196700,1,0,0:0:0:0:
192,64,196791,1,0,0:0:0:0:
232,64,196882,1,0,0:0:0:0:
272,64,196973,1,0,0:0:0:0:
312,64,197064,1,0,0:0:0:0:
352,64,197155,1,0,0:0:0:0:
392,64,197245,1,0,0:0:0:0:
432,64,197336,1,0,0:0:0:0:
432,104,197427,5,0,0:0:0:0:
432,144,197518,1,0,0:0:0:0:
432,184,197609,1,0,0:0:0:0:
432,224,197700,1,0,0:0:0:0:
432,264,197791,1,0,0:0:0:0:
432,304,197882,1,0,0:0:0:0:
432,344,197973,1,0,0:0:0:0:
392,344,198064,1,0,0:0:0:0:
352,344,198155,1,0,0:0:0:0:
312,344,198245,1,0,0:0:0:0:
272,344,198336,5,0,0:0:0:0:
232,344,198427,1,0,0:0:0:0:
192,344,198518,1,0,0:0:0:0:
152,344,198609,1,0,0:0:0:0:
112,344,198700,1,0,0:0:0:0:
72,344,198791,1,0,0:0:0:0:
72,304,198882,1,0,0:0:0:0:
72,264,198973,1,0,0:0:0:0:
72,224,199064,1,0,0:0:0:0:
72,184,199155,1,0,0:0:0:0:
72,144,199246,5,0,0:0:0:0:
72,104,199336,1,0,0:0:0:0:
72,64,199427,1,0,0:0:0:0:
112,64,199518,1,0,0:0:0:0:
152,64,199609,1,0,0:0:0:0:
192,64,199700,1,0,0:0:0:0:
232,64,199791,1,0,0:0:0:0:
272,64,199882,1,0,0:0:0:0:
312,64,199973,1,0,0:0:0:0:
352,64,200064,1,0,0:0:0:0:
392,64,200154,1,0,0:0:0:0:
432,64,200245,1,0,0:0:0:0:
432,104,200336,5,0,0:0:0:0:
432,144,200427,1,0,0:0:0:0:
432,184,200518,1,0,0:0:0:0:
432,224,200609,1,0,0:0:0:0:
432,264,200700,1,0,0:0:0:0:
432,304,200791,1,0,0:0:0:0:
432,344,200882,1,0,0:0:0:0:
392,344,200973,1,0,0:0:0:0:
352,344,201064,1,0,0:0:0:0:
312,344,201154,1,0,0:0:0:0:
272,344,201245,5,0,0:0:0:0:
232,344,201336,1,0,0:0:0:0:
192,344,201427,1,0,0:0:0:0:
152,344,201518,1,0,0:0:0:0:
112,344,201609,1,0,0:0:0:0:
72,344,201700,1,0,0:0:0:0:
72,304,201791,1,0,0:0:0:0:
72,264,201882,1,0,0:0:0:0:
72,224,201973,1,0,0:0:0:0:
72,184,202064,1,0,0:0:0:0:
72,144,202155,5,0,0:0:0:0:
72,104,202245,1,0,0:0:0:0:
72,64,202336,1,0,0:0:0:0:
112,64,202427,1,0,0:0:0:0:
152,64,202518,1,0,0:0:0:0:
192,64,202609,1,0,0:0:0:0:
232,64,202700,1,0,0:0:0:0:
272,64,202791,1,0,0:0:0:0:
312,64,202882,1,0,0:0:0:0:
352,64,202973,1,0,0:0:0:0:
392,64,203063,1,0,0:0:0:0:
432,64,203154,1,0,0:0:0:0:
432,104,203245,5,0,0:0:0:0:
432,144,203336,1,0,0:0:0:0:
432,184,203427,1,0,0:0:0:0:
432,224,203518,1,0,0:0:0:0:
432,264,203609,1,0,0:0:0:0:
432,304,203700,1,0,0:0:0:0:
432,344,203791,1,0,0:0:0:0:
392,344,203882,1,0,0:0:0:0:
352,344,203973,1,0,0:0:0:0:
312,344,204063,1,0,0:0:0:0:
272,344,204154,5,0,0:0:0:0:
232,344,204245,1,0,0:0:0:0:
192,344,204336,1,0,0:0:0:0:
152,344,204427,1,0,0:0:0:0:
112,344,204518,1,0,0:0:0:0:
72,344,204609,1,0,0:0:0:0:
72,304,204700,1,0,0:0:0:0:
72,264,204791,1,0,0:0:0:0:
72,224,204882,1,0,0:0:0:0:
72,184,204973,1,0,0:0:0:0:
72,144,205064,5,0,0:0:0:0:
72,104,205154,1,0,0:0:0:0:
72,64,205245,1,0,0:0:0:0:
112,64,205336,1,0,0:0:0:0:
152,64,205427,1,0,0:0:0:0:
192,64,205518,1,0,0:0:0:0:
232,64,205609,1,0,0:0:0:0:
272,64,205700,1,0,0:0:0:0:
312,64,205791,1,0,0:0:0:0:
352,64,205882,1,0,0:0:0:0:
392,64,205972,1,0,0:0:0:0:
432,64,206063,1,0,0:0:0:0:
432,104,206154,5,0,0:0:0:0:
432,144,206245,1,0,0:0:0:0:
432,184,206336,1,0,0:0:0:0:
432,224,206427,1,0,0:0:0:0:
432,264,206518,1,0,0:0:0:0:
432,304,206609,1,0,0:0:0:0:
432,344,206700,1,0,0:0:0:0:
392,344,206791,1,0,0:0:0:0:
352,344,206882,1,0,0:0:0:0:
312,344,206972,1,0,0:0:0:0:
272,344,207063,5,0,0:0:0:0:
232,344,207154,1,0,0:0:0:0:
192,344,207245,1,0,0:0:0:0:
152,344,207336,1,0,0:0:0:0:
112,344,207427,1,0,0:0:0:0:
72,344,207518,1,0,0:0:0:0:
72,304,207609,1,0,0:0:0:0:
72,264,207700,1,0,0:0:0:0:
72,224,207791,1,0,0:0:0:0:
72,184,207882,1,0,0:0:0:0:
72,144,207973,5,0,0:0:0:0:
72,104,208063,1,0,0:0:0:0:
72,64,208155,1,0,0:0:0:0:
112,64,208246,1,0,0:0:0:0:
152,64,208337,1,0,0:0:0:0:
192,64,208428,1,0,0:0:0:0:
232,64,208519,1,0,0:0:0:0:
272,64,208610,1,0,0:0:0:0:
312,64,208701,1,0,0:0:0:0:
352,64,208792,1,0,0:0:0:0:
392,64,208882,1,0,0:0:0:0:
432,64,208973,1,0,0:0:0:0:
432,104,209064,5,0,0:0:0:0:
432,144,209155,1,0,0:0:0:0:
432,184,209246,1,0,0:0:0:0:
432,224,209337,1,0,0:0:0:0:
432,264,209428,1,0,0:0:0:0:
432,304,209519,1,0,0:0:0:0:
432,344,209610,1,0,0:0:0:0:
392,344,209701,1,0,0:0:0:0:
352,344,209792,1,0,0:0:0:0:
312,344,209882,1,0,0:0:0:0:
272,344,209973,5,0,0:0:0:0:
232,344,210064,1,0,0:0:0:0:
192,344,210155,1,0,0:0:0:0:
152,344,210246,1,0,0:0:0:0:
112,344,210337,1,0,0:0:0:0:
72,344,210428,1,0,0:0:0:0:
72,304,210519,1,0,0:0:0:0:
72,264,210610,1,0,0:0:0:0:
72,224,210701,1,0,0:0:0:0:
72,184,210792,1,0,0:0:0:0:
72,144,210883,5,0,0:0:0:0:
72,104,210973,1,0,0:0:0:0:
72,64,211064,1,0,0:0:0:0:
112,64,211155,1,0,0:0:0:0:
152,64,211246,1,0,0:0:0:0:
192,64,211337,1,0,0:0:0:0:
232,64,211428,1,0,0:0:0:0:
272,64,211519,1,0,0:0:0:0:
312,64,211610,1,0,0:0:0:0:
352,64,211701,1,0,0:0:0:0:
392,64,211791,1,0,0:0:0:0:
432,64,211882,1,0,0:0:0:0:
432,104,211973,5,0,0:0:0:0:
432,144,212064,1,0,0:0:0:0:
432,184,212155,1,0,0:0:0:0:
432,224,212246,1,0,0:0:0:0:
432,264,212337,1,0,0:0:0:0:
432,304,212428,1,0,0:0:0:0:
432,344,212519,1,0,0:0:0:0:
392,344,212610,1,0,0:0:0:0:
352,344,212701,1,0,0:0:0:0:
312,344,212791,1,0,0:0:0:0:
272,344,212882,5,0,0:0:0:0:
232,344,212973,1,0,0:0:0:0:
192,344,213064,1,0,0:0:0:0:
152,344,213155,1,0,0:0:0:0:
112,344,213246,1,0,0:0:0:0:
72,344,213337,1,0,0:0:0:0:
72,304,213428,1,0,0:0:0:0:
72,264,213519,1,0,0:0:0:0:
72,224,213610,1,0,0:0:0:0:
72,184,213701,1,0,0:0:0:0:
72,144,213792,5,0,0:0:0:0:
72,104,213882,1,0,0:0:0:0:
72,64,213973,1,0,0:0:0:0:
112,64,214064,1,0,0:0:0:0:
152,64,214155,1,0,0:0:0:0:
192,64,214246,1,0,0:0:0:0:
232,64,214337,1,0,0:0:0:0:
272,64,214428,1,0,0:0:0:0:
312,64,214519,1,0,0:0:0:0:
352,64,214610,1,0,0:0:0:0:
392,64,214700,1,0,0:0:0:0:
432,64,214791,1,0,0:0:0:0:
432,104,214882,5,0,0:0:0:0:
432,144,214973,1,0,0:0:0:0:
432,184,215064,1,0,0:0:0:0:
432,224,215155,1,0,0:0:0:0:
432,264,215246,1,0,0:0:0:0:
432,304,215337,1,0,0:0:0:0:
432,344,215428,1,0,0:0:0:0:
392,344,215519,1,0,0:0:0:0:
352,344,215610,1,0,0:0:0:0:
312,344,215700,1,0,0:0:0:0:
272,344,215791,5,0,0:0:0:0:
232,344,215882,1,0,0:0:0:0:
192,344,215973,1,0,0:0:0:0:
152,344,216064,1,0,0:0:0:0:
112,344,216155,1,0,0:0:0:0:
72,344,216246,1,0,0:0:0:0:
72,304,216337,1,0,0:0:0:0:
72,264,216428,1,0,0:0:0:0:
72,224,216519,1,0,0:0:0:0:
72,184,216610,1,0,0:0:0:0:
72,144,216701,5,0,0:0:0:0:
72,104,216791,1,0,0:0:0:0:
72,64,216882,1,0,0:0:0:0:
112,64,216973,1,0,0:0:0:0:
152,64,217064,1,0,0:0:0:0:
192,64,217155,1,0,0:0:0:0:
232,64,217246,1,0,0:0:0:0:
272,64,217337,1,0,0:0:0:0:
312,64,217428,1,0,0:0:0:0:
352,64,217519,1,0,0:0:0:0:
392,64,217609,1,0,0:0:0:0:
432,64,217700,1,0,0:0:0:0:
432,104,217791,5,0,0:0:0:0:
432,144,217882,1,0,0:0:0:0:
432,184,217973,1,0,0:0:0:0:
432,224,218064,1,0,0:0:0:0:
432,264,218155,1,0,0:0:0:0:
432,304,218246,1,0,0:0:0:0:
432,344,218337,1,0,0:0:0:0:
392,344,218428,1,0,0:0:0:0:
352,344,218519,1,0,0:0:0:0:
312,344,218609,1,0,0:0:0:0:
272,344,218700,5,0,0:0:0:0:
232,344,218791,1,0,0:0:0:0:
192,344,218882,1,0,0:0:0:0:
152,344,218973,1,0,0:0:0:0:
112,344,219064,1,0,0:0:0:0:
72,344,219155,1,0,0:0:0:0:
72,304,219246,1,0,0:0:0:0:
72,264,219337,1,0,0:0:0:0:
72,224,219428,1,0,0:0:0:0:
72,184,219519,1,0,0:0:0:0:
72,144,219610,5,0,0:0:0:0:
72,104,219700,1,0,0:0:0:0:
72,64,219791,1,0,0:0:0:0:
112,64,219882,1,0,0:0:0:0:
152,64,219973,1,0,0:0:0:0:
192,64,220064,1,0,0:0:0:0:
232,64,220155,1,0,0:0:0:0:
272,64,220246,1,0,0:0:0:0:
312,64,220337,1,0,0:0:0:0:
352,64,220428,1,0,0:0:0:0:
392,64,220518,1,0,0:0:0:0:
432,64,220609,1,0,0:0:0:0:
432,104,220700,5,0,0:0:0:0:
432,144,220791,1,0,0:0:0:0:
432,184,220882,1,0,0:0:0:0:
432,224,220973,1,0,0:0:0:0:
432,264,221064,1,0,0:0:0:0:
432,304,221155,1,0,0:0:0:0:
432,344,221246,1,0,0:0:0:0:
392,344,221337,1,0,0:0:0:0:
352,344,221428,1,0,0:0:0:0:
312,344,221518,1,0,0:0:0:0:
272,344,221609,5,0,0:0:0:0:
232,344,221700,1,0,0:0:0:0:
192,344,221791,1,0,0:0:0:0:
152,344,221882,1,0,0:0:0:0:
112,344,221973,1,0,0:0:0:0:
72,344,222064,1,0,0:0:0:0:
72,304,222155,1,0,0:0:0:0:
72,264,222246,1,0,0:0:0:0:
72,224,222337,1,0,0:0:0:0:
72,184,222428,1,0,0:0:0:0:
72,144,222519,5,0,0:0:0:0:
72,104,222609,1,0,0:0:0:0:
72,64,222700,1,0,0:0:0:0:
112,64,222791,1,0,0:0:0:0:
152,64,222882,1,0,0:0:0:0:
192,64,222973,1,0,0:0:0:0:
232,64,223064,1,0,0:0:0:0:
272,64,223155,1,0,0:0:0:0:
312,64,223246,1,0,0:0:0:0:
352,64,223337,1,0,0:0:0:0:
392,64,223427,1,0,0:0:0:0:
432,64,223518,1,0,0:0:0:0:
432,104,223609,5,0,0:0:0:0:
432,144,223700,1,0,0:0:0:0:
432,184,223791,1,0,0:0:0:0:
432,224,223882,1,0,0:0:0:0:
432,264,223973,1,0,0:0:0:0:
432,304,224064,1,0,0:0:0:0:
432,344,224155,1,0,0:0:0:0:
392,344,224246,1,0,0:0:0:0:
352,344,224337,1,0,0:0:0:0:
312,344,224427,1,0,0:0:0:0:
272,344,224518,5,0,0:0:0:0:
232,344,224609,1,0,0:0:0:0:
192,344,224700,1,0,0:0:0:0:
152,344,224791,1,0,0:0:0:0:
112,344,224882,1,0,0:0:0:0:
72,344,224973,1,0,0:0:0:0:
72,304,225064,1,0,0:0:0:0:
72,264,225155,1,0,0:0:0:0:
72,224,225246,1,0,0:0:0:0:
72,184,225337,1,0,0:0:0:0:
72,144,225428,5,0,0:0:0:0:
72,104,225518,1,0,0:0:0:0:
72,64,225609,1,0,0:0:0:0:
112,64,225700,1,0,0:0:0:0:
152,64,225791,1,0,0:0:0:0:
192,64,225882,1,0,0:0:0:0:
232,64,225973,1,0,0:0:0:0:
272,64,226064,1,0,0:0:0:0:
312,64,226155,1,0,0:0:0:0:
352,64,226246,1,0,0:0:0:0:
392,64,226336,1,0,0:0:0:0:
432,64,226427,1,0,0:0:0:0:
432,104,226518,5,0,0:0:0:0:
432,144,226609,1,0,0:0:0:0:
432,184,226700,1,0,0:0:0:0:
432,224,226791,1,0,0:0:0:0:
432,264,226882,1,0,0:0:0:0:
432,304,226973,1,0,0:0:0:0:
432,344,227064,1,0,0:0:0:0:
392,344,227155,1,0,0:0:0:0:
352,344,227246,1,0,0:0:0:0:
312,344,227336,1,0,0:0:0:0:
272,344,227427,5,0,0:0:0:0:
232,344,227518,1,0,0:0:0:0:
192,344,227609,1,0,0:0:0:0:
152,344,227700,1,0,0:0:0:0:
112,344,227791,1,0,0:0:0:0:
72,344,227882,1,0,0:0:0:0:
72,304,227973,1,0,0:0:0:0:
72,264,228064,1,0,0:0:0:0:
72,224,228155,1,0,0:0:0:0:
72,184,228246,1,0,0:0:0:0:
72,144,228337,5,0,0:0:0:0:
72,104,228427,1,0,0:0:0:0:
72,64,228518,1,0,0:0:0:0:
112,64,228609,1,0,0:0:0:0:
152,64,228700,1,0,0:0:0:0:
192,64,228791,1,0,0:0:0:0:
232,64,228882,1,0,0:0:0:0:
272,64,228973,1,0,0:0:0:0:
312,64,229064,1,0,0:0:0:0:
352,64,229155,1,0,0:0:0:0:
392,64,229245,1,0,0:0:0:0:
432,64,229336,1,0,0:0:0:0:
432,104,229427,5,0,0:0:0:0:
432,144,229518,1,0,0:0:0:0:
432,184,229609,1,0,0:0:0:0:
432,224,229700,1,0,0:0:0:0:
432,264,229791,1,0,0:0:0:0:
432,304,229882,1,0,0:0:0:0:
432,344,229973,1,0,0:0:0:0:
392,344,230064,1,0,0:0:0:0:
352,344,230155,1,0,0:0:0:0:
312,344,230245,1,0,0:0:0:0:
272,344,230336,5,0,0:0:0:0:
232,344,230427,1,0,0:0:0:0:
192,344,230518,1,0,0:0:0:0:
152,344,230609,1,0,0:0:0:0:
112,344,230700,1,0,0:0:0:0:
72,344,230791,1,0,0:0:0:0:
72,304,230882,1,0,0:0:0:0:
72,264,230973,1,0,0:0:0:0:
72,224,231064,1,0,0:0:0:0:
72,184,231155,1,0,0:0:0:0:
72,144,231246,5,0,0:0:0:0:
72,104,231336,1,0,0:0:0:0:
72,64,231427,1,0,0:0:0:0:
112,64,231518,1,0,0:0:0:0:
152,64,231609,1,0,0:0:0:0:
192,64,231700,1,0,0:0:0:0:
232,64,231791,1,0,0:0:0:0:
272,64,231882,1,0,0:0:0:0:
312,64,231973,1,0,0:0:0:0:
352,64,232064,1,0,0:0:0:0:
392,64,232154,1,0,0:0:0:0:
432,64,232245,1,0,0:0:0:0:
432,104,232336,5,0,0:0:0:0:
432,144,232427,1,0,0:0:0:0:
432,184,232518,1,0,0:0:0:0:
432,224,232609,1,0,0:0:0:0:
432,264,232700,1,0,0:0:0:0:
432,304,232791,1,0,0:0:0:0:
432,344,232882,1,0,0:0:0:0:
392,344,232973,1,0,0:0:0:0:
352,344,233064,1,0,0:0:0:0:
312,344,233154,1,0,0:0:0:0:
272,344,233245,5,0,0:0:0:0:
232,344,233336,1,0,0:0:0:0:
192,344,233427,1,0,0:0:0:0:
152,344,233518,1,0,0:0:0:0:
112,344,233609,1,0,0:0:0:0:
72,344,233700,1,0,0:0:0:0:
72,304,233791,1,0,0:0:0:0:
72,264,233882,1,0,0:0:0:0:
72,224,233973,1,0,0:0:0:0:
72,184,234064,1,0,0:0:0:0:
72,144,234155,5,0,0:0:0:0:
72,104,234245,1,0,0:0:0:0:
72,64,234336,1,0,0:0:0:0:
112,64,234427,1,0,0:0:0:0:
152,64,234518,1,0,0:0:0:0:
192,64,234609,1,0,0:0:0:0:
232,64,234700,1,0,0:0:0:0:
272,64,234791,1,0,0:0:0:0:
312,64,234882,1,0,0:0:0:0:
352,64,234973,1,0,0:0:0:0:
392,64,235063,1,0,0:0:0:0:
432,64,235154,1,0,0:0:0:0:
432,104,235245,5,0,0:0:0:0:
432,144,235336,1,0,0:0:0:0:
432,184,235427,1,0,0:0:0:0:
432,224,235518,1,0,0:0:0:0:
432,264,235609,1,0,0:0:0:0:
432,304,235700,1,0,0:0:0:0:
432,344,235791,1,0,0:0:0:0:
392,344,235882,1,0,0:0:0:0:
352,344,235973,1,0,0:0:0:0:
312,344,236063,1,0,0:0:0:0:
272,344,236154,5,0,0:0:0:0:
232,344,236245,1,0,0:0:0:0:
192,344,236336,1,0,0:0:0:0:
152,344,236427,1,0,0:0:0:0:
112,344,236518,1,0,0:0:0:0:
72,344,236609,1,0,0:0:0:0:
72,304,236700,1,0,0:0:0:0:
72,264,236791,1,0,0:0:0:0:
72,224,236882,1,0,0:0:0:0:
72,184,236973,1,0,0:0:0:0:
72,144,237064,5,0,0:0:0:0:
72,104,237154,1,0,0:0:0:0:
72,64,237245,1,0,0:0:0:0:
112,64,237336,1,0,0:0:0:0:
152,64,237427,1,0,0:0:0:0:
192,64,237518,1,0,0:0:0:0:
232,64,237609,1,0,0:0:0:0:
272,64,237700,1,0,0:0:0:0:
312,64,237791,1,0,0:0:0:0:
352,64,237882,1,0,0:0:0:0:
392,64,237972,1,0,0:0:0:0:
432,64,238063,1,0,0:0:0:0:
432,104,238154,5,0,0:0:0:0:
432,144,238245,1,0,0:0:0:0:
432,184,238336,1,0,0:0:0:0:
432,224,238427,1,0,0:0:0:0:
432,264,238518,1,0,0:0:0:0:
432,304,238609,1,0,0:0:0:0:
432,344,238700,1,0,0:0:0:0:
392,344,238791,1,0,0:0:0:0:
352,344,238882,1,0,0:0:0:0:
312,344,238972,1,0,0:0:0:0:
272,344,239063,5,0,0:0:0:0:
232,344,239154,1,0,0:0:0:0:
192,344,239245,1,0,0:0:0:0:
152,344,239336,1,0,0:0:0:0:
112,344,239427,1,0,0:0:0:0:
72,344,239518,1,0,0:0:0:0:
72,304,239609,1,0,0:0:0:0:
72,264,239700,1,0,0:0:0:0:
72,224,239791,1,0,0:0:0:0:
72,184,239882,1,0,0:0:0:0:
72,144,239973,5,0,0:0:0:0:
72,104,240063,1,0,0:0:0:0:
72,64,240155,1,0,0:0:0:0:
112,64,240246,1,0,0:0:0:0:
152,64,240337,1,0,0:0:0:0:
192,64,240428,1,0,0:0:0:0:
232,64,240519,1,0,0:0:0:0:
272,64,240610,1,0,0:0:0:0:
312,64,240701,1,0,0:0:0:0:
352,64,240792,1,0,0:0:0:0:
392,64,240882,1,0,0:0:0:0:
432,64,240973,1,0,0:0:0:0:
432,104,241064,5,0,0:0:0:0:
432,144,241155,1,0,0:0:0:0:
432,184,241246,1,0,0:0:0:0:
432,224,241337,1,0,0:0:0:0:
432,264,241428,1,0,0:0:0:0:
432,304,241519,1,0,0:0:0:0:
432,344,241610,1,0,0:0:0:0:
392,344,241701,1,0,0:0:0:0:
352,344,241792,1,0,0:0:0:0:
312,344,241882,1,0,0:0:0:0:
272,344,241973,5,0,0:0:0:0:
232,344,242064,1,0,0:0:0:0:
192,344,242155,1,0,0:0:0:0:
152,344,242246,1,0,0:0:0:0:
112,344,242337,1,0,0:0:0:0:
72,344,242428,1,0,0:0:0:0:
72,304,242519,1,0,0:0:0:0:
72,264,242610,1,0,0:0:0:0:
72,224,242701,1,0,0:0:0:0:
72,184,242792,1,0,0:0:0:0:
72,144,242883,5,0,0:0:0:0:
72,104,242973,1,0,0:0:0:0:
72,64,243064,1,0,0:0:0:0:
112,64,243155,1,0,0:0:0:0:
152,64,243246,1,0,0:0:0:0:
192,64,243337,1,0,0:0:0:0:
232,64,243428,1,0,0:0:0:0:
272,64,243519,1,0,0:0:0:0:
312,64,243610,1,0,0:0:0:0:
352,64,243701,1,0,0:0:0:0:
392,64,243791,1,0,0:0:0:0:
432,64,243882,1,0,0:0:0:0:
432,104,243973,5,0,0:0:0:0:
432,144,244064,1,0,0:0:0:0:
432,184,244155,1,0,0:0:0:0:
432,224,244246,1,0,0:0:0:0:
432,264,244337,1,0,0:0:0:0:
432,304,244428,1,0,0:0:0:0:
432,344,244519,1,0,0:0:0:0:
392,344,244610,1,0,0:0:0:0:
352,344,244701,1,0,0:0:0:0:
312,344,244791,1,0,0:0:0:0:
272,344,244882,5,0,0:0:0:0:
232,344,244973,1,0,0:0:0:0:
192,344,245064,1,0,0:0:0:0:
152,344,245155,1,0,0:0:0:0:
112,344,245246,1,0,0:0:0:0:
72,344,245337,1,0,0:0:0:0:
72,304,245428,1,0,0:0:0:0:
72,264,245519,1,0,0:0:0:0:
72,224,245610,1,0,0:0:0:0:
72,184,245701,1,0,0:0:0:0:
72,144,245792,5,0,0:0:0:0:
72,104,245882,1,0,0:0:0:0:
72,64,245973,1,0,0:0:0:0:
112,64,246064,1,0,0:0:0:0:
152,64,246155,1,0,0:0:0:0:
192,64,246246,1,0,0:0:0:0:
232,64,246337,1,0,0:0:0:0:
272,64,246428,1,0,0:0:0:0:
312,64,246519,1,0,0:0:0:0:
352,64,246610,1,0,0:0:0:0:
392,64,246700,1,0,0:0:0:0:
432,64,246791,1,0,0:0:0:0:
432,104,246882,5,0,0:0:0:0:
432,144,246973,1,0,0:0:0:0:
432,184,247064,1,0,0:0:0:0:
432,224,247155,1,0,0:0:0:0:
432,264,247246,1,0,0:0:0:0:
432,304,247337,1,0,0:0:0:0:
432,344,247428,1,0,0:0:0:0:
392,344,247519,1,0,0:0:0:0:
352,344,247610,1,0,0:0:0:0:
312,344,247700,1,0,0:0:0:0:
272,344,247791,5,0,0:0:0:0:
232,344,247882,1,0,0:0:0:0:
192,344,247973,1,0,0:0:0:0:
152,344,248064,1,0,0:0:0:0:
112,344,248155,1,0,0:0:0:0:
72,344,248246,1,0,0:0:0:0:
72,304,248337,1,0,0:0:0:0:
72,264,248428,1,0,0:0:0:0:
72,224,248519,1,0,0:0:0:0:
72,184,248610,1,0,0:0:0:0:
72,144,248701,5,0,0:0:0:0:
72,104,248791,1,0,0:0:0:0:
72,64,248882,1,0,0:0:0:0:
112,64,248973,1,0,0:0:0:0:
152,64,249064,1,0,0:0:0:0:
192,64,249155,1,0,0:0:0:0:
232,64,249246,1,0,0:0:0:0:
272,64,249337,1,0,0:0:0:0:
312,64,249428,1,0,0:0:0:0:
352,64,249519,1,0,0:0:0:0:
392,64,249609,1,0,0:0:0:0:
432,64,249700,1,0,0:0:0:0:
432,104,249791,5,0,0:0:0:0:
432,144,249882,1,0,0:0:0:0:
432,184,249973,1,0,0:0:0:0:
432,224,250064,1,0,0:0:0:0:
432,264,250155,1,0,0:0:0:0:
432,304,250246,1,0,0:0:0:0:
432,344,250337,1,0,0:0:0:0:
392,344,250428,1,0,0:0:0:0:
352,344,250519,1,0,0:0:0:0:
312,344,250609,1,0,0:0:0:0:
272,344,250700,5,0,0:0:0:0:
232,344,250791,1,0,0:0:0:0:
192,344,250882,1,0,0:0:0:0:
152,344,250973,1,0,0:0:0:0:
112,344,251064,1,0,0:0:0:0:
72,344,251155,1,0,0:0:0:0:
72,304,251246,1,0,0:0:0:0:
72,264,251337,1,0,0:0:0:0:
72,224,251428,1,0,0:0:0:0:
72,184,251519,1,0,0:0:0:0:
72,144,251610,5,0,0:0:0:0:
72,104,251700,1,0,0:0:0:0:
72,64,251791,1,0,0:0:0:0:
112,64,251882,1,0,0:0:0:0:
152,64,251973,1,0,0:0:0:0:
192,64,252064,1,0,0:0:0:0:
232,64,252155,1,0,0:0:0:0:
272,64,252246,1,0,0:0:0:0:
312,64,252337,1,0,0:0:0:0:
352,64,252428,1,0,0:0:0:0:
392,64,252518,1,0,0:0:0:0:
432,64,252609,1,0,0:0:0:0:
432,104,252700,5,0,0:0:0:0:
432,144,252791,1,0,0:0:0:0:
432,184,252882,1,0,0:0:0:0:
432,224,252973,1,0,0:0:0:0:
432,264,253064,1,0,0:0:0:0:
432,304,253155,1,0,0:0:0:0:
432,344,253246,1,0,0:0:0:0:
392,344,253337,1,0,0:0:0:0:
352,344,253428,1,0,0:0:0:0:
312,344,253518,1,0,0:0:0:0:
272,344,253609,5,0,0:0:0:0:
232,344,253700,1,0,0:0:0:0:
192,344,253791,1,0,0:0:0:0:
152,344,253882,1,0,0:0:0:0:
112,344,253973,1,0,0:0:0:0:
72,344,254064,1,0,0:0:0:0:
72,304,254155,1,0,0:0:0:0:
72,264,254246,1,0,0:0:0:0:
72,224,254337,1,0,0:0:0:0:
72,184,254428,1,0,0:0:0:0:
72,144,254519,5,0,0:0:0:0:
72,104,254609,1,0,0:0:0:0:
72,64,254700,1,0,0:0:0:0:
112,64,254791,1,0,0:0:0:0:
152,64,254882,1,0,0:0:0:0:
192,64,254973,1,0,0:0:0:0:
232,64,255064,1,0,0:0:0:0:
272,64,255155,1,0,0:0:0:0:
312,64,255246,1,0,0:0:0:0:
352,64,255337,1,0,0:0:0:0:
392,64,255427,1,0,0:0:0:0:
432,64,255518,1,0,0:0:0:0:
432,104,255609,5,0,0:0:0:0:
432,144,255700,1,0,0:0:0:0:
432,184,255791,1,0,0:0:0:0:
432,224,255882,1,0,0:0:0:0:
432,264,255973,1,0,0:0:0:0:
432,304,256064,1,0,0:0:0:0:
432,344,256155,1,0,0:0:0:0:
392,344,256246,1,0,0:0:0:0:
352,344,256337,1,0,0:0:0:0:
312,344,256427,1,0,0:0:0:0:
272,344,256518,5,0,0:0:0:0:
232,344,256609,1,0,0:0:0:0:
192,344,256700,1,0,0:0:0:0:
152,344,256791,1,0,0:0:0:0:
112,344,256882,1,0,0:0:0:0:
72,344,256973,1,0,0:0:0:0:
72,304,257064,1,0,0:0:0:0:
72,264,257155,1,0,0:0:0:0:
72,224,257246,1,0,0:0:0:0:
72,184,257337,1,0,0:0:0:0:
72,144,257428,5,0,0:0:0:0:
72,104,257518,1,0,0:0:0:0:
72,64,257609,1,0,0:0:0:0:
112,64,257700,1,0,0:0:0:0:
152,64,257791,1,0,0:0:0:0:
192,64,257882,1,0,0:0:0:0:
232,64,257973,1,0,0:0:0:0:
272,64,258064,1,0,0:0:0:0:
312,64,258155,1,0,0:0:0:0:
352,64,258246,1,0,0:0:0:0:
392,64,258336,1,0,0:0:0:0:
432,64,258427,1,0,0:0:0:0:
432,104,258518,5,0,0:0:0:0:
432,144,258609,1,0,0:0:0:0:
432,184,258700,1,0,0:0:0:0:
432,224,258791,1,0,0:0:0:0:
432,264,258882,1,0,0:0:0:0:
432,304,258973,1,0,0:0:0:0:
432,344,259064,1,0,0:0:0:0:
392,344,259155,1,0,0:0:0:0:
352,344,259246,1,0,0:0:0:0:
312,344,259336,1,0,0:0:0:0:
272,344,259427,5,0,0:0:0:0:
232,344,259518,1,0,0:0:0:0:
192,344,259609,1,0,0:0:0:0:
152,344,259700,1,0,0:0:0:0:
112,344,259791,1,0,0:0:0:0:
72,344,259882,1,0,0:0:0:0:
72,304,259973,1,0,0:0:0:0:
72,264,260064,1,0,0:0:0:0:
72,224,260155,1,0,0:0:0:0:
72,184,260246,1,0,0:0:0:0:
72,144,260337,5,0,0:0:0:0:
72,104,260427,1,0,0:0:0:0:
72,64,260518,1,0,0:0:0:0:
112,64,260609,1,0,0:0:0:0:
152,64,260700,1,0,0:0:0:0:
192,64,260791,1,0,0:0:0:0:
232,64,260882,1,0,0:0:0:0:
272,64,260973,1,0,0:0:0:0:
312,64,261064,1,0,0:0:0:0:
352,64,261155,1,0,0:0:0:0:
392,64,261245,1,0,0:0:0:0:
432,64,261336,1,0,0:0:0:0:
432,104,261427,5,0,0:0:0:0:
432,144,261518,1,0,0:0:0:0:
432,184,261609,1,0,0:0:0:0:
432,224,261700,1,0,0:0:0:0:
432,264,261791,1,0,0:0:0:0:
432,304,261882,1,0,0:0:0:0:
432,344,261973,1,0,0:0:0:0:
392,344,262064,1,0,0:0:0:0:
352,344,262155,1,0,0:0:0:0:
312,344,262245,1,0,0:0:0:0:
272,344,262336,5,0,0:0:0:0:
232,344,262427,1,0,0:0:0:0:
192,344,262518,1,0,0:0:0:0:
152,344,262609,1,0,0:0:0:0:
112,344,262700,1,0,0:0:0:0:
72,344,262791,1,0,0:0:0:0:
72,304,262882,1,0,0:0:0:0:
72,264,262973,1,0,0:0:0:0:
72,224,263064,1,0,0:0:0:0:
72,184,263155,1,0,0:0:0:0:
72,144,263246,5,0,0:0:0:0:
72,104,263336,1,0,0:0:0:0:
72,64,263427,1,0,0:0:0:0:
112,64,263518,1,0,0:0:0:0:
152,64,263609,1,0,0:0:0:0:
192,64,263700,1,0,0:0:0:0:
232,64,263791,1,0,0:0:0:0:
272,64,263882,1,0,0:0:0:0:
312,64,263973,1,0,0:0:0:0:
352,64,264064,1,0,0:0:0:0:
392,64,264154,1,0,0:0:0:0:
432,64,264245,1,0,0:0:0:0:
432,104,264336,5,0,0:0:0:0:
432,144,264427,1,0,0:0:0:0:
432,184,264518,1,0,0:0:0:0:
432,224,264609,1,0,0:0:0:0:
432,264,264700,1,0,0:0:0:0:
432,304,264791,1,0,0:0:0:0:
432,344,264882,1,0,0:0:0:0:
392,344,264973,1,0,0:0:0:0:
352,344,265064,1,0,0:0:0:0:
312,344,265154,1,0,0:0:0:0:
272,344,265245,5,0,0:0:0:0:
232,344,265336,1,0,0:0:0:0:
192,344,265427,1,0,0:0:0:0:
152,344,265518,1,0,0:0:0:0:
112,344,265609,1,0,0:0:0:0:
72,344,265700,1,0,0:0:0:0:
72,304,265791,1,0,0:0:0:0:
72,264,265882,1,0,0:0:0:0:
72,224,265973,1,0,0:0:0:0:
72,184,266064,1,0,0:0:0:0:
72,144,266155,5,0,0:0:0:0:
72,104,266245,1,0,0:0:0:0:
72,64,266336,1,0,0:0:0:0:
112,64,266427,1,0,0:0:0:0:
152,64,266518,1,0,0:0:0:0:
192,64,266609,1,0,0:0:0:0:
232,64,266700,1,0,0:0:0:0:
272,64,266791,1,0,0:0:0:0:
312,64,266882,1,0,0:0:0:0:
352,64,266973,1,0,0:0:0:0:
392,64,267063,1,0,0:0:0:0:
432,64,267154,1,0,0:0:0:0:
432,104,267245,5,0,0:0:0:0:
432,144,267336,1,0,0:0:0:0:
432,184,267427,1,0,0:0:0:0:
432,224,267518,1,0,0:0:0:0:
432,264,267609,1,0,0:0:0:0:
432,304,267700,1,0,0:0:0:0:
432,344,267791,1,0,0:0:0:0:
392,344,267882,1,0,0:0:0:0:
352,344,267973,1,0,0:0:0:0:
312,344,268063,1,0,0:0:0:0:
272,344,268154,5,0,0:0:0:0:
232,344,268245,1,0,0:0:0:0:
192,344,268336,1,0,0:0:0:0:
152,344,268427,1,0,0:0:0:0:
112,344,268518,1,0,0:0:0:0:
72,344,268609,1,0,0:0:0:0:
72,304,268700,1,0,0:0:0:0:
72,264,268791,1,0,0:0:0:0:
72,224,268882,1,0,0:0:0:0:
72,184,268973,1,0,0:0:0:0:
72,144,269064,5,0,0:0:0:0:
72,104,269154,1,0,0:0:0:0:
72,64,269245,1,0,0:0:0:0:
112,64,269336,1,0,0:0:0:0:
152,64,269427,1,0,0:0:0:0:
192,64,269518,1,0,0:0:0:0:
232,64,269609,1,0,0:0:0:0:
272,64,269700,1,0,0:0:0:0:
312,64,269791,1,0,0:0:0:0:
352,64,269882,1,0,0:0:0:0:
392,64,269972,1,0,0:0:0:0:
432,64,270063,1,0,0:0:0:0:
432,104,270154,5,0,0:0:0:0:
432,144,270245,1,0,0:0:0:0:
432,184,270336,1,0,0:0:0:0:
432,224,270427,1,0,0:0:0:0:
432,264,270518,1,0,0:0:0:0:
432,304,270609,1,0,0:0:0:0:
432,344,270700,1,0,0:0:0:0:
392,344,270791,1,0,0:0:0:0:
352,344,270882,1,0,0:0:0:0:
312,344,270972,1,0,0:0:0:0:
272,344,271063,5,0,0:0:0:0:
232,344,271154,1,0,0:0:0:0:
192,344,271245,1,0,0:0:0:0:
152,344,271336,1,0,0:0:0:0:
112,344,271427,1,0,0:0:0:0:
72,344,271518,1,0,0:0:0:0:
72,304,271609,1,0,0:0:0:0:
72,264,271700,1,0,0:0:0:0:
72,224,271791,1,0,0:0:0:0:
72,184,271882,1,0,0:0:0:0:
72,144,271973,5,0,0:0:0:0:
72,104,272063,1,0,0:0:0:0:
72,64,272155,1,0,0:0:0:0:
112,64,272246,1,0,0:0:0:0:
152,64,272337,1,0,0:0:0:0:
192,64,272428,1,0,0:0:0:0:
232,64,272519,1,0,0:0:0:0:
272,64,272610,1,0,0:0:0:0:
312,64,272701,1,0,0:0:0:0:
352,64,272792,1,0,0:0:0:0:
392,64,272882,1,0,0:0:0:0:
432,64,272973,1,0,0:0:0:0:
432,104,273064,5,0,0:0:0:0:
432,144,273155,1,0,0:0:0:0:
432,184,273246,1,0,0:0:0:0:
432,224,273337,1,0,0:0:0:0:
432,264,273428,1,0,0:0:0:0:
432,304,273519,1,0,0:0:0:0:
432,344,273610,1,0,0:0:0:0:
392,344,273701,1,0,0:0:0:0:
352,344,273792,1,0,0:0:0:0:
312,344,273882,1,0,0:0:0:0:
272,344,273973,5,0,0:0:0:0:
232,344,274064,1,0,0:0:0:0:
192,344,274155,1,0,0:0:0:0:
152,344,274246,1,0,0:0:0:0:
112,344,274337,1,0,0:0:0:0:
72,344,274428,1,0,0:0:0:0:
72,304,274519,1,0,0:0:0:0:
72,264,274610,1,0,0:0:0:0:
72,224,274701,1,0,0:0:0:0:
72,184,274792,1,0,0:0:0:0:
72,144,274883,5,0,0:0:0:0:
72,104,274973,1,0,0:0:0:0:
72,64,275064,1,0,0:0:0:0:
112,64,275155,1,0,0:0:0:0:
152,64,275246,1,0,0:0:0:0:
192,64,275337,1,0,0:0:0:0:
232,64,275428,1,0,0:0:0:0:
272,64,275519,1,0,0:0:0:0:
312,64,275610,1,0,0:0:0:0:
352,64,275701,1,0,0:0:0:0:
392,64,275791,1,0,0:0:0:0:
432,64,275882,1,0,0:0:0:0:
432,104,275973,5,0,0:0:0:0:
432,144,276064,1,0,0:0:0:0:
432,184,276155,1,0,0:0:0:0:
432,224,276246,1,0,0:0:0:0:
432,264,276337,1,0,0:0:0:0:
432,304,276428,1,0,0:0:0:0:
432,344,276519,1,0,0:0:0:0:
392,344,276610,1,0,0:0:0:0:
352,344,276701,1,0,0:0:0:0:
312,344,276791,1,0,0:0:0:0:
272,344,276882,5,0,0:0:0:0:
232,344,276973,1,0,0:0:0:0:
192,344,277064,1,0,0:0:0:0:
152,344,277155,1,0,0:0:0:0:
112,344,277246,1,0,0:0:0:0:
72,344,277337,1,0,0:0:0:0:
72,304,277428,1,0,0:0:0:0:
72,264,277519,1,0,0:0:0:0:
72,224,277610,1,0,0:0:0:0:
72,184,277701,1,0,0:0:0:0:
72,144,277792,5,0,0:0:0:0:
72,104,277882,1,0,0:0:0:0:
72,64,277973,1,0,0:0:0:0:
112,64,278064,1,0,0:0:0:0:
152,64,278155,1,0,0:0:0:0:
192,64,278246,1,0,0:0:0:0:
232,64,278337,1,0,0:0:0:0:
272,64,278428,1,0,0:0:0:0:
312,64,278519,1,0,0:0:0:0:
352,64,278610,1,0,0:0:0:0:
392,64,278700,1,0,0:0:0:0:
432,64,278791,1,0,0:0:0:0:
432,104,278882,5,0,0:0:0:0:
432,144,278973,1,0,0:0:0:0:
432,184,279064,1,0,0:0:0:0:
432,224,279155,1,0,0:0:0:0:
432,264,279246,1,0,0:0:0:0:
432,304,279337,1,0,0:0:0:0:
432,344,279428,1,0,0:0:0:0:
392,344,279519,1,0,0:0:0:0:
352,344,279610,1,0,0:0:0:0:
312,344,279700,1,0,0:0:0:0:
272,344,279791,5,0,0:0:0:0:
232,344,279882,1,0,0:0:0:0:
192,344,279973,1,0,0:0:0:0:
152,344,280064,1,0,0:0:0:0:
112,344,280155,1,0,0:0:0:0:
72,344,280246,1,0,0:0:0:0:
72,304,280337,1,0,0:0:0:0:
72,264,280428,1,0,0:0:0:0:
72,224,280519,1,0,0:0:0:0:
72,184,280610,1,0,0:0:0:0:
72,144,280701,5,0,0:0:0:0:
72,104,280791,1,0,0:0:0:0:
72,64,280882,1,0,0:0:0:0:
112,64,280973,1,0,0:0:0:0:
152,64,281064,1,0,0:0:0:0:
192,64,281155,1,0,0:0:0:0:
232,64,281246,1,0,0:0:0:0:
272,64,281337,1,0,0:0:0:0:
312,64,281428,1,0,0:0:0:0:
352,64,281519,1,0,0:0:0:0:
392,64,281609,1,0,0:0:0:0:
432,64,281700,1,0,0:0:0:0:
432,104,281791,5,0,0:0:0:0:
432,144,281882,1,0,0:0:0:0:
432,184,281973,1,0,0:0:0:0:
432,224,282064,1,0,0:0:0:0:
432,264,282155,1,0,0:0:0:0:
432,304,282246,1,0,0:0:0:0:
432,344,282337,1,0,0:0:0:0:
392,344,282428,1,0,0:0:0:0:
352,344,282519,1,0,0:0:0:0:
312,344,282609,1,0,0:0:0:0:
272,344,282700,5,0,0:0:0:0:
232,344,282791,1,0,0:0:0:0:
192,344,282882,1,0,0:0:0:0:
152,344,282973,1,0,0:0:0:0:
112,344,283064,1,0,0:0:0:0:
72,344,283155,1,0,0:0:0:0:
72,304,283246,1,0,0:0:0:0:
72,264,283337,1,0,0:0:0:0:
72,224,283428,1,0,0:0:0:0:
72,184,283519,1,0,0:0:0:0:
72,144,283610,5,0,0:0:0:0:
72,104,283700,1,0,0:0:0:0:
72,64,283791,1,0,0:0:0:0:
112,64,283882,1,0,0:0:0:0:
152,64,283973,1,0,0:0:0:0:
192,64,284064,1,0,0:0:0:0:
232,64,284155,1,0,0:0:0:0:
272,64,284246,1,0,0:0:0:0:
312,64,284337,1,0,0:0:0:0:
352,64,284428,1,0,0:0:0:0:
392,64,284518,1,0,0:0:0:0:
432,64,284609,1,0,0:0:0:0:
432,104,284700,5,0,0:0:0:0:
432,144,284791,1,0,0:0:0:0:
432,184,284882,1,0,0:0:0:0:
432,224,284973,1,0,0:0:0:0:
432,264,285064,1,0,0:0:0:0:
432,304,285155,1,0,0:0:0:0:
432,344,285246,1,0,0:0:0:0:
392,344,285337,1,0,0:0:0:0:
352,344,285428,1,0,0:0:0:0:
312,344,285518,1,0,0:0:0:0:
272,344,285609,5,0,0:0:0:0:
232,344,285700,1,0,0:0:0:0:
192,344,285791,1,0,0:0:0:0:
152,344,285882,1,0,0:0:0:0:
112,344,285973,1,0,0:0:0:0:
72,344,286064,1,0,0:0:0:0:
72,304,286155,1,0,0:0:0:0:
72,264,286246,1,0,0:0:0:0:
72,224,286337,1,0,0:0:0:0:
72,184,286428,1,0,0:0:0:0:
72,144,286519,5,0,0:0:0:0:
72,104,286609,1,0,0:0:0:0:
72,64,286700,1,0,0:0:0:0:
112,64,286791,1,0,0:0:0:0:
152,64,286882,1,0,0:0:0:0:
192,64,286973,1,0,0:0:0:0:
232,64,287064,1,0,0:0:0:0:
272,64,287155,1,0,0:0:0:0:
312,64,287246,1,0,0:0:0:0:
352,64,287337,1,0,0:0:0:0:
392,64,287427,1,0,0:0:0:0:
432,64,287518,1,0,0:0:0:0:
432,104,287609,5,0,0:0:0:0:
432,144,287700,1,0,0:0:0:0:
432,184,287791,1,0,0:0:0:0:
432,224,287882,1,0,0:0:0:0:
432,264,287973,1,0,0:0:0:0:
432,304,288064,1,0,0:0:0:0:
432,344,288155,1,0,0:0:0:0:
392,344,288246,1,0,0:0:0:0:
352,344,288337,1,0,0:0:0:0:
312,344,288427,1,0,0:0:0:0:
272,344,288518,5,0,0:0:0:0:
232,344,288609,1,0,0:0:0:0:
192,344,288700,1,0,0:0:0:0:
152,344,288791,1,0,0:0:0:0:
112,344,288882,1,0,0:0:0:0:
72,344,288973,1,0,0:0:0:0:
72,304,289064,1,0,0:0:0:0:
72,264,289155,1,0,0:0:0:0:
72,224,289246,1,0,0:0:0:0:
72,184,289337,1,0,0:0:0:0:
72,144,289428,5,0,0:0:0:0:
72,104,289518,1,0,0:0:0:0:
72,64,289609,1,0,0:0:0:0:
112,64,289700,1,0,0:0:0:0:
152,64,289791,1,0,0:0:0:0:
192,64,289882,1,0,0:0:0:0:
232,64,289973,1,0,0:0:0:0:
272,64,290064,1,0,0:0:0:0:
312,64,290155,1,0,0:0:0:0:
352,64,290246,1,0,0:0:0:0:
392,64,290336,1,0,0:0:0:0:
432,64,290427,1,0,0:0:0:0:
432,104,290518,5,0,0:0:0:0:
432,144,290609,1,0,0:0:0:0:
432,184,290700,1,0,0:0:0:0:
432,224,290791,1,0,0:0:0:0:
432,264,290882,1,0,0:0:0:0:
432,304,290973,1,0,0:0:0:0:
432,344,291064,1,0,0:0:0:0:
392,344,291155,1,0,0:0:0:0:
352,344,291246,1,0,0:0:0:0:
312,344,291336,1,0,0:0:0:0:
272,344,291427,5,0,0:0:0:0:
232,344,291518,1,0,0:0:0:0:
192,344,291609,1,0,0:0:0:0:
152,344,291700,1,0,0:0:0:0:
112,344,291791,1,0,0:0:0:0:
72,344,291882,1,0,0:0:0:0:
72,304,291973,1,0,0:0:0:0:
72,264,292064,1,0,0:0:0:0:
72,224,292155,1,0,0:0:0:0:
72,184,292246,1,0,0:0:0:0:
72,144,292337,5,0,0:0:0:0:
72,104,292427,1,0,0:0:0:0:
