osu file format v14

[General]
AudioFilename: audio.mp3
AudioLeadIn: 0
PreviewTime: 454
Countdown: 0
SampleSet: Soft
StackLeniency: 0.4
Mode: 0
LetterboxInBreaks: 0
WidescreenStoryboard: 0

[Editor]
Bookmarks: 454,14454,40054,52854,62054
DistanceSpacing: 1.4
BeatDivisor: 4
GridSize: 4
TimelineZoom: 1.9

[Metadata]
Title:OPENING STAGE X
TitleUnicode:OPENING STAGE X
Artist:Naoto Tanaka, Naoya Kamisaka, Takuya Miyawaki
ArtistUnicode:田中直人、神坂なおや、宮脇拓也
Creator:HappyRocket88
Version:Ultimate Armor
Source:ロックマンX5
Tags:rockman megaman x5 ost capcom MoodyRPG Voli
BeatmapID:1468252
BeatmapSetID:693925

[Difficulty]
HPDrainRate:6
CircleSize:4
OverallDifficulty:7
ApproachRate:9
SliderMultiplier:1.6
SliderTickRate:2

[Events]
//Background and Video events
0,0,"megaman_x__rockman_x_by_noctis_lasiurus-d3c3e3v.jpg",0,0
//Break Periods
//Storyboard Layer 0 (Background)
//Storyboard Layer 1 (Fail)
//Storyboard Layer 2 (Pass)
//Storyboard Layer 3 (Foreground)
//Storyboard Sound Samples

[TimingPoints]
54,400,4,2,1,65,1,0
5654,-100,4,2,2,65,0,0
5854,-100,4,2,1,65,0,0
6054,-100,4,2,2,65,0,0
6454,-100,4,2,1,65,0,0
8854,-100,4,2,4,65,0,0
9254,-100,4,2,2,65,0,0
9454,-100,4,2,1,65,0,0
9654,-100,4,2,1,65,0,0
40054,-142.857142857143,4,2,1,50,0,0
43554,-142.857142857143,4,2,1,5,0,0
43654,-142.857142857143,4,2,1,50,0,0
46754,-142.857142857143,4,2,1,5,0,0
46854,-142.857142857143,4,2,1,50,0,0
47154,-142.857142857143,4,2,1,5,0,0
47254,-142.857142857143,4,2,1,50,0,0
47554,-142.857142857143,4,2,1,5,0,0
47654,-142.857142857143,4,2,1,50,0,0
47954,-142.857142857143,4,2,1,5,0,0
48054,-142.857142857143,4,2,1,50,0,0
48354,-142.857142857143,4,2,1,5,0,0
48454,-142.857142857143,4,2,1,50,0,0
51254,-90.9090909090909,4,2,1,60,0,0
51654,-142.857142857143,4,2,1,50,0,0
52054,-90.9090909090909,4,2,1,60,0,0
52454,-142.857142857143,4,2,1,50,0,0
52854,-71.4285714285714,4,2,1,70,0,1
55254,-71.4285714285714,4,2,2,70,0,1
55454,-71.4285714285714,4,2,1,70,0,1
57254,-71.4285714285714,4,2,2,70,0,1
57454,-71.4285714285714,4,2,1,70,0,1
59254,-62.5,4,2,1,75,0,1
61654,-62.5,4,2,2,75,0,1
61854,-62.5,4,2,1,75,0,1
63654,-62.5,4,2,2,75,0,1
63854,-62.5,4,2,1,75,0,1
64054,-55.5555555555556,4,2,1,80,0,1
65654,-50,4,2,1,80,0,1
67254,-100,4,2,1,65,0,0
68854,-100,4,2,1,55,0,0
70454,-100,4,2,1,45,0,0
72054,-100,4,2,1,35,0,0
73254,-100,4,2,1,25,0,0
74054,-100,4,2,1,15,0,0
74854,-100,4,2,1,5,0,0

[Colours]
Combo1 : 255,192,0
Combo2 : 0,98,196
Combo3 : 255,62,67
Combo4 : 34,200,58
SliderBorder : 213,238,244
SliderTrackOverride : 4,40,97

[HitObjects]
440,252,54,5,4,0:1:0:0:
440,252,454,6,0,P|416:180|316:176,1,160,2|2,0:0|0:0,0:0:0:0:
292,220,1054,2,0,P|318:293|415:297,2,160,2|2|2,0:0|0:0|0:0,0:0:0:0:
368,236,2054,2,0,L|236:348,1,160,2|0,0:0|0:0,0:0:0:0:
144,148,2854,2,0,L|276:36,1,160,2|4,0:0|0:0,0:0:0:0:
144,224,3654,6,0,B|100:224|76:184|76:184|52:224|4:228,1,160,2|2,0:0|0:0,0:0:0:0:
144,148,4254,2,0,P|156:104|128:60,1,80,2|0,0:0|0:0,0:0:0:0:
6,75,4654,2,0,P|-6:112|6:150,1,80,2|0,0:0|0:0,0:0:0:0:
76,184,5054,1,2,0:0:0:0:
200,112,5254,6,0,B|268:92|312:28|312:28|288:196|288:196|320:156|320:156|344:168|344:168|366:148|366:148|399:161|399:161|448:124,1,480,2|4,0:0|0:0,0:0:0:0:
360,288,6854,6,0,P|336:328|336:376,1,80,10|0,0:0|0:0,0:0:0:0:
256,304,7254,2,0,L|256:224,1,80,2|2,0:0|0:0,0:0:0:0:
152,288,7654,2,0,P|173:321|178:360,1,80,8|2,0:0|0:0,0:0:0:0:
256,224,8054,1,0,0:0:0:0:
256,308,8254,1,2,0:0:0:0:
200,176,8454,6,0,P|254:3|314:174,1,480,10|4,0:0|0:0,0:0:0:0:
136,219,10054,6,0,P|172:183|228:179,1,80,10|0,0:0|0:0,0:0:0:0:
375,218,10454,1,2,0:0:0:0:
375,218,10654,2,0,P|339:182|283:178,1,80,2|8,0:0|0:0,0:0:0:0:
208,252,11054,2,0,P|252:304|304:244,1,160,2|0,0:0|0:0,0:0:0:0:
256,104,11654,6,0,L|256:24,1,80,8|0,0:0|0:0,0:0:0:0:
208,180,12054,1,0,0:0:0:0:
304,180,12254,1,0,0:0:0:0:
168,84,12454,2,0,L|88:24,1,80,8|0,0:0|0:0,0:0:0:0:
304,180,12854,1,0,0:0:0:0:
208,180,13054,1,0,0:0:0:0:
344,84,13254,2,0,L|424:24,1,80,8|0,0:0|0:0,0:0:0:0:
176,92,13654,5,8,0:0:0:0:
142,112,13754,1,8,0:0:0:0:
122,147,13854,1,8,0:0:0:0:
119,186,13954,1,8,0:0:0:0:
133,223,14054,1,8,0:3:0:0:
162,251,14154,1,8,0:3:0:0:
196,264,14254,1,14,0:3:0:0:
236,260,14354,1,6,0:3:0:0:
268,240,14454,6,0,B|300:208|300:208|252:324,1,160,6|8,0:0|0:0,0:0:0:0:
208,176,15054,2,0,L|272:112,1,80,0|0,0:0|0:0,0:0:0:0:
168,264,15454,1,2,0:0:0:0:
300,208,15654,1,10,0:0:0:0:
124,196,15854,2,0,P|80:164|88:48,1,160,2|0,0:0|0:0,0:0:0:0:
214,53,16454,6,0,L|156:108,1,80,8|0,0:0|0:0,0:0:0:0:
80,72,16854,1,0,0:0:0:0:
80,72,17054,1,0,0:0:0:0:
296,40,17254,2,0,L|372:63,1,80,8|2,0:0|0:0,0:0:0:0:
404,144,17554,1,2,0:0:0:0:
416,160,17654,6,0,L|332:132,1,80,2|0,0:0|0:0,0:0:0:0:
164,244,18054,2,0,P|184:316|284:332,1,160,8|2,0:0|0:0,0:0:0:0:
304,196,18654,1,2,0:0:0:0:
368,320,18854,1,10,0:0:0:0:
244,264,19054,1,2,0:0:0:0:
384,240,19254,2,0,L|488:220,1,80
244,264,19654,6,0,B|168:272|168:272|116:232,1,120,8|0,0:0|0:0,0:0:0:0:
288,204,20054,2,0,P|316:240|312:288,1,80
184,348,20454,1,8,0:0:0:0:
208,127,20654,5,2,0:0:0:0:
192,116,20754,1,2,0:0:0:0:
175,106,20854,2,0,L|78:50,1,80,2|0,0:0|0:0,0:0:0:0:
168,188,21254,2,0,B|216:192|240:156|240:156|240:212|212:240,1,160,8|0,0:0|0:0,0:0:0:0:
92,248,21854,1,2,0:0:0:0:
176,108,22054,1,10,0:0:0:0:
296,264,22254,6,0,P|372:288|444:224,1,160,2|0,0:0|0:0,0:0:0:0:
312,136,22854,2,0,L|360:208,1,80,8|0,0:0|0:0,0:0:0:0:
256,332,23254,1,0,0:0:0:0:
256,332,23454,1,0,0:0:0:0:
155,202,23654,2,0,L|200:136,1,80,8|2,0:0|0:0,0:0:0:0:
220,244,23954,1,2,0:0:0:0:
208,260,24054,6,0,P|168:280|112:268,1,80,2|2,0:0|0:0,0:0:0:0:
56,192,24454,1,10,0:0:0:0:
112,352,24654,2,0,P|191:353|260:315,1,160,2|2,0:0|0:0,0:0:0:0:
340,204,25254,1,10,0:0:0:0:
428,336,25454,1,2,0:0:0:0:
264,236,25654,6,0,P|260:184|296:140,1,80,0|0,0:0|0:0,0:0:0:0:
424,92,26054,2,0,P|380:121|324:112,1,80,8|8,0:0|0:0,0:0:0:0:
288,88,26354,1,8,0:0:0:0:
276,72,26454,2,0,P|252:41|215:28,1,80,0|8,0:0|0:0,0:0:0:0:
190,251,26854,2,0,P|242:251|270:227,1,80,8|8,0:0|0:0,0:0:0:0:
332,276,27154,1,10,0:0:0:0:
320,288,27254,6,0,P|240:332|148:316,1,160,6|8,0:0|0:0,0:0:0:0:
98,196,27854,2,0,P|123:283|199:337,1,160,0|2,0:0|0:0,0:0:0:0:
320,288,28454,1,10,0:0:0:0:
199,135,28654,1,2,0:0:0:0:
332,204,28855,6,0,P|376:184|396:148,1,80
199,135,29254,2,0,P|183:99|188:60,1,80,8|0,0:0|0:0,0:0:0:0:
288,268,29654,2,0,P|304:304|297:343,1,80,0|0,0:0|0:0,0:0:0:0:
154,200,30054,2,0,P|118:213|94:245,1,80,8|2,0:0|0:0,0:0:0:0:
16,268,30354,1,2,0:0:0:0:
16,244,30454,6,0,P|36:188|116:128,2,160,2|8|2,0:0|0:0|0:0,0:0:0:0:
116,360,31454,1,2,0:0:0:0:
240,244,31654,1,10,0:0:0:0:
260,376,31854,1,2,0:0:0:0:
152,240,32054,5,0,0:0:0:0:
152,240,32254,1,0,0:0:0:0:
328,196,32454,2,0,P|356:152|352:108,1,80,8|0,0:0|0:0,0:0:0:0:
344,304,32854,1,0,0:0:0:0:
344,304,33054,1,0,0:0:0:0:
228,156,33254,2,0,P|239:105|273:76,1,80,8|2,0:0|0:0,0:0:0:0:
320,44,33554,1,2,0:0:0:0:
332,32,33654,6,0,P|260:64|188:8,1,160,2|8,0:0|0:0,0:0:0:0:
376,112,34254,2,0,P|442:72|512:104,1,160,0|2,0:0|0:0,0:0:0:0:
448,180,34854,1,10,0:0:0:0:
376,112,35054,1,2,0:0:0:0:
328,254,35254,6,0,P|367:258|408:236,1,80
280,192,35654,2,0,B|256:136|256:136|232:190,1,120,8|0,0:0|0:0,0:0:0:0:
183,254,36054,2,0,P|144:258|108:240,1,80
256,336,36454,1,8,0:0:0:0:
372,220,36654,1,2,0:0:0:0:
364,204,36754,1,2,0:0:0:0:
356,188,36854,6,0,L|324:100,1,80,2|2,0:0|0:0,0:0:0:0:
256,336,37254,1,10,0:0:0:0:
156,188,37454,2,0,L|188:100,1,80,2|0,0:0|0:0,0:0:0:0:
328,264,37854,1,2,0:0:0:0:
184,264,38054,1,10,0:0:0:0:
256,140,38254,1,2,0:0:0:0:
276,324,38454,5,8,0:3:0:0:
310,343,38554,1,8,0:3:0:0:
349,343,38654,1,8,0:3:0:0:
384,324,38754,1,8,0:3:0:0:
384,288,38854,5,8,0:3:0:0:
349,269,38954,1,8,0:3:0:0:
310,269,39054,1,8,0:3:0:0:
276,288,39154,1,8,0:3:0:0:
240,308,39254,6,0,L|204:332,1,40,4|4,0:3|0:3,0:0:0:0:
104,316,39454,2,0,L|152:288,1,40,4|4,0:3|0:3,0:0:0:0:
248,256,39654,2,0,L|200:288,1,40,4|4,0:3|0:3,0:0:0:0:
100,268,39854,2,0,L|144:244,1,40,4|4,0:3|0:3,0:0:0:0:
320,288,40054,5,4,0:0:0:0:
320,288,40454,6,0,B|360:272|360:272|436:288,2,111.999996582031,10|2|8,0:0|0:0|0:0,0:0:0:0:
216,332,41454,1,0,0:0:0:0:
384,248,41654,6,0,B|370:209|376:177|376:177|360:132,1,111.999996582031,2|8,0:0|0:0,0:0:0:0:
256,264,42254,1,0,0:0:0:0:
128,248,42454,2,0,B|142:209|135:177|135:177|152:132,1,111.999996582031,0|8,0:0|0:0,0:0:0:0:
256,264,43054,1,0,0:0:0:0:
112,320,43254,6,0,P|76:304|56:256,1,83.9999974365235
80,192,43654,6,0,B|88:156|88:156|56:76,2,111.999996582031,10|2|10,0:0|0:0|0:0,0:0:0:0:
108,316,44654,1,0,0:0:0:0:
280,224,44854,2,0,P|328:252|340:320,1,111.999996582031,2|8,0:0|0:0,0:0:0:0:
260,304,45454,1,0,0:0:0:0:
232,156,45654,2,0,P|232:100|179:56,1,111.999996582031,0|8,0:0|0:0,0:0:0:0:
152,132,46254,1,0,0:0:0:0:
328,148,46454,6,0,L|420:104,1,83.9999974365235
468,72,46854,6,0,P|476:128|451:170,1,83.9999974365235,10|0,0:0|0:0,0:0:0:0:
403,191,47254,2,0,L|328:228,1,83.9999974365235,2|0,0:0|0:0,0:0:0:0:
331,310,47654,2,0,L|406:273,1,83.9999974365235,10|0,0:0|0:0,0:0:0:0:
468,229,48054,2,0,P|477:189|464:150,1,83.9999974365235,2|0,0:0|0:0,0:0:0:0:
403,191,48454,5,8,0:0:0:0:
380,287,48654,1,0,0:0:0:0:
212,222,48854,2,0,P|261:202|315:225,1,111.999996582031,0|8,0:0|0:0,0:0:0:0:
144,287,49454,1,0,0:0:0:0:
121,191,49654,5,0,0:0:0:0:
376,80,50054,6,0,L|325:54,1,55.9999982910157,10|0,0:0|0:0,0:0:0:0:
140,80,50454,2,0,L|190:54,1,55.9999982910157,2|0,0:0|0:0,0:0:0:0:
376,80,50854,2,0,L|325:54,1,55.9999982910157,10|0,0:0|0:0,0:0:0:0:
96,140,51254,6,0,B|132:168|176:144|176:144|232:116,1,132.00000402832,6|0,0:0|0:0,0:0:0:0:
217,123,51654,1,8,0:0:0:0:
256,20,51854,1,0,0:0:0:0:
420,140,52054,2,0,B|384:168|340:144|340:144|284:116,1,132.00000402832,12|0,0:0|0:0,0:0:0:0:
298,123,52454,1,8,0:0:0:0:
244,248,52654,1,2,0:0:0:0:
228,280,52754,1,2,0:0:0:0:
212,308,52854,5,14,0:0:0:0:
152,181,53054,1,2,0:0:0:0:
279,121,53254,1,8,0:0:0:0:
338,248,53454,1,2,0:0:0:0:
144,268,53654,5,10,0:0:0:0:
296,316,53854,1,2,0:0:0:0:
348,168,54054,1,8,0:0:0:0:
200,116,54254,1,2,0:0:0:0:
356,64,54454,5,10,0:0:0:0:
248,192,54654,1,2,0:0:0:0:
264,24,54854,1,10,0:0:0:0:
444,144,55054,2,0,P|420:244|308:272,1,223.999993164063,2|0,0:0|0:0,0:0:0:0:
200,116,55654,1,8,0:0:0:0:
348,176,55854,1,0,0:0:0:0:
184,220,56054,5,10,0:0:0:0:
296,348,56254,1,2,0:0:0:0:
260,160,56454,1,10,0:0:0:0:
296,348,56654,1,2,0:0:0:0:
348,176,56854,1,10,0:0:0:0:
240,296,57054,2,0,B|189:330|133:302|133:302|85:278|25:306,1,223.999993164063,2|2,0:0|0:0,0:0:0:0:
180,228,57654,6,0,B|200:188|200:188|164:92,1,111.999996582031,10|0,0:0|0:0,0:0:0:0:
256,288,58054,1,8,0:0:0:0:
256,312,58154,1,8,0:0:0:0:
256,336,58254,1,0,0:0:0:0:
332,228,58454,6,0,B|312:188|312:188|335:125,1,111.999996582031,8|0,0:0|0:0,0:0:0:0:
256,24,58854,2,0,L|256:80,3,55.9999982910157,10|0|0|0,0:0|0:0|0:0|0:0,0:0:0:0:
192,108,59254,5,14,0:0:0:0:
292,256,59454,1,2,0:0:0:0:
124,196,59654,1,8,0:0:0:0:
296,148,59854,1,2,0:0:0:0:
192,292,60054,5,10,0:0:0:0:
372,296,60254,1,2,0:0:0:0:
224,196,60454,1,8,0:0:0:0:
284,364,60654,1,2,0:0:0:0:
356,184,60854,5,10,0:0:0:0:
192,292,61054,1,2,0:0:0:0:
60,152,61254,1,10,0:0:0:0:
380,256,61454,2,0,P|432:184|288:144,1,256,2|0,0:0|0:0,0:0:0:0:
124,232,62054,1,8,0:0:0:0:
360,184,62254,1,2,0:0:0:0:
360,184,62354,1,2,0:0:0:0:
360,184,62454,5,10,0:0:0:0:
256,372,62654,1,2,0:0:0:0:
172,144,62854,1,10,0:0:0:0:
380,256,63054,1,2,0:0:0:0:
136,300,63254,1,10,0:0:0:0:
296,132,63454,2,0,P|272:40|256:132,1,256,2|2,0:0|0:0,0:0:0:0:
248,212,64054,5,14,0:0:0:0:
140,64,64254,1,0,0:0:0:0:
368,136,64454,5,8,0:0:0:0:
180,256,64654,1,0,0:0:0:0:
272,4,64854,5,8,0:0:0:0:
412,200,65054,1,0,0:0:0:0:
160,160,65254,5,8,0:0:0:0:
368,36,65454,1,0,0:0:0:0:
252,292,65654,6,0,P|163:315|98:242,1,160,12|0,0:0|0:0,0:0:0:0:
24,88,66054,1,8,0:0:0:0:
24,88,66154,1,0,0:0:0:0:
24,88,66254,1,0,0:0:0:0:
188,236,66454,1,8,0:0:0:0:
288,8,66654,1,0,0:0:0:0:
76,184,66854,1,8,0:0:0:0:
76,184,66954,1,0,0:0:0:0:
76,184,67054,1,0,0:0:0:0:
352,268,67254,5,12,0:0:0:0:
388,252,67354,1,8,0:0:0:0:
415,222,67454,1,8,0:0:0:0:
428,185,67554,1,8,0:0:0:0:
424,145,67654,2,0,L|376:44,1,80,8|8,0:3|0:3,0:0:0:0:
468,228,68054,1,4,0:3:0:0:
484,260,68154,1,4,0:3:0:0:
500,292,68254,1,4,0:3:0:0:
332,176,68454,6,0,L|272:136,1,40,4|4,0:3|0:3,0:0:0:0:
184,120,68654,2,0,L|228:156,1,40,6|2,0:3|0:0,0:0:0:0:
288,244,68854,6,0,B|192:168|192:168|224:232,1,160,6|8,0:0|0:0,0:0:0:0:
268,340,69454,2,0,P|292:268|376:256,1,160,0|2,0:0|0:0,0:0:0:0:
476,376,70054,1,10,0:0:0:0:
344,324,70254,1,2,0:0:0:0:
432,192,70454,5,0,0:0:0:0:
432,192,70654,1,0,0:0:0:0:
320,288,70854,2,0,L|252:340,1,80,8|0,0:0|0:0,0:0:0:0:
80,192,71254,1,0,0:0:0:0:
80,192,71454,1,0,0:0:0:0:
192,288,71654,2,0,L|260:340,1,80,8|2,0:0|0:0,0:0:0:0:
256,236,71954,5,2,0:0:0:0:
232,220,72054,2,0,P|172:208|112:284,2,160,2|8|2,0:0|0:0|0:0,0:0:0:0:
320,324,73054,1,2,0:0:0:0:
192,288,73254,1,10,0:0:0:0:
320,236,73454,1,2,0:0:0:0:
256,192,73504,12,0,74854,0:0:0:0:
