osu file format v14

[General]
AudioFilename: audio.mp3
AudioLeadIn: 0
PreviewTime: 454
Countdown: 0
SampleSet: Soft
StackLeniency: 0.4
Mode: 0
LetterboxInBreaks: 0
WidescreenStoryboard: 1

[Editor]
Bookmarks: 454,14454,37254,40054,52854,62054
DistanceSpacing: 1.2
BeatDivisor: 4
GridSize: 8
TimelineZoom: 1.9

[Metadata]
Title:OPENING STAGE X
TitleUnicode:OPENING STAGE X
Artist:Naoto Tanaka, Naoya Kamisaka, Takuya Miyawaki
ArtistUnicode:田中直人、神坂なおや、宮脇拓也
Creator:HappyRocket88
Version:Tough Armor
Source:ロックマンX5
Tags:rockman megaman x5 ost capcom MoodyRPG Voli
BeatmapID:1513070
BeatmapSetID:693925

[Difficulty]
HPDrainRate:5
CircleSize:4
OverallDifficulty:5
ApproachRate:7
SliderMultiplier:1.29
SliderTickRate:2

[Events]
//Background and Video events
0,0,"megaman_x__rockman_x_by_noctis_lasiurus-d3c3e3v.jpg",0,0
//Break Periods
//Storyboard Layer 0 (Background)
//Storyboard Layer 1 (Fail)
//Storyboard Layer 2 (Pass)
//Storyboard Layer 3 (Foreground)
//Storyboard Sound Samples

[TimingPoints]
54,400,4,2,1,65,1,0
5654,-100,4,2,2,65,0,0
5854,-100,4,2,1,65,0,0
6054,-100,4,2,2,65,0,0
6454,-100,4,2,1,65,0,0
8854,-100,4,2,4,65,0,0
9254,-100,4,2,2,65,0,0
9454,-100,4,2,1,65,0,0
9654,-100,4,2,1,65,0,0
40054,-125,4,2,1,50,0,0
43554,-125,4,2,1,5,0,0
43654,-125,4,2,1,50,0,0
46754,-125,4,2,1,5,0,0
46854,-125,4,2,1,50,0,0
47154,-125,4,2,1,5,0,0
47254,-125,4,2,1,50,0,0
47554,-125,4,2,1,5,0,0
47654,-125,4,2,1,50,0,0
47954,-125,4,2,1,5,0,0
48054,-125,4,2,1,50,0,0
48354,-125,4,2,1,5,0,0
48454,-125,4,2,1,50,0,0
51254,-90.9090909090909,4,2,1,60,0,0
52854,-83.3333333333333,4,2,1,70,0,1
55254,-83.3333333333333,4,2,2,70,0,1
55454,-83.3333333333333,4,2,1,70,0,1
57254,-83.3333333333333,4,2,2,70,0,1
57454,-83.3333333333333,4,2,1,70,0,1
59254,-83.3333333333333,4,2,1,75,0,1
61654,-83.3333333333333,4,2,2,75,0,1
61854,-83.3333333333333,4,2,1,75,0,1
63654,-83.3333333333333,4,2,2,75,0,1
63854,-83.3333333333333,4,2,1,75,0,1
64054,-83.3333333333333,4,2,1,80,0,1
65654,-83.3333333333333,4,2,1,80,0,1
67254,-100,4,2,1,65,0,0
68854,-100,4,2,1,55,0,0
70454,-100,4,2,1,45,0,0
72054,-100,4,2,1,35,0,0
73254,-100,4,2,1,25,0,0
74054,-100,4,2,1,15,0,0
74854,-100,4,2,1,5,0,0

[Colours]
Combo1 : 255,192,0
Combo2 : 0,98,196
Combo3 : 255,62,67
Combo4 : 34,200,58
SliderBorder : 213,238,244
SliderTrackOverride : 4,40,97

[HitObjects]
306,114,54,5,0,0:0:0:0:
306,114,454,2,0,P|332:170|288:236,1,129
256,168,1054,2,0,L|257:36,2,129
216,232,2054,6,0,P|256:92|288:236,1,387
136,348,3654,6,0,B|160:320|196:324|196:324|264:340,1,129
375,348,4254,2,0,B|351:320|315:324|315:324|247:340,1,129
256,256,4854,2,0,L|256:176,1,64.5
208,100,5254,6,0,B|272:116|332:88|332:88|256:196|256:196|316:180|316:180|345:191|345:191|392:180,1,387
180,308,6854,6,0,P|140:300|112:264,2,64.5
256,280,7454,1,0,0:0:0:0:
332,308,7654,2,0,P|372:300|400:264,2,64.5
256,280,8254,1,0,0:0:0:0:
196,228,8454,6,0,B|152:172|200:112|200:112|256:144|256:144|312:112|312:112|360:172|316:232,1,387
165,285,10054,6,0,L|201:217,1,64.5
316,231,10454,1,0,0:0:0:0:
316,231,10654,2,0,L|346:288,1,64.5
256,176,11054,2,0,P|200:148|124:192,1,129
96,100,11654,6,0,P|148:65|148:-22,1,129
244,0,12254,1,0,0:0:0:0:
244,0,12454,2,0,P|247:62|323:106,1,129
436,32,13254,2,0,P|380:3|304:47,1,129
295,102,13854,1,0,0:0:0:0:
360,144,14054,2,0,P|376:108|368:72,1,64.5
288,180,14454,6,0,B|312:212|312:212|416:244,2,129
295,102,15454,1,0,0:0:0:0:
360,144,15654,1,0,0:0:0:0:
224,218,15854,6,0,L|96:218,1,129
24,192,16454,2,0,P|12:160|24:116,1,64.5
84,88,16854,2,0,P|96:120|84:168,2,64.5
16,52,17454,1,0,0:0:0:0:
16,52,17654,6,0,L|168:40,1,129
256,136,18454,2,0,L|256:200,2,64.5
292,68,19054,2,0,B|328:40|328:40|424:40,1,129
476,88,19654,6,0,B|440:116|440:116|344:116,1,129
292,68,20254,1,0,0:0:0:0:
256,136,20454,1,0,0:0:0:0:
356,196,20654,1,0,0:0:0:0:
356,196,20854,6,0,B|439:196|439:196|475:224,2,129
288,236,21854,1,0,0:0:0:0:
284,160,22054,1,0,0:0:0:0:
356,272,22254,6,0,P|316:308|244:300,1,129
140,232,22854,2,0,L|208:232,1,64.5
168,312,23254,2,0,L|92:312,2,64.5
245,300,23854,1,0,0:0:0:0:
204,232,24054,6,0,B|180:172|180:172|208:112,1,129
296,35,24654,2,0,B|234:55|234:55|206:115,1,129,0|0,0:3|0:3,0:3:0:0:
260,172,25254,2,0,L|292:104,1,64.5
384,20,25654,6,0,L|356:88,1,64.5
287,113,26054,1,0,0:0:0:0:
352,156,26254,2,0,L|388:172,2,32.25
287,113,26654,1,0,0:0:0:0:
359,79,26854,1,0,0:0:0:0:
436,112,27054,1,0,0:0:0:0:
436,112,27254,6,0,P|460:168|412:244,2,129
380,168,28254,1,0,0:0:0:0:
435,227,28454,1,0,0:0:0:0:
348,296,28654,6,0,B|314:302|288:278|288:278|262:302|228:294,1,129
121,217,29254,2,0,B|154:210|180:234|180:234|206:210|240:218,1,129
288,278,29854,1,0,0:0:0:0:
249,345,30054,1,0,0:0:0:0:
136,298,30254,1,0,0:0:0:0:
136,298,30454,6,0,B|76:273|76:273|93:344,1,129
208,233,31254,2,0,P|188:205|144:192,2,64.5
256,296,31854,2,0,L|256:160,1,129
216,100,32454,6,0,B|204:68|204:68|220:36,1,64.5
294,40,32854,2,0,B|308:68|308:68|296:100,2,64.5
216,100,33454,1,0,0:0:0:0:
216,100,33654,6,0,P|244:160|312:176,2,129
256,36,34654,1,0,0:0:0:0:
296,100,34854,1,0,0:0:0:0:
224,196,35054,2,0,P|220:260|276:312,1,129
412,256,35654,6,0,P|358:220|285:243,1,129
260,306,36254,1,0,0:0:0:0:
344,304,36454,1,0,0:0:0:0:
298,232,36654,1,0,0:0:0:0:
260,306,36854,6,0,P|244:344|208:368,1,64.5
120,296,37254,1,0,0:0:0:0:
120,296,37454,2,0,B|152:284|152:284|192:300,1,64.5
72,357,37854,2,0,P|50:334|40:304,1,64.5
120,208,38254,1,0,0:0:0:0:
120,208,38454,6,0,L|136:140,1,64.5
232,84,38854,2,0,L|212:168,1,64.5
284,236,39254,2,0,L|290:204,2,32.25
384,180,39654,2,0,L|378:211,2,32.25
460,236,40054,5,0,0:0:0:0:
460,236,40454,2,0,P|432:280|452:340,3,103.2
352,240,42054,6,0,B|316:204|316:204|260:248,1,103.2
192,144,42854,2,0,B|228:180|228:180|284:136,1,103.2
376,88,43654,5,0,0:0:0:0:
328,200,44054,1,0,0:0:0:0:
292,80,44454,1,0,0:0:0:0:
404,232,44854,6,0,B|383:275|315:275|315:275|256:191|256:191|196:275|196:275|127:275|107:227,1,412.8
68,116,46854,5,0,0:0:0:0:
28,232,47254,1,0,0:0:0:0:
128,160,47654,1,0,0:0:0:0:
8,76,48054,1,0,0:0:0:0:
132,84,48454,6,0,B|158:89|158:89|180:106,2,51.6,0|0|0,3:0|3:0|3:0,3:0:0:0:
192,218,49254,2,0,B|166:213|166:213|144:196,2,51.6,0|0|0,3:0|3:0|3:0,3:0:0:0:
360,184,50054,6,0,B|388:188|388:188|428:224|428:224|433:244,1,103.2
388,348,50854,1,0,0:0:0:0:
252,312,51254,6,0,P|216:296|124:352,1,141.900004330444
200,372,51854,1,0,0:0:0:0:
252,312,52054,6,0,P|288:296|380:352,1,141.900004330444
300,375,52654,1,0,0:0:0:0:
201,253,52854,6,0,P|184:207|203:160,1,77.3999976379395
251,131,53254,1,0,0:0:0:0:
263,205,53454,1,0,0:0:0:0:
156,168,53654,2,0,P|109:170|73:208,1,77.3999976379395
67,266,54054,1,0,0:0:0:0:
140,244,54254,1,0,0:0:0:0:
227,142,54454,6,0,P|269:121|319:131,1,77.3999976379395
354,170,54854,1,0,0:0:0:0:
281,195,55054,2,0,B|246:182|229:141|229:141|193:205|208:308|292:339,1,309.599990551758
360,271,56054,6,0,P|405:257|448:275,1,77.3999976379395
481,336,56454,2,0,P|436:350|396:335,1,77.3999976379395
360,271,56854,1,0,0:0:0:0:
284,312,57054,2,0,B|246:337|245:375|245:375|207:356|166:388,1,154.799995275879
91,353,57654,6,0,P|68:318|75:272,1,77.3999976379395
126,224,58054,2,0,L|169:212,2,38.6999988189698
48,205,58454,2,0,P|28:170|34:123,1,77.3999976379395
76,69,58854,1,0,0:0:0:0:
0,60,59054,1,0,0:0:0:0:
105,150,59254,6,0,B|205:123|205:123|252:68,1,154.799995275879
238,84,59854,1,0,0:0:0:0:
231,194,60054,6,8,B|131:221|131:221|89:283,1,154.799995275879
56,327,60654,1,0,0:0:0:0:
26,253,60854,2,0,P|14:197|-11:172,2,77.3999976379395
133,352,61454,6,0,B|175:288|175:288|238:323|292:287|292:287|343:249|402:289,1,309.599990551758
459,236,62454,6,0,P|478:198|469:156,1,77.3999976379395
411,111,62854,2,0,P|392:149|401:191,1,77.3999976379395
459,236,63254,1,0,0:0:0:0:
405,295,63454,2,0,P|353:322|272:258,1,154.799995275879
221,148,64054,6,0,L|206:246,1,77.3999976379395
135,138,64454,2,0,L|148:62,1,77.3999976379395
72,208,64854,2,0,P|150:247|230:196,1,154.799995275879
355,118,65654,6,0,P|394:117|437:157,1,77.3999976379395
300,174,66054,2,0,P|280:140|285:85,1,77.3999976379395
369,195,66454,2,0,L|230:281,1,154.799995275879
256,192,67254,12,0,68854,0:0:0:0:
