osu file format v14

[General]
AudioFilename: 01. .mp3
AudioLeadIn: 0
PreviewTime: 67210
Countdown: 0
SampleSet: Soft
StackLeniency: 0.7
Mode: 0
LetterboxInBreaks: 1
WidescreenStoryboard: 1

[Editor]
Bookmarks: 43661,54145,104306,105597,114629,115919
DistanceSpacing: 2.5
BeatDivisor: 12
GridSize: 4
TimelineZoom: 2.3

[Metadata]
Title:Unhappy End World
TitleUnicode:アンハッピーエンドワールド
Artist:Naoki Miki(CV.Takahashi Rie)&Ebisuzawa Kurumi(CV.Ozawa Ari)
ArtistUnicode:直樹美紀(CV.高橋李依)&恵飛須沢胡桃(CV.小澤亜李)
Creator:zenithlight
Version:trimmed
Source:がっこうぐらし!
Tags:gakkou gurashi kurumi ebisuzawa naoki miki school live takahashi rie ozawa ari chmpro underdogs
BeatmapID:1939609
BeatmapSetID:928632

[Difficulty]
HPDrainRate:7
CircleSize:4
OverallDifficulty:8.5
ApproachRate:9.3
SliderMultiplier:1.40000000596047
SliderTickRate:1

[Events]
//Background and Video events
0,0,"background.jpg",0,0
//Break Periods
//Storyboard Layer 0 (Background)
//Storyboard Layer 1 (Fail)
//Storyboard Layer 2 (Pass)
//Storyboard Layer 3 (Foreground)
//Storyboard Sound Samples

[TimingPoints]
1081,322.58064516129,4,2,0,40,1,0
10758,-100,4,2,0,50,0,0
11080,-100,4,2,0,60,0,0
11403,-133.333333333333,4,2,0,40,0,0
13661,-100,4,2,0,60,0,0
19629,-133.333333333333,4,2,0,60,0,0
19790,-100,4,2,0,60,0,0
19951,-80,4,2,0,60,0,0
20113,-66.6666666666667,4,2,0,60,0,0
21564,-100,4,2,0,60,0,0
22855,-66.6666666666667,4,2,0,60,0,0
23339,-100,4,2,0,60,0,0
24629,-66.6666666666667,4,2,0,60,0,0
25435,-100,4,2,0,60,0,0
35274,-80,4,2,0,60,0,0
35758,-66.6666666666667,4,2,0,60,0,0
36242,-100,4,2,0,60,0,0
37210,-66.6666666666667,4,2,0,60,0,0
38500,-100,4,2,0,60,0,0
46080,-66.6666666666667,4,2,0,60,0,0
46887,-100,4,2,0,60,0,0
47532,-66.6666666666667,4,2,0,60,0,0
48822,-80,4,2,0,60,0,0
49145,-100,4,2,0,60,0,0
51726,-66.6666666666667,4,2,0,60,0,0
53177,-100,4,2,0,60,0,0
53661,-66.6666666666667,4,2,0,60,0,0
54306,-100,4,2,0,60,0,0
54951,-66.6666666666667,4,2,0,60,0,0
56806,-100,4,2,0,60,0,0
57129,-66.6666666666667,4,2,0,50,0,0
57210,-66.6666666666667,4,2,0,60,0,0
57532,-100,4,2,0,60,0,0
58177,-66.6666666666667,4,2,0,60,0,0
60113,-100,4,2,0,60,0,0
60435,-66.6666666666667,4,2,0,60,0,0
63016,-100,4,2,0,60,0,0
63661,-66.6666666666667,4,2,0,60,0,0
64306,-100,4,2,0,60,0,0
64951,-66.6666666666667,4,2,0,60,0,0
65597,-100,4,2,0,60,0,0
66403,-100,4,2,0,65,0,0
66726,-100,4,2,0,70,0,0
66826,-100,4,2,0,75,0,0
68177,-100,4,2,0,80,0,1
68500,-66.6666666666667,4,2,0,80,0,1
73339,-100,4,2,0,80,0,1
73984,-66.6666666666667,4,2,0,80,0,1
75919,-100,4,2,0,80,0,1
77048,-66.6666666666667,4,2,0,80,0,1
79790,-100,4,2,0,80,0,1
80435,-80,4,2,0,80,0,1
81080,-66.6666666666667,4,2,0,80,0,1
83661,-100,4,2,0,80,0,0
86242,-66.6666666666667,4,2,0,80,0,0
87210,-100,4,2,0,80,0,0
90758,-66.6666666666667,4,2,0,80,0,0
91084,-100,4,2,0,80,0,0
91403,-66.6666666666667,4,2,0,80,0,0
92532,-100,4,2,0,80,0,0
93339,-66.6666666666667,4,2,0,80,0,0
94306,-100,4,2,0,80,0,0
96403,-66.6666666666667,4,2,0,80,0,0
97693,-100,4,2,0,80,0,0
101564,-66.6666666666667,4,2,0,80,0,0
102048,-100,4,2,0,80,0,0
102855,-66.6666666666667,4,2,0,80,0,0
103661,-100,4,2,0,80,0,0
115919,-100,4,2,0,60,0,0
118177,-133.333333333333,4,2,0,60,0,0
124306,-100,4,2,0,60,0,0
124790,-80,4,2,0,60,0,0
127855,-66.6666666666667,4,2,0,60,0,0

[Colours]
Combo1 : 229,209,182
Combo2 : 117,58,3
Combo3 : 224,161,161
Combo4 : 70,57,85

[HitObjects]
43,30,1081,5,0,0:0:0:0:
70,86,1242,1,0,0:0:0:0:
90,140,1403,1,0,0:0:0:0:
115,190,1564,2,0,L|180:330,1,140.000000596047
16,266,2048,5,0,0:0:0:0:
98,235,2210,2,0,L|238:173,1,140.000000596047
304,210,2693,1,0,0:0:0:0:
382,244,2855,2,0,L|516:187,1,140.000000596047
379,37,3339,6,0,P|356:74|358:130,1,70.0000002980235
403,171,3661,2,0,P|403:226|357:318,1,140.000000596047
295,350,4145,1,0,0:0:0:0:
224,294,4306,2,0,P|170:312|131:312,1,70.0000002980235
75,302,4629,1,0,0:0:0:0:
22,213,4790,6,0,P|94:197|160:208,1,140.000000596047
241,214,5274,1,0,0:0:0:0:
321,183,5435,1,0,0:0:0:0:
212,61,5597,5,0,0:0:0:0:
183,151,5758,1,0,0:0:0:0:
207,243,5919,1,0,0:0:0:0:
157,322,6080,1,0,0:0:0:0:
335,309,6242,6,0,L|430:201,1,140.000000596047
356,160,6726,1,0,0:0:0:0:
279,126,6887,1,0,0:0:0:0:
203,94,7048,1,0,0:0:0:0:
127,63,7210,1,0,0:0:0:0:
51,34,7371,1,0,0:0:0:0:
59,218,7532,5,0,0:0:0:0:
142,196,7693,1,0,0:0:0:0:
202,135,7855,1,0,0:0:0:0:
234,56,8016,1,0,0:0:0:0:
87,154,8177,5,0,0:0:0:0:
103,238,8339,1,0,0:0:0:0:
166,297,8500,1,0,0:0:0:0:
250,316,8661,1,0,0:0:0:0:
335,304,8822,2,0,P|378:238|458:201,1,140.000000596047
473,131,9306,5,0,0:0:0:0:
397,90,9468,1,0,0:0:0:0:
312,77,9629,1,0,0:0:0:0:
226,90,9790,1,0,0:0:0:0:
149,129,9951,1,0,0:0:0:0:
103,39,10113,6,0,L|111:207,1,140.000000596047
115,327,10597,1,0,0:0:0:0:
312,148,10758,1,0,0:0:0:0:
32,142,10919,1,0,0:0:0:0:
309,318,11080,1,0,0:0:0:0:
121,31,11242,1,0,0:0:0:0:
156,245,11403,6,0,L|376:272,1,210.000008904935
237,230,12693,6,0,L|452:207,1,210.000008904935
404,74,13661,5,0,0:0:0:0:
352,68,13742,1,0,0:0:0:0:
302,89,13822,1,0,0:0:0:0:
275,137,13903,1,0,0:0:0:0:
270,189,13984,2,0,L|122:229,1,140.000000596047
378,135,14468,2,0,L|294:274,1,140.000000596047
414,28,14951,6,0,L|468:335,1,280.000001192094
512,206,15919,1,0,0:0:0:0:
186,174,16080,1,0,0:0:0:0:
248,55,16403,6,0,L|108:124,1,140.000000596047
53,233,16887,1,0,0:0:0:0:
98,263,16968,1,0,0:0:0:0:
148,274,17048,1,0,0:0:0:0:
199,268,17129,1,0,0:0:0:0:
242,246,17210,5,0,0:0:0:0:
287,227,17290,1,0,0:0:0:0:
336,221,17371,1,0,0:0:0:0:
384,228,17451,1,0,0:0:0:0:
423,192,17532,5,0,0:0:0:0:
485,117,17693,2,0,P|441:89|346:88,1,140.000000596047
186,30,18177,1,0,0:0:0:0:
245,113,18339,6,0,L|217:250,1,140.000000596047
243,331,18822,1,0,0:0:0:0:
314,374,18984,2,0,B|362:378|400:343|400:343|443:330,1,140.000000596047
412,286,19387,1,0,0:0:0:0:
375,248,19468,5,0,0:0:0:0:
451,149,19629,2,0,L|467:117,1,26.2500011131169
396,89,19790,2,0,L|389:38,1,35.0000001490118
319,70,19951,2,0,L|287:37,1,43.7500001862647
246,100,20113,2,0,L|185:87,1,52.5000022262338
202,168,20274,2,0,B|151:185|157:253|157:253|82:350,1,210.000008904935
92,335,20677,1,0,0:0:0:0:
92,335,20758,1,0,0:0:0:0:
401,238,20919,1,0,0:0:0:0:
344,68,21080,5,0,0:0:0:0:
286,326,21242,1,0,0:0:0:0:
252,0,21403,5,0,0:0:0:0:
217,284,21564,2,0,L|79:313,1,140.000000596047
55,317,22048,1,0,0:0:0:0:
124,153,22371,6,0,L|43:125,2,70.0000002980235
171,28,22855,2,0,L|200:245,1,210.000008904935
288,52,23339,1,0,0:0:0:0:
286,101,23419,1,0,0:0:0:0:
285,149,23500,2,0,L|283:250,1,70.0000002980235
380,321,23822,5,0,0:0:0:0:
419,302,23903,1,0,0:0:0:0:
445,265,23984,1,0,0:0:0:0:
456,221,24064,1,0,0:0:0:0:
455,175,24145,2,0,B|434:127|401:111|401:111|366:50,1,140.000000596047
237,42,24629,2,0,L|24:72,1,210.000000894071
295,127,25113,1,0,0:0:0:0:
332,151,25274,5,0,0:0:0:0:
87,206,25435,2,0,P|152:199|228:226,1,140.000000596047
255,239,25839,1,0,0:0:0:0:
275,266,25919,1,0,0:0:0:0:
300,302,25999,5,0,0:0:0:0:
327,328,26080,1,0,0:0:0:0:
366,348,26161,1,0,0:0:0:0:
405,353,26242,2,0,L|453:196,2,140.000000596047
328,234,27048,5,0,0:0:0:0:
355,192,27210,2,0,L|264:202,1,70.0000002980235
432,154,27532,2,0,L|364:95,1,70.0000002980235
486,69,27855,1,0,0:0:0:0:
411,250,28016,1,0,0:0:0:0:
232,96,28177,6,0,P|257:68|299:46,2,70.0000002980235
285,257,28661,1,0,0:0:0:0:
207,316,28822,2,0,L|131:342,1,70.0000002980235
126,249,29145,2,0,L|43:222,1,70.0000002980235
185,187,29468,6,0,L|235:47,1,140.000000596047
105,114,29951,1,0,0:0:0:0:
286,142,30113,2,0,L|398:45,1,140.000000596047
61,200,30597,1,0,0:0:0:0:
307,50,30758,6,0,P|377:58|398:72,1,70.0000002980235
334,129,31080,2,0,P|390:170|401:193,1,70.0000002980235
318,211,31403,2,0,P|346:275|344:300,1,70.0000002980235
264,274,31726,2,0,P|256:344|242:365,1,70.0000002980235
211,325,31968,1,0,0:0:0:0:
163,305,32048,6,0,L|27:249,1,140.000000596047
106,231,32532,1,0,0:0:0:0:
161,173,32693,1,0,0:0:0:0:
166,96,32855,1,0,0:0:0:0:
123,32,33016,1,0,0:0:0:0:
52,11,33177,1,0,0:0:0:0:
91,118,33339,6,0,L|247:187,1,140.000000596047
306,210,33822,1,0,0:0:0:0:
254,27,33984,2,0,L|244:127,1,70.0000002980235
238,182,34306,1,0,0:0:0:0:
230,268,34468,2,0,L|224:348,1,70.0000002980235
341,284,34790,6,0,L|428:255,2,70.0000002980235
476,219,35274,2,0,L|349:198,1,87.5000003725294
225,182,35597,1,0,0:0:0:0:
368,168,35758,2,0,B|427:159|452:103|452:103|458:83|458:83|490:80|490:80|502:35|535:16,1,210.000008904935
380,48,36242,2,0,L|282:28,1,70.0000002980235
339,84,36564,2,0,L|249:114,1,70.0000002980235
194,129,36887,1,0,0:0:0:0:
116,153,37048,1,0,0:0:0:0:
41,65,37210,6,0,P|145:93|182:198,1,210.000008904935
172,262,37693,1,0,0:0:0:0:
112,319,37855,1,0,0:0:0:0:
29,199,38016,5,0,0:0:0:0:
110,163,38177,1,0,0:0:0:0:
191,129,38339,1,0,0:0:0:0:
270,92,38500,2,0,L|426:25,1,140.000000596047
383,171,38984,5,0,0:0:0:0:
351,245,39145,1,0,0:0:0:0:
353,324,39306,1,0,0:0:0:0:
461,270,39468,2,0,P|405:223|384:216,1,70.0000002980235
316,204,39790,1,0,0:0:0:0:
202,296,40113,5,0,0:0:0:0:
219,209,40274,2,0,L|246:62,2,140.000000596047
322,175,41080,2,0,L|397:155,1,70.0000002980235
385,232,41322,2,0,L|428:241,1,35.0000001490118
495,259,41564,1,0,0:0:0:0:
321,64,41887,1,0,0:0:0:0:
245,113,42048,2,0,B|221:140|221:140|247:214|197:264,1,140.000000596047
197,334,42693,5,0,0:0:0:0:
282,323,42855,2,0,P|336:297|375:200,1,140.000000596047
383,144,43339,1,0,0:0:0:0:
237,58,43661,6,0,L|88:24,1,140.000000596047
144,73,44145,2,0,P|207:103|256:162,1,140.000000596047
258,206,44629,1,0,0:0:0:0:
253,258,44790,1,0,0:0:0:0:
235,302,44951,6,0,P|298:314|372:295,1,140.000000596047
484,173,45597,1,0,0:0:0:0:
421,115,45758,1,0,0:0:0:0:
340,100,45919,1,0,0:0:0:0:
444,76,46080,2,0,L|244:169,1,210.000008904935
236,172,46564,1,0,0:0:0:0:
219,179,46726,1,0,0:0:0:0:
201,187,46887,2,0,L|120:42,1,140.000000596047
307,95,47532,6,0,L|295:318,1,210.000000894071
214,171,48016,1,0,0:0:0:0:
140,205,48177,1,0,0:0:0:0:
66,239,48339,2,0,P|64:173|99:136,1,105.000004452468
9,59,48661,1,0,0:0:0:0:
158,107,48822,6,0,B|195:122|195:122|232:171,1,87.5000003725294
208,327,49145,2,0,L|293:283,1,70.0000002980235
301,280,49387,1,0,0:0:0:0:
336,264,49468,2,0,L|355:185,2,70.0000002980235
464,85,49951,1,0,0:0:0:0:
332,40,50113,2,0,L|185:96,1,140.000000596047
124,289,50597,1,0,0:0:0:0:
144,277,50677,5,0,0:0:0:0:
166,264,50758,1,0,0:0:0:0:
156,143,50919,2,0,L|239:121,2,70.0000002980235
319,358,51403,5,0,0:0:0:0:
380,179,51564,1,0,0:0:0:0:
459,314,51726,2,0,L|469:136,1,157.500006678701
470,115,52048,1,0,0:0:0:0:
473,68,52210,1,0,0:0:0:0:
314,156,52371,1,0,0:0:0:0:
325,181,52532,1,0,0:0:0:0:
179,264,52693,6,0,P|156:182|208:225,1,210.000000894071
241,106,53177,2,0,L|219:52,2,35.0000001490118
302,188,53500,1,0,0:0:0:0:
286,290,53661,2,0,P|369:266|395:145,1,210.000008904935
432,162,54145,5,0,0:0:0:0:
413,47,54306,2,0,L|322:57,1,70.0000002980235
309,59,54548,1,0,0:0:0:0:
277,63,54629,1,0,0:0:0:0:
198,242,54790,1,0,0:0:0:0:
136,167,54951,2,0,B|181:130|240:153|240:153|293:174|346:134,1,210.000008904935
319,262,55435,5,0,0:0:0:0:
365,244,55516,1,0,0:0:0:0:
401,211,55597,2,0,P|418:181|434:93,1,105.000004452468
435,68,55839,1,0,0:0:0:0:
429,18,55919,1,0,0:0:0:0:
322,128,56080,2,0,P|272:97|215:81,1,105.000004452468
82,118,56403,1,0,0:0:0:0:
66,160,56484,1,0,0:0:0:0:
51,202,56564,6,0,L|11:301,1,105.000004452468
93,310,56806,2,0,L|113:367,1,35.0000001490118
221,174,57048,1,0,0:0:0:0:
216,159,57129,1,0,0:0:0:0:
212,145,57210,1,0,0:0:0:0:
402,201,57371,1,0,0:0:0:0:
400,62,57532,2,0,P|364:98|420:89,1,140.000000596047
128,64,58016,5,0,0:0:0:0:
206,78,58177,2,0,L|346:103,1,105.000004452468
241,160,58419,1,0,0:0:0:0:
212,194,58500,1,0,0:0:0:0:
196,287,58661,2,0,P|151:268|123:198,1,105.000004452468
76,87,58984,1,0,0:0:0:0:
31,319,59145,5,0,0:0:0:0:
116,293,59306,1,0,0:0:0:0:
158,157,59468,2,0,P|226:119|310:116,1,157.500006678701
382,138,59790,1,0,0:0:0:0:
360,228,59951,1,0,0:0:0:0:
337,313,60113,2,0,L|315:389,1,70.0000002980235
444,175,60435,6,0,P|409:137|347:110,1,105.000004452468
198,192,60758,2,0,P|233:230|295:257,1,105.000004452468
306,259,61000,1,0,0:0:0:0:
333,258,61080,1,0,0:0:0:0:
238,41,61242,1,0,0:0:0:0:
185,115,61403,2,0,L|120:206,1,105.000004452468
101,232,61645,1,0,0:0:0:0:
76,267,61726,6,0,B|124:297|141:348|141:348|196:335|258:362,3,210.000008904935
282,181,62855,1,0,0:0:0:0:
306,197,62935,1,0,0:0:0:0:
331,213,63016,6,0,L|476:302,1,140.000000596047
419,131,63500,1,0,0:0:0:0:
498,70,63661,2,0,P|379:38|322:102,1,210.000008904935
241,232,64145,1,0,0:0:0:0:
192,82,64306,6,0,L|221:169,1,70.0000002980235
361,336,64629,1,0,0:0:0:0:
336,324,64790,1,0,0:0:0:0:
126,236,64951,2,0,P|169:140|276:120,1,210.000008904935
254,263,65435,1,0,0:0:0:0:
280,296,65597,6,0,L|337:160,1,140.000000596047
452,187,66080,5,0,0:0:0:0:
296,116,66242,1,0,0:0:0:0:
345,223,66403,5,0,0:0:0:0:
120,195,66564,1,0,0:0:0:0:
257,281,66726,5,0,0:0:0:0:
22,323,66887,1,0,0:0:0:0:
191,41,67048,5,0,0:0:0:0:
256,192,67210,12,0,68177,0:0:0:0:
68,296,68500,6,0,L|200:264,2,105.000004452468
74,144,68984,1,0,0:0:0:0:
164,176,69145,1,0,0:0:0:0:
247,330,69306,1,0,0:0:0:0:
279,314,69468,6,0,P|317:267|297:111,1,210.000008904935
452,133,69951,1,0,0:0:0:0:
396,55,70113,2,0,P|344:22|263:15,1,105.000004452468
318,106,70435,2,0,P|243:103|197:125,1,105.000004452468
179,318,70758,6,0,L|147:213,1,105.000004452468
141,194,71000,1,0,0:0:0:0:
135,175,71080,1,0,0:0:0:0:
269,218,71242,1,0,0:0:0:0:
292,217,71322,1,0,0:0:0:0:
315,212,71403,2,0,P|370:185|413:151,1,105.000004452468
235,68,71726,1,0,0:0:0:0:
423,311,71887,1,0,0:0:0:0:
308,251,72048,6,0,P|216:234|159:244,1,105.000004452468
73,288,72371,1,0,0:0:0:0:
174,356,72532,1,0,0:0:0:0:
129,174,72693,2,0,L|174:63,1,105.000004452468
234,147,73016,2,0,L|346:99,1,105.000004452468
460,214,73339,6,0,P|390:208|322:244,1,140.000000596047
315,133,73822,1,0,0:0:0:0:
212,55,73984,2,0,L|108:88,1,105.000004452468
191,145,74306,2,0,L|131:239,1,105.000004452468
374,346,74629,2,0,P|397:269|291:216,1,210.000008904935
231,254,75113,1,0,0:0:0:0:
242,266,75274,2,0,P|319:289|372:183,1,210.000008904935
475,62,75919,6,0,L|326:37,1,140.000000596047
301,31,76403,1,0,0:0:0:0:
263,23,76726,1,0,0:0:0:0:
61,94,77048,6,0,L|286:133,1,210.000008904935
224,315,77532,1,0,0:0:0:0:
239,54,77693,5,0,0:0:0:0:
165,331,77855,1,0,0:0:0:0:
69,156,78016,1,0,0:0:0:0:
350,318,78177,1,0,0:0:0:0:
408,71,78339,1,0,0:0:0:0:
512,214,78500,6,0,L|285:186,1,210.000008904935
156,342,78984,1,0,0:0:0:0:
299,53,79145,1,0,0:0:0:0:
373,286,79306,2,0,L|368:154,1,105.000004452468
361,34,79629,1,0,0:0:0:0:
291,113,79790,6,0,P|240:157|159:148,1,140.000000596047
208,65,80274,1,0,0:0:0:0:
138,300,80435,2,0,L|100:192,1,87.5000003725294
210,362,80758,2,0,L|225:258,1,87.5000003725294
338,248,81080,6,0,P|332:166|291:125,1,105.000004452468
311,130,81322,1,0,0:0:0:0:
293,117,81403,2,0,B|256:123|220:96|181:103,1,105.000004452468
166,102,81645,1,0,0:0:0:0:
141,107,81726,2,0,P|85:135|52:188,1,105.000004452468
9,236,82048,2,0,P|76:250|128:214,1,105.000004452468
179,28,82371,6,0,L|223:131,1,105.000004452468
230,155,82613,1,0,0:0:0:0:
244,188,82693,1,0,0:0:0:0:
185,339,82855,1,0,0:0:0:0:
323,223,83016,2,0,P|284:267|233:275,1,105.000004452468
367,151,83339,2,0,P|405:210|397:256,1,105.000004452468
287,132,83661,6,0,P|330:77|412:81,1,140.000000596047
330,203,84145,1,0,0:0:0:0:
243,58,84306,1,0,0:0:0:0:
266,260,84468,1,0,0:0:0:0:
142,90,84629,1,0,0:0:0:0:
127,326,84790,1,0,0:0:0:0:
47,147,84951,5,0,0:0:0:0:
311,281,85113,1,0,0:0:0:0:
173,47,85274,1,0,0:0:0:0:
60,261,85435,1,0,0:0:0:0:
404,192,85597,1,0,0:0:0:0:
258,45,85758,1,0,0:0:0:0:
247,333,85919,1,0,0:0:0:0:
494,79,86080,1,0,0:0:0:0:
359,149,86242,6,0,L|235:108,1,105.000004452468
217,101,86564,1,0,0:0:0:0:
115,337,86726,2,0,L|192:257,1,105.000004452468
216,230,87048,1,0,0:0:0:0:
346,318,87210,2,0,L|279:27,1,280.000001192094
263,119,88177,5,0,0:0:0:0:
201,346,88339,1,0,0:0:0:0:
58,247,88822,5,0,0:0:0:0:
58,206,88903,1,0,0:0:0:0:
72,165,88984,1,0,0:0:0:0:
101,132,89064,1,0,0:0:0:0:
136,117,89145,1,0,0:0:0:0:
180,118,89226,1,0,0:0:0:0:
223,106,89306,2,0,P|230:87|237:45,5,35.0000001490118
247,193,89790,5,0,0:0:0:0:
272,229,89871,1,0,0:0:0:0:
312,252,89951,1,0,0:0:0:0:
357,260,90032,1,0,0:0:0:0:
399,252,90113,1,0,0:0:0:0:
437,228,90193,1,0,0:0:0:0:
471,198,90274,2,0,P|507:213|521:228,5,35.0000001490118
397,123,90758,6,0,L|375:243,1,105.000004452468
374,253,91000,1,0,0:0:0:0:
285,219,91080,2,0,L|219:322,1,105.000004452468
198,191,91403,6,0,B|135:218|39:219|39:219|14:155|34:89|34:89|47:54|47:54|78:73|78:73|117:57|161:51|161:51|176:16|176:16|205:42|205:42|251:93|258:156,1,630.000026714805
351,65,92532,6,0,L|440:51,1,70.0000002980235
409,136,92855,2,0,L|453:144,1,35.0000001490118
504,200,93016,1,0,0:0:0:0:
512,247,93097,1,0,0:0:0:0:
506,297,93177,1,0,0:0:0:0:
485,337,93258,1,0,0:0:0:0:
437,323,93339,6,0,P|369:312|320:318,1,105.000004452468
116,84,93822,1,4,0:0:0:0:
32,154,94145,5,0,0:0:0:0:
102,241,94306,2,0,L|124:191,3,35.0000001490118
197,205,94629,1,0,0:0:0:0:
233,178,94710,1,0,0:0:0:0:
273,166,94790,1,0,0:0:0:0:
318,165,94871,1,0,0:0:0:0:
362,172,94951,1,0,0:0:0:0:
406,166,95032,1,0,0:0:0:0:
446,147,95113,2,0,P|469:124|463:12,1,140.000000596047
410,301,95597,6,0,L|316:264,1,70.0000002980235
140,320,95919,1,0,0:0:0:0:
241,169,96080,2,0,L|255:72,1,70.0000002980235
196,347,96403,2,0,L|136:111,1,210.000008904935
157,125,96806,1,0,0:0:0:0:
168,108,96887,1,0,0:0:0:0:
177,93,96968,1,0,0:0:0:0:
189,76,97048,1,0,0:0:0:0:
200,60,97129,1,0,0:0:0:0:
246,79,97210,5,0,0:0:0:0:
288,67,97290,1,0,0:0:0:0:
331,63,97371,1,0,0:0:0:0:
375,64,97451,1,0,0:0:0:0:
418,72,97532,1,0,0:0:0:0:
459,86,97613,1,0,0:0:0:0:
498,106,97693,2,0,P|439:117|372:164,1,140.000000596047
374,161,98097,5,0,0:0:0:0:
374,161,98177,1,0,0:0:0:0:
396,274,98339,1,0,0:0:0:0:
231,112,98500,1,0,0:0:0:0:
300,292,98661,1,0,0:0:0:0:
82,65,98822,1,0,0:0:0:0:
200,311,98984,2,0,L|80:208,1,140.000000596047
293,258,99468,1,0,0:0:0:0:
403,331,99790,5,0,0:0:0:0:
426,292,99951,1,0,0:0:0:0:
440,248,100113,1,0,0:0:0:0:
448,204,100274,2,0,P|447:140|416:60,1,140.000000596047
242,204,100758,5,0,0:0:0:0:
229,212,100839,1,0,0:0:0:0:
212,217,100919,2,0,P|172:222|133:213,1,70.0000002980235
274,55,101242,1,0,0:0:0:0:
292,95,101322,1,0,0:0:0:0:
311,138,101403,1,0,0:0:0:0:
330,183,101484,1,0,0:0:0:0:
351,227,101564,2,0,P|398:267|324:246,1,210.000008904935
446,144,102048,6,0,L|287:104,1,140.000000596047
293,106,102532,1,0,0:0:0:0:
275,102,102693,1,0,0:0:0:0:
346,223,102855,2,0,L|131:269,1,210.000008904935
98,287,103258,5,0,0:0:0:0:
51,267,103338,1,0,0:0:0:0:
38,218,103419,1,0,0:0:0:0:
70,178,103499,1,0,0:0:0:0:
121,180,103580,1,0,0:0:0:0:
150,222,103661,2,0,P|211:210|264:144,2,140.000000596047
