osu file format v14

[General]
AudioFilename: audio.mp3
AudioLeadIn: 0
PreviewTime: 67371
Countdown: 1
SampleSet: Normal
StackLeniency: 0.7
Mode: 0
LetterboxInBreaks: 0
WidescreenStoryboard: 1

[Editor]
DistanceSpacing: 1.1
BeatDivisor: 4
GridSize: 4
TimelineZoom: 1.3

[Metadata]
Title:Unhappy End World
TitleUnicode:アンハッピーエンドワールド
Artist:Naoki Miki(CV.Takahashi Rie) & Ebisuzawa Kurumi(CV.Ozawa Ari)
ArtistUnicode:直樹美紀(CV.高橋李依) & 恵飛須沢胡桃(CV.小澤亜李)
Creator:Zisa
Version:Life
Source:がっこうぐらし!
Tags:school live gakkou gurashi! naoki miki ebisuzawa kurumi
BeatmapID:1224603
BeatmapSetID:559825

[Difficulty]
HPDrainRate:4
CircleSize:3.8
OverallDifficulty:9.5
ApproachRate:9.7
SliderMultiplier:2
SliderTickRate:2

[Events]
//Background and Video events
0,0,"bg.jpg",0,0
//Break Periods
2,104505,110232
2,110957,114103
2,167570,173780
2,209021,213458
//Storyboard Layer 0 (Background)
//Storyboard Layer 1 (Fail)
//Storyboard Layer 2 (Pass)
//Storyboard Layer 3 (Foreground)
//Storyboard Sound Samples

[TimingPoints]
1081,322.58064516129,4,1,0,20,1,0
1081,-200,4,1,0,20,0,0
3661,-100,4,1,0,20,0,0
5597,-200,4,1,0,20,0,0
10113,-200,4,1,0,45,0,0
10758,-200,4,1,0,60,0,0
11403,-100,4,1,0,60,0,0
13984,-100,4,1,0,100,0,0
16403,-66.6666666666667,4,1,0,100,0,0
18984,-100,4,1,0,100,0,0
22855,-66.6666666666667,4,1,0,100,0,0
23016,-66.6666666666667,4,1,0,100,0,0
25435,-100,4,1,0,100,0,0
26887,-166.666666666667,4,1,0,20,0,0
36887,-133.333333333333,4,1,0,35,0,0
43661,-200,4,1,0,30,0,0
45758,-200,4,1,0,60,0,0
46887,-66.6666666666667,4,1,0,100,0,0
51403,-50,4,1,0,100,0,0
51564,-100,4,1,0,100,0,0
52371,-66.6666666666667,4,1,0,100,0,0
53984,-100,4,1,0,100,0,0
55597,-66.6666666666667,4,1,0,100,0,0
76564,322.58064516129,4,1,0,100,1,0
77209,-200,4,1,0,100,0,0
78499,-66.6666666666667,4,1,0,100,0,0
87209,-133.333333333333,4,1,0,100,0,0
87854,-133.333333333333,4,1,0,70,0,0
88660,-66.6666666666667,4,1,0,100,0,0
89951,-50,4,1,0,100,0,0
90999,-133.333333333333,4,1,0,100,0,0
92531,-200,4,1,0,100,0,0
93822,-66.6666666666667,4,1,0,100,0,0
100273,-83.3333333333333,4,1,0,100,0,0
100434,-66.6666666666667,4,1,0,100,0,0
103660,-66.6666666666667,4,1,0,75,0,0
103983,-66.6666666666667,4,1,0,50,0,0
104144,-100,4,1,0,50,0,0
110757,-100,4,1,0,15,0,0
117209,-100,4,1,0,25,0,0
118499,-100,4,1,0,35,0,0
119789,-100,4,1,0,50,0,0
120757,-100,4,1,0,25,0,0
121080,-133.333333333333,4,1,0,25,0,0
124467,-133.333333333333,4,1,0,50,0,0
125596,-133.333333333333,4,1,0,75,0,0
126241,-66.6666666666667,4,1,0,75,0,0
130112,-66.6666666666667,4,1,0,80,0,0
130273,-100,4,1,0,80,0,0
131080,-66.6666666666667,4,1,0,80,0,0
133983,-66.6666666666667,4,1,0,100,0,0
135757,-66.6666666666667,4,1,0,80,0,0
140434,-66.6666666666667,4,1,0,90,0,0
141725,-66.6666666666667,4,1,0,100,0,0
146080,-50,4,1,0,100,0,0
146886,-58.8235294117647,4,1,0,100,0,0
150434,-52.6315789473684,4,1,0,100,0,0
150596,-58.8235294117647,4,1,0,100,0,0
155918,-133.333333333333,4,1,0,100,0,0
157209,-57.1428571428571,4,1,0,100,0,0
164951,-50,4,1,0,100,0,0
165918,-100,4,1,0,100,0,0
166563,-200,4,1,0,60,0,0
174305,-200,4,1,0,100,0,0
177209,-66.6666666666667,4,1,0,100,0,0
180434,-66.6666666666667,4,1,0,100,0,0
181563,-200,4,1,0,100,0,0
182854,-66.6666666666667,4,1,0,100,0,0
187854,-57.1428571428571,4,1,0,100,0,0
188176,-66.6666666666667,4,1,0,100,0,0
188983,-50,4,1,0,100,0,0
214951,-100,4,1,0,40,0,0
217854,-100,4,1,0,100,0,0
224305,-50,4,1,0,100,0,0
224951,-55.5555555555556,4,1,0,100,0,0
229305,-200,4,1,0,100,0,0
229789,-50,4,1,0,100,0,0
239467,-133.333333333333,4,1,0,100,0,0
240112,-100,4,1,0,100,0,0
240434,-66.6666666666667,4,1,0,100,0,0
243822,-133.333333333333,4,1,0,100,0,0
244789,-200,4,1,0,100,0,0
246080,-66.6666666666667,4,1,0,100,0,0
256886,-100,4,1,0,10,0,0

[HitObjects]
100,80,1081,6,0,P|136:88|164:108,1,50
224,152,1403,2,0,L|224:202,1,50
96,160,1726,2,0,P|60:168|32:188,1,50
96,292,2048,2,0,L|96:232,1,50
224,228,2371,5,0,0:0:0:0:
344,152,2532,1,0,0:0:0:0:
344,304,2693,2,0,P|380:300|411:303,1,50
216,224,3016,5,0,0:0:0:0:
84,224,3177,1,0,0:0:0:0:
216,224,3339,2,0,P|240:224|265:223,1,50
0,172,3661,6,0,P|64:128|124:136,1,100
181,221,3984,2,0,L|74:224,1,100
164,52,4306,2,0,P|208:115|266:140,2,100
348,160,4790,1,0,0:0:0:0:
308,296,4951,5,0,0:0:0:0:
181,221,5113,1,0,0:0:0:0:
308,296,5274,1,0,0:0:0:0:
164,328,5435,1,0,0:0:0:0:
284,175,5597,6,0,L|344:176,1,50
440,176,5919,1,0,0:0:0:0:
284,175,6080,1,0,0:0:0:0:
284,175,6242,2,0,L|284:239,1,50
440,162,6565,2,0,L|440:112,1,50
236,104,6888,2,0,P|276:88|300:92,1,50
472,24,7210,2,0,P|505:50|520:68,1,50
456,240,7532,5,0,0:0:0:0:
352,328,7693,1,0,0:0:0:0:
236,332,7855,1,0,0:0:0:0:
352,328,8016,1,0,0:0:0:0:
288,236,8177,6,0,P|308:208|312:184,1,50
372,104,8500,2,0,P|380:68|372:40,1,50
212,108,8822,2,0,P|187:102|163:106,1,50
124,232,9145,2,0,P|149:235|170:248,1,50
64,72,9468,5,0,0:0:0:0:
64,72,9629,1,0,0:0:0:0:
204,136,9790,2,0,L|244:96,1,50
84,212,10113,1,0,0:0:0:0:
84,212,10274,1,0,0:0:0:0:
220,272,10435,1,0,0:0:0:0:
84,212,10596,1,0,0:0:0:0:
280,208,10758,5,0,0:0:0:0:
84,212,10919,1,0,0:0:0:0:
300,128,11080,1,0,0:0:0:0:
44,288,11242,1,0,0:0:0:0:
272,48,11403,1,0,0:0:0:0:
400,272,12693,5,0,0:0:0:0:
272,148,13339,2,0,P|232:232|212:248,1,100
189,262,13661,5,0,0:0:0:0:
252,252,13742,1,0,0:0:0:0:
312,272,13822,1,0,0:0:0:0:
352,320,13903,1,0,0:0:0:0:
356,384,13984,5,0,0:0:0:0:
468,264,14145,1,0,0:0:0:0:
148,312,14306,1,0,0:0:0:0:
360,76,14468,1,0,0:0:0:0:
248,360,14629,1,0,0:0:0:0:
124,132,14790,1,0,0:0:0:0:
424,184,14951,1,0,0:0:0:0:
52,36,15597,6,0,B|52:80|64:128|64:128|52:148,1,100
60,134,15919,5,0,0:0:0:0:
60,134,16000,1,0,0:0:0:0:
72,144,16080,1,0,0:0:0:0:
228,88,16403,2,0,P|232:180|280:224,1,150.000005722046
316,132,16726,1,0,0:0:0:0:
224,300,16887,5,0,0:0:0:0:
316,132,17048,1,0,0:0:0:0:
320,80,17129,1,0,0:0:0:0:
352,40,17210,2,0,P|384:4|424:-16,1,75.0000028610231
204,68,17371,5,0,0:0:0:0:
264,84,17451,1,0,0:0:0:0:
316,132,17532,1,0,0:0:0:0:
340,196,17613,1,0,0:0:0:0:
328,260,17693,1,0,0:0:0:0:
248,348,18016,5,0,0:0:0:0:
248,348,18338,1,0,0:0:0:0:
248,348,18661,1,0,0:0:0:0:
440,128,18822,5,0,0:0:0:0:
180,252,18984,2,0,B|212:200|196:140,1,100
200,32,19306,1,0,0:0:0:0:
240,40,19387,1,0,0:0:0:0:
276,60,19468,1,0,0:0:0:0:
300,92,19548,1,0,0:0:0:0:
312,132,19629,1,0,0:0:0:0:
312,172,19710,1,0,0:0:0:0:
236,180,19790,5,0,0:0:0:0:
276,244,19871,1,0,0:0:0:0:
336,288,19951,1,0,0:0:0:0:
412,300,20032,1,0,0:0:0:0:
488,276,20113,5,0,0:0:0:0:
444,224,20193,1,0,0:0:0:0:
384,200,20274,2,0,P|296:192|260:208,1,100
440,164,20597,1,0,0:0:0:0:
476,116,20677,1,0,0:0:0:0:
488,56,20758,5,0,0:0:0:0:
236,104,20919,1,0,0:0:0:0:
488,56,21080,1,0,0:0:0:0:
368,324,21242,1,0,0:0:0:0:
488,56,21403,1,0,0:0:0:0:
112,120,21564,2,0,P|132:28|164:-12,1,100
192,216,21887,1,0,0:0:0:0:
312,300,22048,6,0,P|356:325|412:344,1,100
180,356,22371,1,0,0:0:0:0:
204,100,22532,1,0,0:0:0:0:
420,244,22693,1,0,0:0:0:0:
204,100,22855,2,0,P|84:120|-4:84,1,150.000005722046
184,236,23177,1,0,0:0:0:0:
276,52,23339,5,0,0:0:0:0:
32,288,23500,1,0,0:0:0:0:
32,288,23822,1,0,0:0:0:0:
212,8,24145,2,0,B|232:156|308:128|336:176|336:176|300:92,1,300.000011444092
136,156,24629,2,0,P|104:76|92:8,1,150.000005722046
260,112,24951,1,0,0:0:0:0:
16,196,25113,1,0,0:0:0:0:
312,216,25274,5,0,0:0:0:0:
356,64,25435,2,0,P|276:4|240:0,1,100
252,88,25758,1,0,0:0:0:0:
228,132,25839,1,0,0:0:0:0:
188,160,25919,5,0,0:0:0:0:
108,164,26000,1,0,0:0:0:0:
40,208,26080,1,0,0:0:0:0:
4,280,26161,1,0,0:0:0:0:
16,360,26242,5,0,0:0:0:0:
52,292,26322,1,0,0:0:0:0:
43,214,26403,1,0,0:0:0:0:
8,144,26484,1,0,0:0:0:0:
4,68,26564,5,0,0:0:0:0:
32,24,26645,1,0,0:0:0:0:
84,16,26726,1,0,0:0:0:0:
124,52,26806,1,0,0:0:0:0:
144,104,26887,5,0,0:0:0:0:
140,224,27048,2,0,P|180:232|216:260,1,59.9999981689454
312,304,27371,2,0,P|272:312|236:340,1,59.9999981689454
256,176,27693,2,0,L|256:112,2,59.9999981689454
392,304,28177,6,0,P|432:320|456:344,1,59.9999981689454
420,200,28500,1,0,0:0:0:0:
396,72,28661,1,0,0:0:0:0:
512,120,28822,2,0,L|512:200,3,59.9999981689454
360,144,29468,6,0,P|308:128|280:140,1,59.9999981689454
316,304,29790,2,0,P|352:340|380:352,1,59.9999981689454
248,80,30113,6,0,P|231:132|232:156,1,59.9999981689454
392,280,30435,2,0,P|428:317|440:345,1,59.9999981689454
476,196,30758,5,0,0:0:0:0:
468,92,30919,1,0,0:0:0:0:
380,36,31080,1,0,0:0:0:0:
284,72,31242,1,0,0:0:0:0:
332,140,31403,5,0,0:0:0:0:
240,4,31564,1,0,0:0:0:0:
296,216,31726,1,0,0:0:0:0:
204,80,31887,1,0,0:0:0:0:
208,180,32048,2,0,P|180:216|180:256,3,59.9999981689454
288,360,32693,2,0,P|260:324|260:284,3,59.9999981689454
336,172,33339,6,0,L|364:116,1,59.9999981689454
336,300,33661,2,0,L|364:244,1,59.9999981689454
284,108,33984,2,0,P|266:133|256:164,1,59.9999981689454
280,248,34306,6,0,B|259:288|259:288|259:308,1,59.9999981689454
280,248,34629,1,0,0:0:0:0:
396,168,34790,1,0,0:0:0:0:
284,108,34951,2,0,P|300:152|332:168,1,59.9999981689454
204,328,35274,5,0,0:0:0:0:
212,192,35435,1,0,0:0:0:0:
152,256,35597,5,0,0:0:0:0:
156,120,35758,1,0,0:0:0:0:
44,188,35919,1,0,0:0:0:0:
288,120,36080,1,0,0:0:0:0:
392,204,36242,1,0,0:0:0:0:
424,332,36403,1,0,0:0:0:0:
300,292,36564,5,0,0:0:0:0:
408,84,36726,1,0,0:0:0:0:
276,24,36887,6,0,P|216:56|204:92,1,75.0000028610231
72,92,37210,2,0,P|132:124|144:160,1,75.0000028610231
292,160,37532,2,0,B|292:264,1,75.0000028610231
404,288,37855,2,0,L|404:212,1,75.0000028610231
408,80,38177,5,0,0:0:0:0:
280,24,38339,1,0,0:0:0:0:
224,140,38500,2,0,P|188:136|140:140,2,75.0000028610231
184,296,38984,1,0,0:0:0:0:
128,64,39145,5,0,0:0:0:0:
300,160,39306,1,0,0:0:0:0:
84,232,39468,1,0,0:0:0:0:
300,160,39629,1,0,0:0:0:0:
384,72,39790,5,0,0:0:0:0:
420,192,39951,1,0,0:0:0:0:
328,272,40113,1,0,0:0:0:0:
212,236,40274,1,0,0:0:0:0:
348,80,40435,6,0,P|272:68|252:80,1,75.0000028610231
136,160,40758,1,0,0:0:0:0:
196,92,40919,1,0,0:0:0:0:
224,172,41080,5,0,0:0:0:0:
44,32,41242,1,0,0:0:0:0:
44,32,41322,1,0,0:0:0:0:
44,32,41403,1,0,0:0:0:0:
164,244,41564,1,0,0:0:0:0:
164,244,41726,2,0,P|128:254|97:275,1,75.0000028610231
328,312,42048,2,0,P|297:292|277:261,1,75.0000028610231
408,120,42371,6,0,L|488:120,2,75.0000028610231
408,120,42855,1,0,0:0:0:0:
288,124,43016,6,0,P|236:116|204:96,2,75.0000028610231
208,232,43500,1,0,0:0:0:0:
144,48,43661,1,0,0:0:0:0:
336,244,43822,1,0,0:0:0:0:
140,156,43984,5,0,0:0:0:0:
112,248,44145,1,0,0:0:0:0:
176,324,44306,5,0,0:0:0:0:
276,304,44468,1,0,0:0:0:0:
236,136,44629,5,0,0:0:0:0:
304,212,44790,1,0,0:0:0:0:
400,192,44951,5,0,0:0:0:0:
144,100,45113,1,0,0:0:0:0:
320,376,45274,1,0,0:0:0:0:
352,108,45435,1,0,0:0:0:0:
240,268,45597,5,0,0:0:0:0:
456,108,45758,1,0,0:0:0:0:
196,8,45919,1,0,0:0:0:0:
476,220,46080,2,0,B|380:240|276:196,1,200
276,0,46887,5,0,0:0:0:0:
304,172,47049,1,0,0:0:0:0:
276,0,47210,1,0,0:0:0:0:
276,280,47371,1,0,0:0:0:0:
452,52,47532,6,0,B|428:156|428:156|392:216|392:216|356:352,1,300.000011444092
488,224,48016,1,0,0:0:0:0:
168,312,48177,2,0,P|160:168|16:148,1,300.000011444092
344,40,48661,5,0,0:0:0:0:
72,256,48822,6,0,B|120:188|184:152,1,150.000005722046
72,256,49145,1,0,0:0:0:0:
168,312,49306,2,0,B|296:281|296:281|333:305|333:305|492:259,1,300.000011444092
72,360,49790,5,0,0:0:0:0:
252,184,49951,1,0,0:0:0:0:
92,180,50113,5,0,0:0:0:0:
248,272,50274,1,0,0:0:0:0:
92,180,50435,1,0,0:0:0:0:
256,100,50597,1,0,0:0:0:0:
12,220,50758,5,0,0:0:0:0:
252,184,50919,1,0,0:0:0:0:
16,132,51080,1,0,0:0:0:0:
176,0,51242,1,0,0:0:0:0:
164,220,51403,6,0,B|92:332|92:332|160:280,1,200
252,352,51726,5,0,0:0:0:0:
388,188,51887,2,0,P|436:168|460:176,1,50
188,144,52048,2,0,B|168:112|168:112|176:72,1,50
336,116,52210,2,0,P|308:156|268:164,1,50
192,296,52371,5,0,0:0:0:0:
48,292,52532,1,0,0:0:0:0:
188,144,52693,5,0,0:0:0:0:
68,176,52855,1,0,0:0:0:0:
224,24,53016,1,0,0:0:0:0:
0,120,53177,1,0,0:0:0:0:
204,284,53339,1,0,0:0:0:0:
68,176,53500,1,0,0:0:0:0:
316,104,53661,5,0,0:0:0:0:
204,284,53822,1,0,0:0:0:0:
296,216,53984,6,0,L|304:328,1,100
376,368,54306,1,0,0:0:0:0:
348,153,54468,1,0,0:0:0:0:
448,244,54629,2,0,P|440:148|456:120,1,100
340,56,54951,2,0,P|348:152|332:180,1,100
200,176,55274,6,0,P|164:208|160:232,3,50
136,288,55597,2,0,P|192:332|216:376,3,75.0000028610231
88,240,55919,1,0,0:0:0:0:
56,180,56000,1,0,0:0:0:0:
40,112,56080,2,0,P|32:52|56:0,1,75.0000028610231
16,304,56242,5,0,0:0:0:0:
344,196,56403,1,0,0:0:0:0:
288,36,56726,5,0,0:0:0:0:
136,288,56888,1,0,0:0:0:0:
400,312,57049,1,0,0:0:0:0:
284,84,57210,1,0,0:0:0:0:
260,344,57371,1,0,0:0:0:0:
480,220,57532,1,0,0:0:0:0:
280,132,57693,1,0,0:0:0:0:
192,280,57855,6,0,B|138:142|138:142|107:108|107:108|71:0,1,300.000011444092
64,312,58339,1,0,0:0:0:0:
268,140,58500,2,0,P|359:71|332:134,1,300.000011444092
264,352,58984,1,0,0:0:0:0:
392,300,59145,6,0,P|316:228|224:200,1,150.000005722046
160,224,59468,2,0,B|88:328|88:328|24:340,1,150.000005722046
36,208,59790,2,0,P|60:128|124:72,1,150.000005722046
272,280,60113,2,0,B|252:176|252:176|184:124,1,150.000005722046
464,160,60435,5,0,0:0:0:0:
292,32,60597,1,0,0:0:0:0:
396,252,60758,1,0,0:0:0:0:
292,32,60919,1,0,0:0:0:0:
281,240,61080,5,0,0:0:0:0:
428,46,61242,1,0,0:0:0:0:
396,252,61403,1,0,0:0:0:0:
428,46,61564,1,0,0:0:0:0:
88,96,61726,5,0,0:0:0:0:
348,148,61887,1,0,0:0:0:0:
200,360,62048,1,0,0:0:0:0:
464,160,62210,1,0,0:0:0:0:
200,8,62371,6,0,B|232:124|232:124|176:72,1,150.000005722046
381,314,62693,2,0,B|349:198|405:134,1,150.000005722046
172,192,63016,1,0,0:0:0:0:
443,99,63177,1,0,0:0:0:0:
419,139,63258,1,0,0:0:0:0:
383,167,63339,1,0,0:0:0:0:
339,183,63419,1,0,0:0:0:0:
291,179,63500,1,0,0:0:0:0:
212,112,63661,5,0,0:0:0:0:
424,304,63822,1,0,0:0:0:0:
328,64,63984,1,0,0:0:0:0:
276,352,64145,1,0,0:0:0:0:
32,180,64306,5,0,0:0:0:0:
432,72,64468,2,0,P|384:156|352:168,1,75.0000028610231
268,4,64629,1,0,0:0:0:0:
196,244,64790,1,0,0:0:0:0:
136,288,64871,1,0,0:0:0:0:
68,288,64951,2,0,P|-4:248|-20:224,1,75.0000028610231
168,36,65113,2,0,P|104:92|100:168,1,150.000005722046
220,344,65435,1,0,0:0:0:0:
212,140,65597,5,0,0:0:0:0:
452,0,65758,1,0,0:0:0:0:
108,172,65919,1,0,0:0:0:0:
432,372,66080,1,0,0:0:0:0:
36,212,66242,5,0,0:0:0:0:
64,240,66322,1,0,0:0:0:0:
100,252,66403,1,0,0:0:0:0:
140,248,66484,1,0,0:0:0:0:
172,220,66564,5,0,0:0:0:0:
228,164,66645,1,0,0:0:0:0:
304,152,66726,1,0,0:0:0:0:
372,200,66806,1,0,0:0:0:0:
380,120,66887,5,0,0:0:0:0:
0,312,67048,1,0,0:0:0:0:
260,8,67371,1,0,0:0:0:0:
393,295,67532,5,0,0:0:0:0:
104,148,67693,1,0,0:0:0:0:
268,248,67855,1,0,0:0:0:0:
272,180,67936,1,0,0:0:0:0:
276,112,68016,1,0,0:0:0:0:
96,52,68177,6,0,B|184:24|232:92|232:92|308:84|308:84|360:188,1,300.000011444092
392,344,68661,1,0,0:0:0:0:
236,304,68822,2,0,B|176:236|88:256|88:256|16:236|-16:152,1,300.000011444092
136,380,69306,1,0,0:0:0:0:
140,96,69468,2,0,P|200:20|392:68,1,300.000011444092
304,248,69951,1,0,0:0:0:0:
272,132,70113,5,0,0:0:0:0:
246,6,70274,1,0,0:0:0:0:
392,168,70435,1,0,0:0:0:0:
212,320,70597,1,0,0:0:0:0:
156,144,70758,6,0,B|152:36|88:0,1,150.000005722046
216,200,71080,2,0,B|280:120|280:120|308:28,1,150.000005722046
256,272,71403,2,0,P|232:348|292:336,1,150.000005722046
274,351,71726,2,0,P|384:300|468:332,1,150.000005722046
208,196,72048,5,0,0:0:0:0:
404,300,72210,1,0,0:0:0:0:
512,116,72371,1,0,0:0:0:0:
292,288,72532,1,0,0:0:0:0:
187,68,72693,6,0,L|11:156,1,150.000005722046
53,136,73016,2,0,P|160:156|196:208,1,150.000005722046
240,124,73339,2,0,B|336:69|336:69|379:76,1,150.000005722046
92,236,73661,1,0,0:0:0:0:
352,152,73822,1,0,0:0:0:0:
76,56,73984,5,0,0:0:0:0:
416,336,74145,1,0,0:0:0:0:
76,56,74306,1,0,0:0:0:0:
224,300,74468,1,0,0:0:0:0:
336,368,74629,5,0,0:0:0:0:
92,236,74790,1,0,0:0:0:0:
352,248,74951,1,0,0:0:0:0:
352,248,75113,1,0,0:0:0:0:
312,96,75274,5,0,0:0:0:0:
0,244,75435,1,0,0:0:0:0:
288,176,75597,1,0,0:0:0:0:
288,176,75758,1,0,0:0:0:0:
368,132,75919,5,0,0:0:0:0:
48,4,76080,1,0,0:0:0:0:
364,216,76242,1,0,0:0:0:0:
0,312,76403,1,0,0:0:0:0:
368,132,76564,5,0,0:0:0:0:
429,110,76645,1,0,0:0:0:0:
427,45,76725,1,0,0:0:0:0:
364,27,76805,1,0,0:0:0:0:
320,80,76886,5,0,0:0:0:0:
330,153,76967,1,0,0:0:0:0:
298,227,77047,1,0,0:0:0:0:
227,276,77128,1,0,0:0:0:0:
142,294,77209,6,0,P|78:294|22:259,1,100
112,108,77693,1,0,0:0:0:0:
16,372,77854,5,0,0:0:0:0:
298,227,78015,1,0,0:0:0:0:
36,64,78176,1,0,0:0:0:0:
36,64,78338,1,0,0:0:0:0:
324,0,78499,6,0,B|252:64|248:212|248:212|280:164|320:132,1,300.000011444092
400,4,78983,1,0,0:0:0:0:
212,328,79144,6,0,B|105:131|105:131|172:166,1,300.000011444092
0,64,79628,1,0,0:0:0:0:
384,300,79789,2,0,P|288:220|376:76,1,300.000011444092
124,360,80273,1,0,0:0:0:0:
400,188,80434,5,0,0:0:0:0:
220,104,80596,1,0,0:0:0:0:
40,180,80757,1,0,0:0:0:0:
220,104,80918,1,0,0:0:0:0:
456,120,81080,5,0,0:0:0:0:
456,120,81241,1,0,0:0:0:0:
340,368,81402,1,0,0:0:0:0:
320,120,81564,1,0,0:0:0:0:
464,248,81725,5,0,0:0:0:0:
464,248,81886,1,0,0:0:0:0:
120,124,82047,1,0,0:0:0:0:
420,324,82209,1,0,0:0:0:0:
480,24,82370,5,0,0:0:0:0:
216,244,82531,1,0,0:0:0:0:
48,132,82693,1,0,0:0:0:0:
416,184,82854,1,0,0:0:0:0:
252,0,83015,5,0,0:0:0:0:
196,4,83096,1,0,0:0:0:0:
156,44,83176,1,0,0:0:0:0:
152,104,83258,1,0,0:0:0:0:
176,180,83338,1,0,0:0:0:0:
148,256,83418,1,0,0:0:0:0:
72,280,83499,1,0,0:0:0:0:
248,96,83660,5,0,0:0:0:0:
0,240,83822,1,0,0:0:0:0:
252,0,83983,1,0,0:0:0:0:
344,320,84144,1,0,0:0:0:0:
56,192,84305,5,0,0:0:0:0:
456,192,84467,1,0,0:0:0:0:
127,26,84628,5,0,0:0:0:0:
384,357,84789,1,0,0:0:0:0:
100,320,84951,5,0,0:0:0:0:
417,58,85112,1,0,0:0:0:0:
80,105,85273,5,0,0:0:0:0:
424,273,85434,1,0,0:0:0:0:
256,0,85596,5,0,0:0:0:0:
268,60,85676,1,0,0:0:0:0:
268,128,85757,1,0,0:0:0:0:
240,192,85838,1,0,0:0:0:0:
188,240,85918,5,0,0:0:0:0:
184,156,85999,1,0,0:0:0:0:
228,88,86080,1,0,0:0:0:0:
304,64,86160,1,0,0:0:0:0:
380,92,86241,5,0,0:0:0:0:
152,4,86402,1,0,0:0:0:0:
444,220,86563,1,0,0:0:0:0:
0,112,86725,1,0,0:0:0:0:
404,288,86886,1,0,0:0:0:0:
356,4,87047,1,0,0:0:0:0:
344,340,87209,2,0,P|324:292|340:244,1,75.0000028610231
72,328,87854,6,0,P|112:308|140:260,1,75.0000028610231
208,120,88176,1,0,0:0:0:0:
56,244,88338,1,0,0:0:0:0:
268,364,88499,1,0,0:0:0:0:
208,120,88660,2,0,P|180:48|136:16,1,75.0000028610231
120,112,88822,5,0,0:0:0:0:
160,52,88902,1,0,0:0:0:0:
228,20,88983,1,0,0:0:0:0:
300,28,89063,1,0,0:0:0:0:
364,68,89144,5,0,0:0:0:0:
256,175,89305,1,0,0:0:0:0:
200,115,89386,1,0,0:0:0:0:
120,112,89467,1,0,0:0:0:0:
61,165,89547,1,0,0:0:0:0:
64,244,89628,1,0,0:0:0:0:
124,296,89709,1,0,0:0:0:0:
160,208,89789,5,0,0:0:0:0:
196,252,89870,1,0,0:0:0:0:
248,268,89951,2,0,P|336:232|332:124,1,200
260,32,90273,5,0,0:0:0:0:
308,64,90354,1,0,0:0:0:0:
360,88,90434,1,0,0:0:0:0:
312,116,90515,1,0,0:0:0:0:
260,140,90596,1,0,0:0:0:0:
308,168,90676,1,0,0:0:0:0:
360,188,90757,5,0,0:0:0:0:
352,248,90838,1,0,0:0:0:0:
320,296,90918,1,0,0:0:0:0:
265,317,90999,1,0,0:0:0:0:
208,320,91080,5,0,0:0:0:0:
135,282,91160,1,0,0:0:0:0:
98,207,91241,1,0,0:0:0:0:
115,124,91322,1,0,0:0:0:0:
166,57,91402,2,0,B|196:24|236:24|236:24|248:112|360:116|360:116|392:28|328:48|312:40|308:8,1,375.000014305115
84,128,92531,6,0,P|140:120|184:108,1,100
244,116,92934,1,0,0:0:0:0:
304,140,93015,1,0,0:0:0:0:
340,192,93096,1,0,0:0:0:0:
348,264,93176,1,0,0:0:0:0:
316,324,93257,1,0,0:0:0:0:
260,360,93338,5,0,0:0:0:0:
336,0,93499,1,0,0:0:0:0:
96,328,93822,2,0,P|128:280|108:184,1,150.000005722046
376,256,94144,1,0,0:0:0:0:
344,240,94225,1,0,0:0:0:0:
312,224,94306,5,0,0:0:0:0:
264,210,94387,1,0,0:0:0:0:
213,210,94467,1,0,0:0:0:0:
166,230,94547,1,0,0:0:0:0:
136,272,94628,5,0,0:0:0:0:
76,328,94709,1,0,0:0:0:0:
4,288,94789,1,0,0:0:0:0:
24,208,94870,1,0,0:0:0:0:
104,196,94951,5,0,0:0:0:0:
92,116,95031,1,0,0:0:0:0:
12,128,95112,1,0,0:0:0:0:
200,332,95434,5,0,0:0:0:0:
72,0,95757,5,0,0:0:0:0:
420,96,96080,5,0,0:0:0:0:
200,332,96241,5,0,0:0:0:0:
236,136,96402,2,0,P|284:48|324:24,1,150.000005722046
36,204,96725,5,0,0:0:0:0:
76,232,96805,1,0,0:0:0:0:
120,252,96886,1,0,0:0:0:0:
196,260,96967,1,0,0:0:0:0:
268,240,97047,1,0,0:0:0:0:
324,188,97128,1,0,0:0:0:0:
240,188,97209,5,0,0:0:0:0:
192,124,97289,1,0,0:0:0:0:
212,48,97370,1,0,0:0:0:0:
276,4,97450,1,0,0:0:0:0:
288,104,97531,5,0,0:0:0:0:
296,196,97612,1,0,0:0:0:0:
304,288,97693,2,0,P|288:332|252:284,1,75.0000028610231
52,52,98015,1,0,0:0:0:0:
104,312,98176,6,0,L|120:392,1,75.0000028610231
176,104,98338,1,0,0:0:0:0:
460,224,98499,1,0,0:0:0:0:
76,180,98660,1,0,0:0:0:0:
372,104,98822,5,0,0:0:0:0:
276,332,98983,2,0,B|256:272|256:272|284:136,1,150.000005722046
380,236,99305,1,0,0:0:0:0:
348,84,99467,2,0,P|220:136|180:100,1,150.000005722046
128,72,99789,5,0,0:0:0:0:
380,236,99951,1,0,0:0:0:0:
20,104,100112,1,0,0:0:0:0:
356,12,100273,2,0,B|320:24|320:24|260:104,1,119.999996337891
140,296,100596,1,0,0:0:0:0:
312,36,100757,5,0,0:0:0:0:
140,296,100918,2,0,B|36:228|36:228|88:216,1,150.000005722046
236,220,101241,1,0,0:0:0:0:
264,216,101322,1,0,0:0:0:0:
292,212,101402,5,0,0:0:0:0:
320,208,101483,1,0,0:0:0:0:
348,204,101563,2,0,L|520:196,1,150.000005722046
332,104,101886,1,0,0:0:0:0:
176,116,102047,2,0,L|4:124,1,150.000005722046
192,368,102370,5,0,0:0:0:0:
372,28,102531,1,0,0:0:0:0:
104,152,102693,1,0,0:0:0:0:
292,176,102854,1,0,0:0:0:0:
328,188,102934,1,0,0:0:0:0:
364,204,103015,5,0,0:0:0:0:
348,156,103096,1,0,0:0:0:0:
368,108,103176,1,0,0:0:0:0:
416,88,103257,1,0,0:0:0:0:
464,104,103338,5,0,0:0:0:0:
408,56,103418,1,0,0:0:0:0:
340,32,103499,1,0,0:0:0:0:
268,44,103580,1,0,0:0:0:0:
216,96,103660,5,0,0:0:0:0:
208,172,103741,1,0,0:0:0:0:
200,248,103822,1,0,0:0:0:0:
196,324,103902,1,0,0:0:0:0:
160,296,103983,5,0,0:0:0:0:
124,272,104063,1,0,0:0:0:0:
80,268,104144,1,0,0:0:0:0:
36,280,104225,2,0,L|24:328,1,50
256,192,110757,5,0,0:0:0:0:
256,192,114628,12,0,115273,0:0:0:0:
256,192,115918,5,0,0:0:0:0:
256,192,116241,5,0,0:0:0:0:
256,192,116563,5,0,0:0:0:0:
256,192,116886,5,0,0:0:0:0:
188,96,117209,5,0,0:0:0:0:
256,192,117531,5,0,0:0:0:0:
320,284,117854,5,0,0:0:0:0:
256,192,118176,5,0,0:0:0:0:
152,244,118499,5,0,0:0:0:0:
60,180,118660,1,0,0:0:0:0:
152,244,118822,1,0,0:0:0:0:
97,84,118983,1,0,0:0:0:0:
183,34,119144,5,0,0:0:0:0:
279,52,119305,1,0,0:0:0:0:
334,134,119467,1,0,0:0:0:0:
325,230,119628,1,0,0:0:0:0:
334,134,119789,5,0,0:0:0:0:
268,304,119951,1,0,0:0:0:0:
268,304,120031,1,0,0:0:0:0:
268,304,120112,1,0,0:0:0:0:
325,230,120273,2,0,P|433:178|517:202,1,200
506,195,120757,1,0,0:0:0:0:
506,195,120918,1,0,0:0:0:0:
464,92,121080,6,0,L|364:60,2,75.0000028610231
288,76,121563,1,0,0:0:0:0:
208,136,121725,1,0,0:0:0:0:
228,0,121886,1,0,0:0:0:0:
384,192,122047,5,0,0:0:0:0:
440,260,122209,1,0,0:0:0:0:
312,148,122370,1,0,0:0:0:0:
344,260,122531,1,0,0:0:0:0:
280,32,122693,1,0,0:0:0:0:
228,228,122854,1,0,0:0:0:0:
312,148,123015,5,0,0:0:0:0:
304,52,123176,1,0,0:0:0:0:
292,240,123338,1,0,0:0:0:0:
304,332,123499,1,0,0:0:0:0:
292,240,123660,5,0,0:0:0:0:
344,152,123822,1,0,0:0:0:0:
448,132,123983,1,0,0:0:0:0:
376,48,124144,1,0,0:0:0:0:
240,152,124305,5,0,0:0:0:0:
112,28,124467,1,0,0:0:0:0:
344,152,124628,1,0,0:0:0:0:
152,112,124789,2,0,B|168:188|68:208|92:304|92:304|28:300|12:256,1,300.000011444092
192,280,125596,5,0,0:0:0:0:
160,112,125757,1,0,0:0:0:0:
160,112,125918,1,0,0:0:0:0:
368,240,126080,1,0,0:0:0:0:
100,272,126241,6,0,B|176:212|176:212|224:192|224:192|252:156|252:156|340:80,1,300.000011444092
112,364,126725,1,0,0:0:0:0:
228,152,126886,2,0,P|96:82|212:8,1,300.000011444092
436,32,127370,1,0,0:0:0:0:
184,84,127531,6,0,L|312:188,1,150.000005722046
352,96,127854,2,0,P|400:180|372:248,1,150.000005722046
160,232,128176,2,0,B|80:168|80:168|48:104,1,150.000005722046
144,112,128499,2,0,B|100:36|100:36|136:40|160:0,1,150.000005722046
248,160,128822,5,0,0:0:0:0:
256,280,128983,1,0,0:0:0:0:
384,276,129144,1,0,0:0:0:0:
380,156,129305,1,0,0:0:0:0:
160,228,129467,5,0,0:0:0:0:
436,88,129628,1,0,0:0:0:0:
324,384,129789,1,0,0:0:0:0:
312,40,129951,1,0,0:0:0:0:
64,224,130112,6,0,P|164:208|200:160,1,150.000005722046
272,116,130434,2,0,L|340:116,1,50
76,316,130596,2,0,L|0:316,1,50
96,112,130757,2,0,B|95:68|72:48,1,50
248,380,130918,2,0,P|256:340|268:320,1,50
320,24,131080,6,0,P|268:116|296:224,1,150.000005722046
360,280,131402,1,0,0:0:0:0:
404,140,131563,1,0,0:0:0:0:
184,168,131725,1,0,0:0:0:0:
448,228,131886,1,0,0:0:0:0:
344,20,132047,2,0,B|320:76|240:96,1,75.0000028610231
360,280,132209,1,0,0:0:0:0:
260,92,132370,1,0,0:0:0:0:
144,256,132531,1,0,0:0:0:0:
464,112,132693,5,0,0:0:0:0:
360,280,132854,1,0,0:0:0:0:
200,172,133015,1,0,0:0:0:0:
200,172,133176,1,0,0:0:0:0:
412,192,133338,5,0,0:0:0:0:
172,276,133499,1,0,0:0:0:0:
413,350,133660,2,0,L|264:344,1,150.000005722046
196,168,133983,5,0,0:0:0:0:
224,120,134063,1,0,0:0:0:0:
256,76,134144,2,0,L|304:16,1,75.0000028610231
300,108,134305,5,0,0:0:0:0:
360,88,134386,1,0,0:0:0:0:
420,96,134467,2,0,P|492:128|504:140,1,75.0000028610231
384,232,134628,5,0,0:0:0:0:
336,292,134709,1,0,0:0:0:0:
268,260,134789,1,0,0:0:0:0:
272,184,134870,1,0,0:0:0:0:
344,164,134951,2,0,P|392:104|392:56,1,75.0000028610231
416,12,135112,5,0,0:0:0:0:
264,24,135434,5,0,0:0:0:0:
220,92,135515,1,0,0:0:0:0:
228,172,135595,1,0,0:0:0:0:
252,308,135757,5,0,0:0:0:0:
220,92,135918,1,0,0:0:0:0:
252,308,136079,1,0,0:0:0:0:
296,124,136241,5,0,0:0:0:0:
324,80,136321,1,0,0:0:0:0:
368,56,136402,1,0,0:0:0:0:
416,60,136483,1,0,0:0:0:0:
460,84,136563,2,0,P|232:72|140:40,1,300.000011444092
296,176,137047,1,0,0:0:0:0:
168,368,137209,2,0,B|248:280|248:280|352:252|352:252|420:192|420:192,1,300.000011444092
112,232,137693,1,0,0:0:0:0:
284,76,137854,6,0,P|360:48|456:60,1,150.000005722046
380,200,138176,2,0,B|468:272|468:272|468:364,1,150.000005722046
352,328,138499,2,0,P|276:264|224:292,1,150.000005722046
238,277,138822,2,0,P|288:164|276:120,1,150.000005722046
176,180,139144,5,0,0:0:0:0:
280,332,139305,1,0,0:0:0:0:
288,48,139467,1,0,0:0:0:0:
208,272,139628,1,0,0:0:0:0:
488,68,139789,5,0,0:0:0:0:
208,100,139951,1,0,0:0:0:0:
432,216,140112,1,0,0:0:0:0:
136,248,140273,1,0,0:0:0:0:
352,88,140434,5,0,0:0:0:0:
352,88,140596,1,0,0:0:0:0:
0,320,140757,1,0,0:0:0:0:
0,320,140918,1,0,0:0:0:0:
120,120,141080,2,0,B|184:40|184:40|244:28,1,150.000005722046
338,121,141402,2,0,P|270:92|230:30,1,150.000005722046
56,216,141725,5,0,0:0:0:0:
352,8,141886,1,0,0:0:0:0:
388,44,141967,1,0,0:0:0:0:
420,80,142047,1,0,0:0:0:0:
400,124,142128,1,0,0:0:0:0:
376,168,142209,1,0,0:0:0:0:
132,24,142370,5,0,0:0:0:0:
472,80,142531,1,0,0:0:0:0:
144,144,142693,1,0,0:0:0:0:
368,380,142854,1,0,0:0:0:0:
292,64,143015,5,0,0:0:0:0:
0,216,143176,1,0,0:0:0:0:
472,80,143338,1,0,0:0:0:0:
176,220,143499,1,0,0:0:0:0:
176,220,143580,1,0,0:0:0:0:
176,220,143660,1,0,0:0:0:0:
84,80,143822,2,0,P|192:40|240:8,1,150.000005722046
8,168,144144,1,0,0:0:0:0:
336,32,144305,5,0,0:0:0:0:
96,312,144467,1,0,0:0:0:0:
20,36,144628,1,0,0:0:0:0:
352,268,144789,1,0,0:0:0:0:
160,0,144951,5,0,0:0:0:0:
152,40,145031,1,0,0:0:0:0:
168,76,145112,1,0,0:0:0:0:
200,96,145193,1,0,0:0:0:0:
236,164,145273,5,0,0:0:0:0:
275,89,145354,1,0,0:0:0:0:
355,58,145434,1,0,0:0:0:0:
439,76,145515,1,0,0:0:0:0:
509,124,145596,5,0,0:0:0:0:
0,80,145757,1,0,0:0:0:0:
348,64,146080,2,0,L|348:184,1,100
64,164,146241,5,0,0:0:0:0:
60,56,146402,1,0,0:0:0:0:
204,292,146563,1,0,0:0:0:0:
4,112,146725,1,0,0:0:0:0:
264,240,146886,6,0,P|320:40|280:32,1,340.000006484985
284,140,147370,1,0,0:0:0:0:
464,176,147531,2,0,L|104:320,1,340.000006484985
284,140,148015,1,0,0:0:0:0:
392,56,148176,2,0,B|440:180|352:248|352:248|376:308|425:277|456:348,1,340.000006484985
96,128,148660,1,0,0:0:0:0:
96,128,148822,5,0,0:0:0:0:
84,332,148983,1,0,0:0:0:0:
268,20,149144,1,0,0:0:0:0:
268,20,149305,1,0,0:0:0:0:
244,212,149467,6,0,P|400:132|440:152,1,170.000003242493
304,356,149789,1,0,0:0:0:0:
137,166,149951,1,0,0:0:0:0:
377,127,150112,2,0,B|248:84|248:84|348:60,1,170.000003242493
137,166,150434,2,0,P|189:90|281:76,1,189.999994926453
252,184,150757,5,0,0:0:0:0:
64,84,150918,1,0,0:0:0:0:
252,184,151080,1,0,0:0:0:0:
304,0,151241,1,0,0:0:0:0:
12,312,151402,6,0,P|100:296|195:315,1,170.000003242493
12,312,151725,1,0,0:0:0:0:
140,204,151886,1,0,0:0:0:0:
392,288,152047,1,0,0:0:0:0:
392,288,152209,1,0,0:0:0:0:
76,116,152370,1,0,0:0:0:0:
76,116,152531,1,0,0:0:0:0:
272,252,152693,5,0,0:0:0:0:
272,252,152854,1,0,0:0:0:0:
488,144,153015,1,0,0:0:0:0:
76,116,153176,1,0,0:0:0:0:
136,340,153338,5,0,0:0:0:0:
292,200,153499,1,0,0:0:0:0:
0,88,153660,1,0,0:0:0:0:
0,88,153821,1,0,0:0:0:0:
200,256,153983,5,0,0:0:0:0:
392,168,154144,1,0,0:0:0:0:
180,128,154305,1,0,0:0:0:0:
400,376,154467,1,0,0:0:0:0:
104,32,154628,5,0,0:0:0:0:
484,216,154789,1,0,0:0:0:0:
180,128,154951,1,0,0:0:0:0:
300,384,155112,1,0,0:0:0:0:
8,80,155273,5,0,0:0:0:0:
32,128,155353,1,0,0:0:0:0:
56,176,155434,1,0,0:0:0:0:
80,220,155515,1,0,0:0:0:0:
164,232,155596,5,0,0:1:0:0:
224,172,155676,1,0,0:1:0:0:
308,176,155757,1,0,0:1:0:0:
360,112,155838,1,0,0:1:0:0:
444,108,155918,2,0,P|408:44|324:36,1,150.000005722046
408,240,156402,1,0,0:0:0:0:
216,76,156563,5,0,0:0:0:0:
320,336,156725,1,0,0:0:0:0:
100,120,156886,5,0,0:0:0:0:
172,168,156967,1,0,0:0:0:0:
244,224,157047,1,0,0:0:0:0:
212,300,157128,1,0,0:0:0:0:
176,376,157209,6,0,B|144:240|144:240|232:16,1,350.00000333786
320,264,157693,1,0,0:0:0:0:
360,64,157854,2,0,P|248:176|92:80,1,350.00000333786
332,368,158338,1,0,0:0:0:0:
100,264,158499,2,0,B|184:176|184:176|228:152|228:152|252:104|252:104|340:4,1,350.00000333786
160,84,158983,1,0,0:0:0:0:
400,200,159144,5,0,0:0:0:0:
160,84,159305,1,0,0:0:0:0:
280,284,159467,1,0,0:0:0:0:
476,152,159628,1,0,0:0:0:0:
180,204,159789,5,0,0:0:0:0:
180,204,159951,1,0,0:0:0:0:
400,244,160112,1,0,0:0:0:0:
36,324,160273,1,0,0:0:0:0:
312,60,160434,5,0,0:0:0:0:
180,204,160596,1,0,0:0:0:0:
176,384,160757,1,0,0:0:0:0:
20,152,160918,1,0,0:0:0:0:
304,264,161080,5,0,0:0:0:0:
20,320,161241,1,0,0:0:0:0:
196,108,161402,1,0,0:0:0:0:
172,384,161563,1,0,0:0:0:0:
476,28,161725,5,0,0:0:0:0:
448,88,161805,1,0,0:0:0:0:
472,152,161886,2,0,P|500:252|492:264,1,87.500000834465
276,340,162047,5,0,0:0:0:0:
348,328,162128,1,0,0:0:0:0:
404,280,162209,1,0,0:0:0:0:
436,216,162289,1,0,0:0:0:0:
436,144,162370,5,0,0:0:0:0:
208,312,162531,1,0,0:0:0:0:
436,216,162693,1,0,0:0:0:0:
128,260,162854,1,0,0:0:0:0:
488,316,163015,5,0,0:0:0:0:
96,176,163176,1,0,0:0:0:0:
436,120,163338,1,0,0:0:0:0:
168,384,163499,1,0,0:0:0:0:
504,16,163660,5,0,0:0:0:0:
56,184,163822,1,0,0:0:0:0:
512,112,163983,5,0,0:0:0:0:
64,272,164144,1,0,0:0:0:0:
152,240,164305,5,0,0:0:0:0:
100,200,164386,1,0,0:0:0:0:
92,132,164466,1,0,0:0:0:0:
136,84,164547,1,0,0:0:0:0:
176,160,164628,5,0,0:0:0:0:
243,209,164709,1,0,0:0:0:0:
311,160,164789,1,0,0:0:0:0:
285,80,164870,1,0,0:0:0:0:
202,80,164951,1,0,0:0:0:0:
132,288,165112,2,0,P|142:379|234:381,1,200
384,208,165434,2,0,P|448:112|432:24,1,200
192,324,165757,1,0,0:0:0:0:
320,96,165918,2,0,P|236:149|138:149,1,200
188,0,166563,6,0,L|160:104,1,100
162,96,167047,1,0,0:0:0:0:
162,96,167209,5,0,0:0:0:0:
162,96,167289,1,0,0:0:0:0:
162,96,167370,1,0,0:0:0:0:
256,192,174305,12,0,174951,0:0:0:0:
88,96,175273,5,0,0:0:0:0:
116,156,175354,1,0,0:0:0:0:
116,224,175434,1,0,0:0:0:0:
92,288,175515,1,0,0:0:0:0:
36,328,175596,1,0,0:0:0:0:
104,80,175918,5,0,0:0:0:0:
136,149,175999,1,0,0:0:0:0:
136,228,176079,1,0,0:0:0:0:
108,303,176160,1,0,0:0:0:0:
44,349,176241,5,0,0:0:0:0:
508,16,176402,1,0,0:0:0:0:
56,376,176725,1,0,0:0:0:0:
160,232,176886,5,0,0:0:0:0:
128,60,177047,1,0,0:0:0:0:
312,332,177209,2,0,P|296:300|192:244,1,150.000005722046
316,228,177531,5,0,0:0:0:0:
364,128,177612,1,0,0:0:0:0:
452,64,177693,1,0,0:0:0:0:
256,192,177854,12,0,180273,0:0:0:0:
310,303,180434,6,0,P|247:210|256:150,1,150.000005722046
330,53,180757,1,0,0:0:0:0:
330,53,180918,6,0,B|361:174|361:174|352:216,1,150.000005722046
310,303,181241,1,0,0:0:0:0:
60,84,181563,6,0,L|80:136,1,50
60,84,181886,1,0,0:0:0:0:
128,252,182047,2,0,L|168:248,1,25
140,172,182209,1,0,0:0:0:0:
184,108,182289,1,0,0:0:0:0:
260,88,182370,1,0,0:0:0:0:
336,104,182451,1,0,0:0:0:0:
392,156,182531,2,0,L|408:200,1,25
268,228,182693,5,0,0:0:0:0:
368,28,182854,2,0,P|524:188|476:268,1,300.000011444092
492,248,183257,1,0,0:0:0:0:
464,276,183338,5,0,0:0:0:0:
404,235,183418,1,0,0:0:0:0:
331,226,183499,1,0,0:0:0:0:
269,263,183580,1,0,0:0:0:0:
364,336,183660,5,0,0:0:0:0:
367,258,183741,1,0,0:0:0:0:
336,184,183822,1,0,0:0:0:0:
272,136,183902,1,0,0:0:0:0:
348,104,183983,5,0,0:0:0:0:
404,48,184063,1,0,0:0:0:0:
492,32,184144,2,0,P|488:76|464:112,1,75.0000028610231
192,132,184467,1,0,0:0:0:0:
436,172,184629,1,0,0:0:0:0:
100,376,184950,5,0,0:0:0:0:
0,101,185112,1,0,0:0:0:0:
275,1,185273,1,0,0:0:0:0:
375,276,185434,1,0,0:0:0:0:
66,247,185757,5,0,0:0:0:0:
70,171,185838,1,0,0:0:0:0:
106,107,185918,1,0,0:0:0:0:
208,208,186080,5,0,0:0:0:0:
251,163,186160,1,0,0:0:0:0:
313,142,186241,2,0,P|348:130|385:129,1,75.0000028610231
204,288,186402,5,0,0:0:0:0:
128,284,186483,1,0,0:0:0:0:
66,247,186563,2,0,P|-6:171|-19:137,1,75.0000028610231
68,4,186725,5,0,0:0:0:0:
392,324,187048,5,0,0:0:0:0:
316,180,187209,5,0,0:0:0:0:
256,196,187290,1,0,0:0:0:0:
196,208,187371,1,0,0:0:0:0:
160,160,187451,1,0,0:0:0:0:
120,116,187532,6,0,L|19:91,1,75.0000028610231
36,232,187693,2,0,L|132:260,1,75.0000028610231
140,96,187854,6,0,L|0:60,1,87.500000834465
17,259,188015,2,0,L|152:296,1,87.500000834465
352,236,188177,6,0,L|232:184,1,75.0000028610231
212,144,188338,2,0,P|288:112|336:120,1,75.0000028610231
400,308,188500,2,0,L|484:352,1,75.0000028610231
272,348,188661,2,0,L|184:348,1,75.0000028610231
76,256,188822,2,0,L|184:256,1,75.0000028610231
472,200,188983,6,0,P|300:144|300:44,1,300
416,88,189305,2,0,B|342:72|298:147|298:147|222:166|222:166|165:222,1,300
88,384,189628,6,0,P|120:327|94:241,1,100
16,144,189789,2,0,P|48:200|136:220,1,100
216,356,189951,2,0,B|312:356|312:356|368:368|368:368|424:356|424:356|532:356,1,300
436,252,190274,6,0,P|492:224|516:176,1,100
428,160,190435,2,0,P|396:52|388:44,1,100
324,132,190596,2,0,L|204:132,1,100
72,220,190757,2,0,B|276:220|276:220|208:224|144:276,1,300
96,340,191079,6,0,L|188:379,1,100
280,312,191241,2,0,P|324:344|370:353,1,100
504,308,191402,2,0,P|468:264|364:244,1,100
316,156,191563,2,0,P|317:21|452:23,1,300
384,88,191886,6,0,B|264:108|264:108|196:160|196:160|68:188|68:188,1,300
360,292,192208,2,0,L|300:204,1,100
216,32,192370,2,0,P|264:68|260:168,1,100
200,216,192531,2,0,P|378:402|394:101,1,700
352,244,193176,6,0,B|444:396,1,100
304,84,193338,2,0,B|240:92|184:48|184:48|136:144|44:156,1,300
20,16,193660,2,0,L|92:112,1,100
176,192,193821,2,0,B|96:268|-44:248|-44:248|8:208|88:272,1,300
196,288,194144,2,0,P|263:144|130:111,1,300
360,152,194466,6,0,B|500:268|448:384|448:384|392:292|504:152,1,500
440,32,194951,2,0,B|324:-16|244:64|244:64|180:36|180:36|162:38,1,300
180,164,195273,2,0,B|140:256|180:336|180:336|196:276|196:276|312:200,1,300
368,172,195596,2,0,B|424:164|472:208|452:276|404:304|404:304|408:376|408:376|396:356|384:352,1,300
280,336,195918,6,0,P|228:324|160:336,1,100
128,256,196080,1,0,0:0:0:0:
160,160,196160,1,0,0:0:0:0:
120,68,196241,2,0,B|232:4|352:88|352:88|328:28,1,300
424,40,196563,5,0,0:0:0:0:
464,128,196644,1,0,0:0:0:0:
444,232,196725,1,0,0:0:0:0:
360,296,196805,2,0,B|288:280|244:308,1,100
168,352,196967,1,0,0:0:0:0:
386,70,197047,6,0,P|348:123|256:192,1,100
78,213,197209,2,0,P|140:224|256:192,1,100
412,278,197371,2,0,P|352:268|256:192,1,100
180,32,197532,2,0,P|192:93|256:192,1,100
212,360,197693,2,0,B|280:176|244:88|244:88|208:216|328:304,1,500
436,140,198176,6,0,B|304:180|304:180|280:164|280:164|220:236|152:208,1,300
16,112,198499,2,0,P|48:176|112:196,1,100
208,52,198660,2,0,B|176:72|140:64|140:64|100:112,1,100
248,160,198821,2,0,B|296:132|296:132|360:52,1,100
420,272,198982,2,0,P|396:228|344:196,1,100
312,324,199144,5,0,0:0:0:0:
228,344,199224,1,0,0:0:0:0:
160,280,199305,1,0,0:0:0:0:
188,192,199386,1,0,0:0:0:0:
276,172,199467,1,0,0:0:0:0:
340,236,199547,1,0,0:0:0:0:
404,308,199628,6,0,B|458:160|454:64|366:4|366:4|358:40|382:176|346:236|346:236|294:110|462:136,1,700
480,88,200273,2,0,P|423:32|324:52,1,100
368,244,200434,2,0,P|444:223|477:126,1,100
284,80,200596,2,0,P|263:156|330:233,1,100
156,96,200758,2,0,P|187:21|227:-2,1,100
308,280,200918,2,0,B|219:326,1,100
120,336,201080,6,0,B|120:260|52:228|52:228|12:104|112:56,1,300
188,164,201402,2,0,P|244:140|280:60,1,100
168,68,201563,2,0,P|294:124|360:-28,1,300
472,28,201887,2,0,B|468:148|380:200|380:200|392:252|392:252|364:300,1,300
296,344,202209,2,0,B|184:316|174:204|174:204|159:256|159:256|90:294,1,300
160,360,202532,5,0,0:0:0:0:
68,364,202613,1,0,0:0:0:0:
20,288,202693,2,0,L|4:148,1,100
64,16,202854,2,0,L|80:156,1,100
156,76,203016,5,0,0:0:0:0:
244,92,203096,1,0,0:0:0:0:
320,52,203177,1,0,0:0:0:0:
404,68,203258,1,0,0:0:0:0:
256,192,203338,12,0,204144,0:0:0:0:
256,192,204628,12,0,205434,0:0:0:0:
76,56,205595,6,0,P|176:108|180:108,1,100
436,56,205757,2,0,P|336:108|332:108,1,100
98,261,205918,2,0,P|210:273|214:272,1,100
413,261,206079,2,0,P|301:273|297:272,1,100
172,275,206241,5,0,0:0:0:0:
256,309,206322,1,0,0:0:0:0:
339,275,206402,1,0,0:0:0:0:
373,191,206483,1,0,0:0:0:0:
339,108,206563,1,0,0:0:0:0:
255,74,206644,1,0,0:0:0:0:
172,108,206725,1,0,0:0:0:0:
138,192,206805,1,0,0:0:0:0:
172,275,206886,6,0,P|317:301|365:198,1,200
296,120,207209,6,0,P|260:169|266:240,20,100
256,192,213983,12,0,214789,0:0:0:0:
104,116,214951,6,0,L|172:224,1,100
244,316,215273,1,0,0:0:0:0:
104,264,215434,1,0,0:0:0:0:
240,64,215596,5,0,0:0:0:0:
356,196,215757,2,0,P|328:264|276:304,1,100
168,312,216080,1,0,0:0:0:0:
256,192,216402,12,0,217531,0:0:0:0:
112,92,217854,5,0,0:0:0:0:
408,300,218015,1,0,0:0:0:0:
72,300,218338,5,0,0:0:0:0:
428,88,218499,1,0,0:0:0:0:
64,28,218822,5,0,0:0:0:0:
456,360,218983,1,0,0:0:0:0:
400,324,219305,5,0,0:0:0:0:
120,296,219467,1,0,0:0:0:0:
408,184,219628,1,0,0:0:0:0:
120,296,219789,1,0,0:0:0:0:
424,24,219951,1,0,0:0:0:0:
136,152,220112,1,0,0:0:0:0:
248,384,220273,1,0,0:0:0:0:
264,204,220434,5,0,0:0:0:0:
312,224,220515,1,0,0:0:0:0:
344,264,220596,2,0,P|356:320|352:328,1,50
248,308,220757,5,0,0:0:0:0:
288,272,220838,1,0,0:0:0:0:
312,224,220918,1,0,0:0:0:0:
308,168,220999,1,0,0:0:0:0:
280,120,221080,2,0,P|248:76|224:56,1,50
196,204,221241,5,0,0:0:0:0:
160,276,221322,1,0,0:0:0:0:
88,308,221402,2,0,L|48:348,1,50
40,172,221563,5,0,0:0:0:0:
64,96,221643,1,0,0:0:0:0:
136,60,221725,2,0,L|192:40,1,50
264,104,221886,5,0,0:0:0:0:
136,252,222047,1,0,0:0:0:0:
364,252,222209,5,0,0:0:0:0:
240,140,222370,5,0,0:0:0:0:
396,288,222531,1,0,0:0:0:0:
108,240,222692,5,0,0:0:0:0:
420,112,222854,1,0,0:0:0:0:
200,340,223015,6,0,L|273:271,1,100
404,64,223338,2,0,L|304:160,1,100
304,316,223660,2,0,P|280:264|292:212,1,100
144,108,223983,2,0,P|201:113|240:149,1,100
128,280,224305,5,0,0:0:0:0:
440,136,224467,1,0,0:0:0:0:
268,380,224628,1,0,0:0:0:0:
288,40,224789,1,0,0:0:0:0:
460,204,224951,6,0,P|381:247|292:232,1,179.999994506836
201,66,225273,2,0,B|304:70|304:70|368:130,1,179.999994506836
256,168,225596,2,0,L|256:360,1,179.999994506836
201,66,225918,1,0,0:0:0:0:
316,288,226079,1,0,0:0:0:0:
152,352,226241,5,0,0:0:0:0:
88,200,226402,1,0,0:0:0:0:
284,352,226563,5,0,0:0:0:0:
160,152,226725,1,0,0:0:0:0:
316,244,226886,5,0,0:0:0:0:
496,48,227048,1,0,0:0:0:0:
408,316,227209,5,0,0:0:0:0:
212,88,227370,1,0,0:0:0:0:
240,8,227532,5,0,0:0:0:0:
512,256,227693,1,0,0:0:0:0:
132,72,227854,5,0,0:0:0:0:
512,376,228015,1,0,0:0:0:0:
328,120,228176,5,0,0:0:0:0:
340,180,228257,2,0,P|328:280|320:300,1,89.9999972534181
228,212,228418,5,0,0:0:0:0:
188,264,228499,1,0,0:0:0:0:
128,284,228580,2,0,P|24:292|8:288,1,89.9999972534181
84,112,228741,5,0,0:0:0:0:
164,116,228822,1,0,0:0:0:0:
236,144,228902,1,0,0:0:0:0:
288,204,228983,1,0,0:0:0:0:
296,280,229063,1,0,0:0:0:0:
272,356,229144,5,0,0:0:0:0:
324,292,229225,1,0,0:0:0:0:
392,248,229305,2,0,P|464:224|516:240,1,125
168,312,229789,5,0,0:0:0:0:
452,228,229951,1,0,0:0:0:0:
468,176,230031,1,0,0:0:0:0:
448,124,230112,5,0,0:0:0:0:
412,92,230193,1,0,0:0:0:0:
360,64,230273,2,0,L|284:0,1,100
220,144,230434,5,0,0:0:0:0:
176,84,230515,1,0,0:0:0:0:
112,56,230596,2,0,P|69:42|8:48,1,100
48,160,230757,6,0,B|68:356|216:336|216:336|144:320|116:240,1,400
272,192,231241,1,0,0:0:0:0:
360,152,231402,6,0,P|356:240|204:120,1,400
36,240,231886,1,0,0:0:0:0:
185,143,232047,6,0,B|216:104|244:76|189:-21|189:-21|200:112|368:104,1,400
68,60,232531,1,0,0:0:0:0:
312,244,232693,5,0,0:0:0:0:
312,244,232854,1,0,0:0:0:0:
404,376,233015,5,0,0:0:0:0:
404,376,233176,1,0,0:0:0:0:
472,236,233338,5,0,0:0:0:0:
304,92,233499,1,0,0:0:0:0:
472,236,233660,1,0,0:0:0:0:
76,236,233822,1,0,0:0:0:0:
376,296,233983,5,0,0:0:0:0:
376,296,234144,1,0,0:0:0:0:
144,84,234305,1,0,0:0:0:0:
376,296,234467,1,0,0:0:0:0:
208,377,234628,6,0,P|164:276|220:216,1,200
94,197,234951,6,0,B|148:132|213:131|213:131|248:148|272:152,1,200
144,296,235273,5,0,0:0:0:0:
208,320,235354,1,0,0:0:0:0:
276,304,235435,1,0,0:0:0:0:
328,256,235515,1,0,0:0:0:0:
352,192,235596,2,0,P|344:92|252:28,1,200
144,296,235918,5,0,0:0:0:0:
244,148,236080,1,0,0:0:0:0:
396,344,236241,1,0,0:0:0:0:
16,112,236402,1,0,0:0:0:0:
196,376,236563,5,0,0:0:0:0:
264,60,236725,1,0,0:0:0:0:
396,344,236886,1,0,0:0:0:0:
16,280,237047,1,0,0:0:0:0:
512,216,237209,5,0,0:0:0:0:
156,120,237370,1,0,0:0:0:0:
512,384,237531,1,0,0:0:0:0:
0,0,237693,1,0,0:0:0:0:
444,332,237854,5,0,0:1:0:0:
440,276,237934,1,0,0:1:0:0:
436,220,238015,1,0,0:1:0:0:
432,164,238096,1,0,0:1:0:0:
348,208,238176,5,0,0:0:0:0:
260,204,238257,1,0,0:0:0:0:
184,160,238338,1,0,0:0:0:0:
144,80,238418,1,0,0:0:0:0:
160,0,238499,2,0,P|152:88|120:28,1,200
196,379,238822,1,0,0:0:0:0:
415,77,238983,1,0,0:0:0:0:
415,308,239144,5,0,0:0:0:0:
196,6,239305,1,0,0:0:0:0:
60,264,239467,2,0,P|64:224|60:189,1,75.0000028610231
368,308,240112,6,0,P|376:252|368:196,1,100
328,56,240434,1,0,0:0:0:0:
376,212,240596,1,0,0:0:0:0:
244,0,240757,1,0,0:0:0:0:
376,212,240918,1,0,0:0:0:0:
48,344,241080,5,0,0:0:0:0:
84,272,241160,1,0,0:0:0:0:
88,192,241241,1,0,0:0:0:0:
60,116,241322,1,0,0:0:0:0:
0,64,241402,5,0,0:0:0:0:
72,40,241483,1,0,0:0:0:0:
144,64,241563,2,0,P|212:76|228:68,1,50
372,16,241725,5,0,0:0:0:0:
300,40,241805,1,0,0:0:0:0:
300,115,241886,1,0,0:0:0:0:
372,138,241967,1,0,0:0:0:0:
416,77,242047,5,0,0:0:0:0:
488,96,242128,1,0,0:0:0:0:
488,172,242209,2,0,L|492:247,1,75.0000028610231
376,320,242370,6,0,L|301:312,1,75.0000028610231
220,300,242531,1,0,0:0:0:0:
136,280,242612,1,0,0:0:0:0:
92,192,242693,5,0,0:0:0:0:
137,125,242773,1,0,0:0:0:0:
204,82,242854,1,0,0:0:0:0:
280,70,242934,1,0,0:0:0:0:
368,76,243015,5,0,0:0:0:0:
320,148,243096,1,0,0:0:0:0:
280,70,243176,2,0,P|256:28|204:4,1,75.0000028610231
356,376,243338,5,0,0:0:0:0:
272,316,243419,1,0,0:0:0:0:
168,312,243499,2,0,L|41:271,1,75.0000028610231
476,244,243660,5,0,0:0:0:0:
364,272,243741,1,0,0:0:0:0:
251,296,243822,2,0,P|205:130|330:183,1,375.000014305115
248,208,244789,6,0,L|192:176,1,50
240,88,245112,1,0,0:0:0:0:
224,152,245193,1,0,0:0:0:0:
240,216,245273,1,0,0:0:0:0:
288,264,245354,1,0,0:0:0:0:
364,288,245434,5,0,0:0:0:0:
440,272,245515,1,0,0:0:0:0:
492,216,245596,1,0,0:0:0:0:
504,140,245676,1,0,0:0:0:0:
488,64,245757,1,0,0:0:0:0:
8,108,245918,5,0,0:0:0:0:
360,148,246080,2,0,P|284:196|216:184,1,150.000005722046
272,104,246402,2,0,L|200:60,1,75.0000028610231
468,288,246563,5,0,0:0:0:0:
477,232,246644,1,0,0:0:0:0:
486,175,246725,1,0,0:0:0:0:
491,117,246805,1,0,0:0:0:0:
449,37,246886,5,0,0:0:0:0:
401,108,246967,1,0,0:0:0:0:
356,181,247047,1,0,0:0:0:0:
311,254,247128,1,0,0:0:0:0:
267,177,247209,5,0,0:0:0:0:
160,208,247289,1,0,0:0:0:0:
54,240,247370,1,0,0:0:0:0:
89,293,247693,5,0,0:0:0:0:
175,99,248015,5,0,0:0:0:0:
392,264,248338,5,0,0:0:0:0:
392,264,248499,1,0,0:0:0:0:
392,264,248660,2,0,P|372:192|352:236,1,150.000005722046
176,280,248983,2,0,L|80:280,1,75.0000028610231
248,200,249144,6,0,L|152:200,1,75.0000028610231
52,128,249305,2,0,L|148:128,1,75.0000028610231
188,128,249467,1,0,0:0:0:0:
248,128,249547,1,0,0:0:0:0:
308,128,249628,1,0,0:0:0:0:
368,128,249709,5,0,0:0:0:0:
344,160,249789,1,0,0:0:0:0:
304,176,249870,1,0,0:0:0:0:
264,164,249951,2,0,L|448:196,1,150.000005722046
348,320,250273,5,0,0:0:0:0:
348,180,250354,1,0,0:0:0:0:
344,36,250434,1,0,0:0:0:0:
348,320,250596,1,0,0:0:0:0:
268,320,250757,5,0,0:0:0:0:
264,36,250918,1,0,0:0:0:0:
188,36,251080,5,0,0:0:0:0:
184,316,251241,2,0,L|184:152,1,150.000005722046
388,160,251563,1,0,0:0:0:0:
176,160,251725,2,0,L|176:324,1,150.000005722046
308,236,252047,5,0,0:0:0:0:
172,320,252209,1,0,0:0:0:0:
300,88,252370,1,0,0:0:0:0:
44,232,252531,2,0,B|124:188|124:188|168:80,1,150.000005722046
300,196,252854,1,0,0:0:0:0:
456,284,253015,1,0,0:0:0:0:
300,196,253176,2,0,B|300:148|300:148|256:80|256:80|256:8,1,150.000005722046
256,320,253499,1,0,0:0:0:0:
168,208,253660,5,0,0:0:0:0:
168,208,253741,1,0,0:0:0:0:
168,203,253822,2,0,L|168:128,1,75.0000028610231
252,276,253983,1,0,0:0:0:0:
256,43,254144,1,0,0:0:0:0:
249,189,254305,2,0,P|186:226|168:296,1,150.000005722046
169,297,254628,6,0,L|169:129,1,150.000005722046
252,268,254951,1,0,0:0:0:0:
184,228,255112,2,0,L|96:228,1,75.0000028610231
424,256,255273,6,0,B|396:200|396:200|408:136,1,75.0000028610231
373,120,255434,6,0,B|401:176|401:176|389:240,1,75.0000028610231
386,267,255596,6,0,B|390:199|390:199|437:144,1,75.0000028610231
412,110,255757,6,0,B|408:178|408:178|361:233,1,75.0000028610231
343,256,255918,5,0,0:0:0:0:
316,220,255999,1,0,0:0:0:0:
316,176,256080,1,0,0:0:0:0:
336,136,256160,1,0,0:0:0:0:
360,160,256241,5,0,0:0:0:0:
388,176,256322,1,0,0:0:0:0:
420,172,256402,1,0,0:0:0:0:
448,152,256483,1,0,0:0:0:0:
455,121,256563,1,0,0:0:0:0:
256,192,256886,12,0,263338,0:0:0:0:
