osu file format v14

[General]
AudioFilename: audio.mp3
AudioLeadIn: 0
PreviewTime: 146029
Countdown: 0
SampleSet: Soft
StackLeniency: 0.7
Mode: 0
LetterboxInBreaks: 0
WidescreenStoryboard: 0

[Editor]
Bookmarks: 105626,177884,219335,241109
DistanceSpacing: 0.4
BeatDivisor: 4
GridSize: 4
TimelineZoom: 2.3

[Metadata]
Title:Unhappy End World
TitleUnicode:アンハッピーエンドワールド
Artist:Naoki Miki (CV: Takahashi Rie) & Ebisuzawa Kurumi (CV: Ozawa Ari)
ArtistUnicode:直樹美紀(CV: 高橋李依)&恵飛須沢胡桃(CV: 小澤亜李)
Creator:Yasaija 714
Version:Collab Insane
Source:がっこうぐらし!
Tags:school live gakkou gurashi! image-- meg _kotachi_ shigurin asuka_-
BeatmapID:1725345
BeatmapSetID:823259

[Difficulty]
HPDrainRate:6
CircleSize:4
OverallDifficulty:7
ApproachRate:9
SliderMultiplier:1.6
SliderTickRate:1

[Events]
//Background and Video events
0,0,"gakkou.jpg",0,0
//Break Periods
2,105626,115026
2,210142,214703
//Storyboard Layer 0 (Background)
//Storyboard Layer 1 (Fail)
//Storyboard Layer 2 (Pass)
//Storyboard Layer 3 (Foreground)
//Storyboard Sound Samples

[TimingPoints]
1110,322.58064516129,4,2,11,30,1,0
1110,-133.333333333333,4,2,11,30,0,0
11432,-200,4,2,11,20,0,0
13368,-133.333333333333,4,2,11,35,0,0
14013,-100,4,2,11,55,0,0
14980,-133.333333333333,4,2,11,55,0,0
16432,-100,4,2,11,60,0,0
26271,-90.9090909090909,4,2,11,60,0,0
26916,-133.333333333333,4,2,11,40,0,0
46916,-117.647058823529,4,2,11,45,0,0
47239,-105.263157894737,4,2,11,50,0,0
47561,-100,4,2,11,50,0,0
55303,-100,4,2,11,40,0,0
57884,-100,4,2,11,40,0,0
61755,-90.9090909090909,4,2,11,60,0,0
62077,-83.3333333333333,4,2,11,60,0,0
62400,-100,4,2,11,60,0,0
63045,-133.333333333333,4,2,11,50,0,0
65626,-200,4,2,11,30,0,0
65948,-166.666666666667,4,2,11,40,0,0
66271,-142.857142857143,4,2,11,50,0,0
66593,-125,4,2,11,60,0,0
66916,-100,4,2,11,60,0,0
68206,-83.3333333333333,4,2,11,80,0,1
84980,-76.9230769230769,4,2,11,80,0,1
87239,-133.333333333333,4,2,11,80,0,1
88851,-83.3333333333333,4,2,11,60,0,0
92561,-133.333333333333,4,2,11,50,0,0
93851,-100,4,2,11,60,0,0
115948,-125,4,2,11,60,0,0
126271,-111.111111111111,4,2,11,60,0,0
146916,-83.3333333333333,4,2,11,60,0,1
167561,-125,4,2,11,60,0,0
177884,-100,4,2,11,70,0,0
192722,-90.9090909090909,4,2,11,70,0,0
193368,-100,4,2,11,70,0,0
196271,-83.3333333333333,4,2,11,70,0,0
196593,-100,4,2,11,70,0,0
196916,-83.3333333333333,4,2,11,70,0,0
198529,-100,4,2,11,70,0,0
203045,-83.3333333333333,4,2,11,70,0,0
203690,-125,4,2,11,70,0,0
204980,-111.111111111111,4,2,11,70,0,0
206271,-100,4,2,11,70,0,0
207239,-166.666666666667,4,2,11,70,0,0
215303,-125,4,2,11,70,0,0
221755,-83.3333333333333,4,2,11,70,0,1
241109,-83.3333333333333,4,2,11,70,0,0
243690,-166.666666666667,4,2,11,70,0,0
244819,-83.3333333333333,4,2,11,70,0,0
246109,-100,4,2,11,70,0,0

[Colours]
Combo1 : 171,182,78
Combo2 : 255,166,255
Combo3 : 255,183,111
Combo4 : 173,81,242

[HitObjects]
256,192,11432,12,2,12722,0:0:0:0:
48,21,13690,6,0,L|55:52,3,30.0000011444092,8|8|8|8,0:0|0:3|0:3|0:3,0:0:0:0:
84,120,14013,6,0,P|132:112|176:116,1,80,12|0,0:0|0:0,0:0:0:0:
256,188,14335,1,0,0:0:0:0:
380,140,14497,6,0,P|388:188|384:232,1,80,12|0,0:0|0:0,0:0:0:0:
312,312,14819,1,0,0:0:0:0:
176,312,14980,6,0,B|131:233|170:192|212:160|168:64,1,240.000009155274,4|0,0:0|0:0,0:0:0:0:
88,136,15948,5,8,0:0:0:0:
260,248,16109,1,8,0:0:0:0:
244,48,16432,6,0,P|304:36|400:80,1,160,12|10,0:1|0:1,0:0:0:0:
400,84,16835,1,0,0:0:0:0:
404,96,16916,1,8,0:0:0:0:
348,192,17077,1,2,0:0:0:0:
492,224,17239,2,0,L|480:308,1,80,8|2,0:1|0:0,0:0:0:0:
364,352,17561,2,0,L|360:296,1,40,10|0,0:0|0:0,0:0:0:0:
348,192,17722,6,0,P|309:184|263:189,1,80,6|0,0:0|0:0,0:0:0:0:
184,115,18045,2,0,P|156:155|148:199,1,80,2|8,0:0|0:0,0:0:0:0:
147,348,18368,2,0,P|175:308|183:264,1,80,2|8,0:0|0:1,0:0:0:0:
64,182,18690,1,2,0:0:0:0:
89,274,18851,1,8,0:0:0:0:
191,193,19013,6,0,B|215:129|215:129|335:109,1,160,12|2,0:1|0:0,0:0:0:0:
391,135,19416,1,0,0:0:0:0:
391,135,19497,2,0,P|403:191|399:223,1,80,8|2,0:0|0:0,0:0:0:0:
345,279,19739,1,0,0:0:0:0:
345,279,19819,2,0,P|305:278|266:289,1,80,10|0,0:1|0:0,0:0:0:0:
192,331,20061,1,2,0:0:0:0:
192,331,20142,1,10,0:0:0:0:
317,378,20303,6,0,P|397:366|445:302,1,160,6|10,0:0|0:1,0:0:0:0:
445,294,20706,1,2,0:0:0:0:
441,282,20787,1,10,0:0:0:0:
320,196,20948,1,10,0:0:0:0:
488,192,21109,6,0,L|496:96,1,80,2|10,0:0|0:0,0:0:0:0:
424,32,21432,1,2,0:0:0:0:
320,196,21593,6,0,B|280:196|280:196|244:212|244:212|208:196|208:196|148:196,1,160,12|8,0:1|0:1,0:0:0:0:
196,324,22077,2,0,P|240:296|296:332,1,120,8|0,0:0|0:0,0:0:0:0:
328,352,22400,5,2,0:0:0:0:
320,196,22561,1,10,0:1:0:0:
400,268,22722,1,8,0:0:0:0:
236,156,22884,6,0,P|196:124|88:168,1,160,6|10,0:0|0:1,0:0:0:0:
40,312,23368,2,0,L|104:304,1,40,2|2,0:0|0:0,0:0:0:0:
212,236,23529,2,0,L|132:244,1,80,2|2,0:0|0:0,0:0:0:0:
239,329,23851,2,0,L|343:317,1,80,8|0,0:0|0:0,0:0:0:0:
461,347,24174,6,0,B|490:267|416:272|461:179,1,160,12|10,0:1|0:1,0:0:0:0:
484,40,24658,2,0,B|380:16|380:16|304:32,1,160,8|0,0:0|0:0,0:0:0:0:
244,120,25142,2,0,P|184:120|140:112,1,80,2|8,0:0|0:0,0:0:0:0:
52,48,25464,6,0,B|12:132|94:126|52:224,1,160,6|10,0:0|0:1,0:0:0:0:
57,211,25868,1,2,0:0:0:0:
53,219,25948,1,10,0:1:0:0:
68,344,26109,1,10,0:1:0:0:
174,161,26271,6,0,L|202:293,1,132.00000402832,6|0,0:0|0:0,0:0:0:0:
260,348,26593,2,0,P|328:360|392:312,1,132.00000402832,12|0,0:0|0:0,0:0:0:0:
320,220,26916,6,0,P|308:256|312:280,1,60.0000022888184,12|0,0:1|0:0,0:0:0:0:
452,280,27239,2,0,P|454:250|443:222,1,60.0000022888184,8|0,0:1|0:0,0:0:0:0:
412,115,27561,2,0,L|344:103,1,60.0000022888184,8|0,0:1|0:0,0:0:0:0:
252,148,27884,2,0,L|180:160,1,60.0000022888184,8|0,0:1|0:0,0:0:0:0:
64,192,28206,5,8,0:1:0:0:
20,284,28368,1,0,0:0:0:0:
154,284,28529,2,0,P|159:250|154:216,1,60.0000022888184,8|0,0:1|0:0,0:0:0:0:
96,344,28851,2,0,P|124:362|156:368,1,60.0000022888184,8|0,0:1|0:0,0:0:0:0:
260,369,29174,2,0,P|288:360|314:345,1,60.0000022888184,8|0,0:1|0:0,0:0:0:0:
255,202,29497,6,0,L|243:262,1,60.0000022888184,8|0,0:1|0:0,0:0:0:0:
331,122,29819,2,0,L|347:194,1,60.0000022888184,8|0,0:1|0:0,0:0:0:0:
252,44,30142,2,0,L|240:104,1,60.0000022888184,8|0,0:1|0:0,0:0:0:0:
160,176,30464,1,8,0:1:0:0:
331,122,30626,1,0,0:0:0:0:
243,260,30787,6,0,L|155:272,1,60.0000022888184,8|0,0:1|0:0,0:0:0:0:
344,180,31109,2,0,L|256:168,1,60.0000022888184,8|0,0:1|0:1,0:0:0:0:
145,87,31432,1,8,0:1:0:0:
116,200,31593,1,0,0:0:0:0:
244,104,31755,1,8,0:1:0:0:
192,224,31916,1,0,0:0:0:0:
192,232,31997,1,0,0:0:0:0:
192,242,32077,6,0,L|192:318,1,60.0000022888184,8|0,0:1|0:0,0:0:0:0:
299,281,32400,2,0,L|299:213,1,60.0000022888184,8|0,0:1|0:0,0:0:0:0:
182,145,32722,2,0,P|154:153|130:177,1,60.0000022888184,8|0,0:1|0:0,0:0:0:0:
36,260,33045,2,0,P|16:236|4:184,1,60.0000022888184,8|0,0:1|0:0,0:0:0:0:
48,64,33368,6,0,P|141:42|169:53,1,120.000004577637,8|8,0:1|0:1,0:0:0:0:
256,117,33851,1,0,0:0:0:0:
200,216,34013,2,0,B|200:252|200:252|228:288,1,60.0000022888184,8|0,0:1|0:0,0:0:0:0:
356,280,34335,2,0,L|348:340,1,60.0000022888184,8|0,0:1|0:0,0:0:0:0:
204,352,34658,6,0,P|252:344|284:348,1,60.0000022888184,8|0,0:1|0:0,0:0:0:0:
436,360,34980,1,10,0:1:0:0:
328,256,35142,1,0,0:0:0:0:
188,356,35303,2,0,P|152:360|104:356,1,60.0000022888184,10|0,0:1|0:0,0:0:0:0:
40,312,35626,2,0,B|32:264|32:264|40:232,1,60.0000022888184,8|2,0:1|0:0,0:0:0:0:
64,188,35868,1,0,0:0:0:0:
64,188,35948,6,0,P|108:200|140:200,1,60.0000022888184,8|0,0:1|0:0,0:0:0:0:
228,196,36271,2,0,P|272:184|299:168,1,60.0000022888184,8|2,0:1|0:1,0:0:0:0:
170,124,36593,1,8,0:1:0:0:
258,272,36755,1,2,0:0:0:0:
364,156,36916,2,0,P|408:167|435:183,1,60.0000022888184,8|0,0:1|0:0,0:0:0:0:
376,352,37239,6,0,P|356:304|372:232,1,120.000004577637,12|8,0:1|0:1,0:0:0:0:
496,212,37722,1,0,0:0:0:0:
364,156,37884,2,0,P|320:145|293:129,1,60.0000022888184,8|0,0:1|0:0,0:0:0:0:
232,28,38206,1,8,0:1:0:0:
216,180,38368,1,0,0:0:0:0:
360,64,38529,6,0,B|452:60|452:60|408:92,1,120.000004577637,8|8,0:1|0:1,0:0:0:0:
307,138,39013,1,0,0:0:0:0:
436,176,39174,2,0,B|444:208|444:208|436:240,1,60.0000022888184,8|0,0:1|0:0,0:0:0:0:
360,316,39497,2,0,P|304:292|264:300,1,90.0000034332277,8|0,0:1|0:0,0:0:0:0:
220,340,39819,6,0,P|176:340|152:328,1,60.0000022888184,8|0,0:1|0:0,0:0:0:0:
88,260,40142,1,8,0:1:0:0:
136,168,40303,1,0,0:0:0:0:
276,295,40464,6,0,P|320:295|344:283,1,60.0000022888184,8|0,0:1|0:0,0:0:0:0:
408,215,40787,1,10,0:1:0:0:
360,123,40948,1,0,0:0:0:0:
220,250,41109,6,0,P|176:250|152:238,1,60.0000022888184,10|2,0:1|0:0,0:0:0:0:
152,240,41351,1,2,0:0:0:0:
144,236,41432,1,10,0:1:0:0:
252,140,41593,1,0,0:0:0:0:
276,292,41755,2,0,L|268:360,1,60.0000022888184,8|0,0:1|0:0,0:0:0:0:
344,204,42077,2,0,L|360:308,1,90.0000034332277,8|2,0:1|0:0,0:0:0:0:
412,340,42400,6,0,P|444:336|472:316,1,60.0000022888184,8|0,0:1|0:0,0:0:0:0:
428,208,42722,2,0,L|436:140,1,60.0000022888184,8|0,0:1|0:0,0:0:0:0:
348,64,43045,1,8,0:1:0:0:
344,204,43206,1,0,0:1:0:0:
348,64,43368,2,0,P|304:60|256:68,1,90.0000034332277,8|0,0:1|0:0,0:0:0:0:
200,108,43690,6,0,P|168:112|132:108,1,60.0000022888184,8|0,0:1|0:0,0:0:0:0:
48,32,44013,1,8,0:1:0:0:
48,32,44174,1,0,0:1:0:0:
59,170,44335,1,8,0:1:0:0:
168,40,44497,1,0,0:0:0:0:
264,136,44658,2,0,P|296:132|332:136,1,60.0000022888184,8|0,0:1|0:0,0:0:0:0:
456,184,44980,5,8,0:1:0:0:
376,272,45142,1,0,0:0:0:0:
360,152,45303,1,8,0:1:0:0:
476,284,45464,1,0,0:0:0:0:
284,232,45626,5,8,0:1:0:0:
456,184,45787,1,2,0:0:0:0:
416,340,45948,1,8,0:0:0:0:
359,151,46109,6,0,P|304:129|245:129,1,120.000004577637,6|4,0:0|0:3,0:0:0:0:
159,256,46593,1,4,0:3:0:0:
297,226,46755,1,8,0:1:0:0:
232,348,46916,6,0,P|264:336|288:304,1,68.0000012969971,12|2,0:0|0:0,0:0:0:0:
360,152,47239,6,0,P|364:192|384:224,1,75.9999979705811,12|2,0:0|0:0,0:0:0:0:
492,380,47561,6,0,P|464:324|368:312,1,160,12|8,0:1|0:0,0:0:0:0:
232,348,48045,1,0,0:0:0:0:
184,240,48206,2,0,P|192:192|208:156,1,80,8|8,0:1|0:1,0:0:0:0:
268,60,48529,1,8,0:0:0:0:
360,152,48690,1,0,0:0:0:0:
188,89,48851,6,0,P|148:97|100:93,1,80,8|0,0:1|0:0,0:0:0:0:
26,232,49174,2,0,P|66:240|114:236,1,80,8|0,0:0|0:0,0:0:0:0:
264,216,49497,2,0,L|272:312,1,80,8|8,0:1|0:1,0:0:0:0:
404,192,49819,2,0,L|412:108,1,80,8|0,0:0|0:0,0:0:0:0:
268,40,50142,6,0,B|228:48|196:40|196:40|180:44|180:44|148:32|108:48,1,160,8|8,0:1|0:0,0:0:0:0:
36,160,50626,1,0,0:0:0:0:
132,256,50787,2,0,P|140:304|132:336,1,80,8|8,0:1|0:1,0:0:0:0:
44,248,51109,1,8,0:0:0:0:
196,192,51271,1,0,0:0:0:0:
256,360,51432,6,0,P|348:360|396:308,1,160,8|8,0:1|0:0,0:0:0:0:
392,184,51916,1,0,0:0:0:0:
264,151,52077,2,0,L|288:228,1,80,8|8,0:1|0:1,0:0:0:0:
467,258,52400,2,0,L|490:181,1,80,8|0,0:0|0:0,0:0:0:0:
347,88,52722,6,0,P|311:60|260:44,1,80,6|0,0:0|0:0,0:0:0:0:
160,108,53045,1,8,0:0:0:0:
160,108,53206,2,0,B|119:191|191:192|160:272,1,160,0|8,0:0|0:1,0:0:0:0:
92,360,53690,1,8,0:0:0:0:
240,300,53851,6,0,P|320:288|384:344,1,160,0|8,0:0|0:1,0:0:0:0:
488,280,54335,2,0,L|480:176,1,80,8|0,0:0|0:0,0:0:0:0:
404,80,54658,2,0,L|396:184,1,80,8|8,0:1|0:1,0:0:0:0:
280,208,54980,1,10,0:0:0:0:
276,184,55060,1,2,0:0:0:0:
272,160,55141,1,2,0:0:0:0:
268,136,55221,1,2,0:0:0:0:
264,112,55303,6,0,L|280:12,1,80,8|2,0:1|0:0,0:0:0:0:
276,33,55545,1,2,0:0:0:0:
276,33,55626,1,8,0:0:0:0:
404,80,55787,1,2,0:0:0:0:
280,248,55948,6,0,L|280:208,1,40,8|0,0:1|0:0,0:0:0:0:
164,136,56109,2,0,L|164:176,1,40,10|2,0:1|0:0,0:0:0:0:
60,232,56271,1,8,0:0:0:0:
220,352,56432,6,0,P|304:368|380:316,1,160,6|10,0:0|0:1,0:0:0:0:
366,333,56835,1,2,0:0:0:0:
366,333,56916,1,8,0:0:0:0:
443,214,57077,1,2,0:0:0:0:
280,208,57239,2,0,P|236:200|200:176,1,80,10|8,0:1|0:1,0:0:0:0:
108,112,57561,2,0,P|64:120|28:144,1,80,8|0,0:0|0:0,0:0:0:0:
15,177,57803,1,0,0:0:0:0:
15,177,57884,6,0,L|15:261,1,80,12|0,0:1|0:0,0:0:0:0:
77,370,58206,1,8,0:0:0:0:
126,232,58368,1,0,0:0:0:0:
164,360,58529,2,0,P|216:368|252:356,1,80,8|8,0:1|0:1,0:0:0:0:
356,308,58851,2,0,L|356:220,1,80,8|0,0:0|0:0,0:0:0:0:
256,112,59174,6,0,P|192:128|152:216,1,160,8|8,0:1|0:0,0:0:0:0:
241,361,59658,1,0,0:0:0:0:
241,361,59739,1,0,0:0:0:0:
241,361,59819,2,0,P|317:369|372:344,1,120,8|0,0:1|0:0,0:0:0:0:
400,296,60142,2,0,L|400:208,1,80,8|0,0:0|0:0,0:0:0:0:
468,96,60464,5,8,0:1:0:0:
312,44,60626,1,0,0:0:0:0:
312,44,60706,1,0,0:0:0:0:
312,44,60787,1,8,0:0:0:0:
288,148,60948,1,0,0:0:0:0:
132,96,61109,2,0,L|112:192,1,80,8|8,0:1|0:1,0:0:0:0:
91,278,61432,1,8,0:0:0:0:
212,224,61593,1,8,0:0:0:0:
256,360,61755,6,0,P|336:372|384:320,1,132.00000402832,4|0,0:0|0:0,0:0:0:0:
366,176,62077,6,0,P|310:212|310:296,1,143.999995605469,4|0,0:0|0:0,0:0:0:0:
446,293,62400,6,0,P|417:266|379:256,1,80,4|0,0:0|0:0,0:0:0:0:
220,292,62722,5,8,0:0:0:0:
216,280,62803,1,8,0:0:0:0:
212,268,62884,1,8,0:0:0:0:
208,256,62964,1,8,0:0:0:0:
204,244,63045,6,0,L|204:116,1,120.000004577637,12|0,0:1|0:0,0:0:0:0:
288,108,63529,1,8,0:1:0:0:
120,136,63690,2,0,L|120:256,1,120.000004577637,12|0,0:0|0:0,0:0:0:0:
168,328,64174,1,8,0:1:0:0:
252,344,64335,6,0,B|285:376|332:316|376:360,1,120.000004577637,8|0,0:1|0:0,0:0:0:0:
452,364,64819,1,8,0:1:0:0:
452,352,64900,1,0,0:0:0:0:
452,340,64980,2,0,L|452:220,1,120.000004577637,12|0,0:0|0:0,0:0:0:0:
365,139,65464,1,0,0:0:0:0:
348,220,65626,6,0,L|340:272,1,40,12|0,0:1|0:0,0:0:0:0:
256,184,65948,6,0,L|264:240,1,47.9999985351563,8|8,0:1|0:1,0:0:0:0:
372,84,66271,6,0,L|364:148,1,55.9999982910157,8|8,0:0|0:0,0:0:0:0:
236,40,66593,6,0,L|244:112,1,64,8|8,0:0|0:0,0:0:0:0:
296,320,66916,5,8,0:0:0:0:
296,320,67077,1,8,0:0:0:0:
136,352,67400,6,0,L|132:268,1,80,2|2,0:0|0:0,0:0:0:0:
64,128,67722,2,0,L|68:212,1,80,2|2,0:0|0:0,0:0:0:0:
192,204,68045,1,2,0:0:0:0:
230,344,68206,6,0,P|282:304|400:343,1,191.999994140625,12|8,0:1|0:0,0:0:0:0:
506,371,68690,1,2,0:0:0:0:
504,242,68851,2,0,B|505:119|505:119|452:61,1,191.999994140625,10|8,0:1|0:0,0:0:0:0:
352,8,69335,1,2,0:0:0:0:
384,156,69497,6,0,L|280:168,1,95.9999970703126,10|0,0:1|0:0,0:0:0:0:
152,136,69819,1,8,0:0:0:0:
196,284,69980,1,2,0:0:0:0:
12,216,70142,2,0,L|116:204,1,95.9999970703126,8|2,0:1|0:0,0:0:0:0:
196,284,70464,2,0,L|300:272,1,95.9999970703126,8|2,0:0|0:0,0:0:0:0:
428,340,70787,5,10,0:1:0:0:
428,340,70948,1,0,0:0:0:0:
485,223,71109,5,8,0:0:0:0:
485,223,71271,1,0,0:0:0:0:
330,257,71432,5,10,0:1:0:0:
330,257,71593,1,0,0:0:0:0:
321,56,71755,5,8,0:0:0:0:
321,56,71916,1,0,0:0:0:0:
196,284,72077,6,0,P|276:332|356:272,1,191.999994140625,10|8,0:1|0:0,0:0:0:0:
376,180,72561,1,0,0:0:0:0:
232,192,72722,2,0,P|184:188|124:212,1,95.9999970703126,6|0,0:0|0:0,0:0:0:0:
72,376,73045,2,0,P|57:330|61:282,1,95.9999970703126,12|0,0:0|0:0,0:0:0:0:
76,128,73368,6,0,P|172:96|280:104,1,191.999994140625,12|8,0:1|0:0,0:0:0:0:
376,180,73851,1,0,0:0:0:0:
304,332,74013,2,0,L|288:232,1,95.9999970703126,10|0,0:1|0:0,0:0:0:0:
138,202,74335,2,0,L|122:302,1,95.9999970703126,8|0,0:0|0:0,0:0:0:0:
304,332,74658,6,0,L|416:312,1,95.9999970703126,10|0,0:1|0:0,0:0:0:0:
376,180,74980,2,0,L|276:164,1,95.9999970703126,8|0,0:0|0:0,0:0:0:0:
138,202,75303,1,10,0:1:0:0:
48,80,75464,1,0,0:0:0:0:
48,72,75545,1,0,0:0:0:0:
48,64,75626,1,8,0:0:0:0:
160,32,75787,1,0,0:0:0:0:
56,164,75948,6,0,P|36:208|108:280,1,143.999995605469,6|0,0:0|0:0,0:0:0:0:
87,278,76271,1,10,0:0:0:0:
224,344,76432,2,0,L|238:249,1,95.9999970703126,2|0,0:0|0:0,0:0:0:0:
328,196,76755,2,0,L|313:101,1,95.9999970703126,10|0,0:0|0:0,0:0:0:0:
179,17,77077,6,0,B|155:77|155:77|155:153|155:153|131:221,1,191.999994140625,6|4,0:0|0:3,0:0:0:0:
28,220,77561,5,4,0:3:0:0:
44,327,77722,1,8,0:1:0:0:
168,208,77884,5,8,0:1:0:0:
136,356,78045,1,2,0:0:0:0:
328,196,78206,5,10,0:0:0:0:
304,188,78287,1,2,0:0:0:0:
280,192,78368,1,2,0:0:0:0:
260,204,78448,1,2,0:0:0:0:
248,224,78529,6,0,B|249:358|249:358|301:295,1,191.999994140625,12|8,0:1|0:0,0:0:0:0:
344,192,79013,1,2,0:0:0:0:
465,326,79174,2,0,P|413:298|282:315,1,191.999994140625,10|8,0:1|0:0,0:0:0:0:
177,366,79658,1,2,0:0:0:0:
96,219,79819,6,0,L|108:123,1,95.9999970703126,10|0,0:1|0:0,0:0:0:0:
245,61,80142,1,8,0:0:0:0:
58,52,80303,1,2,0:0:0:0:
191,202,80464,2,0,L|311:214,1,95.9999970703126,8|2,0:1|0:0,0:0:0:0:
342,351,80787,2,0,L|462:339,1,95.9999970703126,8|2,0:0|0:0,0:0:0:0:
488,192,81109,5,10,0:1:0:0:
488,192,81271,1,0,0:0:0:0:
381,213,81431,5,8,0:0:0:0:
381,213,81593,1,0,0:0:0:0:
277,156,81755,5,10,0:1:0:0:
277,156,81916,1,0,0:0:0:0:
152,240,82077,5,8,0:0:0:0:
152,240,82239,1,0,0:0:0:0:
152,48,82400,6,0,P|248:16|344:60,1,191.999994140625,10|8,0:1|0:0,0:0:0:0:
376,192,82884,1,8,0:1:0:0:
248,256,83045,6,0,L|252:311,2,47.9999985351563,12|8|8,0:0|0:0|0:0,0:0:0:0:
268,132,83367,1,8,0:0:0:0:
164,260,83528,1,8,0:1:0:0:
316,328,83690,6,0,P|412:352|488:296,1,191.999994140625,12|8,0:1|0:1,0:0:0:0:
484,184,84174,1,8,0:1:0:0:
388,244,84335,6,0,L|372:144,1,95.9999970703126,8|8,0:1|0:1,0:0:0:0:
304,40,84658,2,0,L|288:140,1,95.9999970703126,8|8,0:1|0:1,0:0:0:0:
248,288,84980,6,0,L|132:300,1,103.999995239258,8|8,0:1|0:0,0:0:0:0:
28,204,85303,2,0,L|144:216,1,103.999995239258,8|8,0:0|0:0,0:0:0:0:
288,134,85626,5,8,0:0:0:0:
112,96,85787,1,8,0:0:0:0:
108,108,85868,1,8,0:0:0:0:
104,120,85948,1,8,0:0:0:0:
216,208,86109,1,8,0:0:0:0:
276,36,86271,6,0,P|340:28|400:36,1,103.999995239258,12|8,0:0|0:1,0:0:0:0:
472,112,86593,1,8,0:1:0:0:
288,134,86755,2,0,P|224:126|164:134,1,103.999995239258,12|8,0:0|0:1,0:0:0:0:
92,210,87077,1,8,0:1:0:0:
276,232,87239,6,0,P|340:224|336:360,1,240.000009155274,12|0,0:1|0:1,0:0:0:0:
92,210,88206,1,8,0:0:0:0:
92,210,88368,1,8,0:0:0:0:
248,24,88851,6,0,P|304:52|232:132,1,191.999994140625,12|8,0:1|0:1,0:0:0:0:
120,80,89335,1,12,0:0:0:0:
120,92,89416,1,8,0:0:0:0:
120,104,89497,1,8,0:0:0:0:
120,116,89577,1,8,0:0:0:0:
120,128,89658,1,8,0:0:0:0:
176,232,89819,1,12,0:1:0:0:
247,136,89980,2,0,L|247:84,2,47.9999985351563,8|0|8,0:1|0:0|0:0,0:0:0:0:
288,292,90303,6,0,P|360:308|420:212,1,191.999994140625,12|8,0:0|0:0,0:0:0:0:
292,192,90787,2,0,P|240:204|206:235,1,95.9999970703126,12|2,0:0|0:0,0:0:0:0:
164,288,91029,1,2,0:0:0:0:
164,288,91109,2,0,P|112:275|78:244,1,95.9999970703126,12|0,0:0|0:0,0:0:0:0:
38,117,91432,1,4,0:0:0:0:
256,192,91513,12,12,92561,0:0:0:0:
120,72,92884,5,10,0:1:0:0:
32,192,93045,1,8,0:0:0:0:
32,192,93126,1,8,0:0:0:0:
32,192,93206,1,8,0:0:0:0:
32,192,93287,1,8,0:0:0:0:
32,192,93368,1,12,0:0:0:0:
160,192,93529,1,12,0:0:0:0:
368,92,93851,6,0,B|396:208|396:208|380:260,1,160,12|2,0:1|0:0,0:0:0:0:
380,256,94255,1,0,0:0:0:0:
376,264,94335,1,8,0:0:0:0:
264,300,94497,1,2,0:0:0:0:
252,128,94658,2,0,L|264:36,1,80,10|2,0:1|0:0,0:0:0:0:
144,16,94980,2,0,L|136:64,1,40,10|0,0:0|0:0,0:0:0:0:
112,200,95142,6,0,B|151:212|215:190,1,80,6|0,0:0|0:0,0:0:0:0:
264,300,95464,2,0,B|300:280|329:220,1,80,10|8,0:1|0:0,0:0:0:0:
380,66,95787,2,0,B|343:85|314:145,1,80,2|8,0:0|0:1,0:0:0:0:
395,305,96109,1,2,0:0:0:0:
454,193,96271,1,8,0:0:0:0:
268,197,96432,6,0,P|216:273|240:368,1,160,12|8,0:1|0:1,0:0:0:0:
305,370,96835,1,0,0:0:0:0:
305,370,96916,2,0,L|389:370,1,80,8|2,0:0|0:0,0:0:0:0:
471,344,97158,1,0,0:0:0:0:
471,344,97239,2,0,P|483:304|467:256,1,80,8|2,0:1|0:0,0:0:0:0:
353,132,97561,1,10,0:0:0:0:
169,96,97722,6,0,B|57:112|57:112|105:132,1,160,6|10,0:0|0:1,0:0:0:0:
109,132,98126,1,2,0:0:0:0:
117,136,98206,1,10,0:0:0:0:
272,176,98368,1,10,0:0:0:0:
108,248,98529,6,0,P|100:284|116:332,1,80,2|10,0:0|0:0,0:0:0:0:
212,360,98851,1,2,0:0:0:0:
272,176,99013,6,0,B|312:144|392:208|432:176,1,160,12|8,0:1|0:1,0:0:0:0:
360,40,99497,2,0,P|300:24|240:44,1,120,8|0,0:0|0:0,0:0:0:0:
200,96,99819,5,10,0:1:0:0:
208,248,99980,1,10,0:1:0:0:
304,104,100142,1,8,0:0:0:0:
124,144,100303,6,0,B|54:178|54:178|68:224|48:280,1,160,6|10,0:0|0:1,0:0:0:0:
104,368,100787,2,0,P|124:360|144:336,1,40,8|8,0:0|0:0,0:0:0:0:
208,248,100948,2,0,P|216:268|264:304,1,80,8|10,0:0|0:1,0:0:0:0:
389,179,101271,2,0,L|376:85,1,80,8|8,0:0|0:0,0:0:0:0:
352,64,101513,1,8,1:0:0:0:
352,64,101593,6,0,P|256:44|184:72,1,160,12|10,0:1|0:1,0:0:0:0:
272,292,102077,2,0,P|292:196|264:124,1,160,8|8,0:0|0:1,0:0:0:0:
132,20,102561,2,0,P|120:64|132:108,1,80,2|8,0:1|0:0,0:0:0:0:
172,220,102884,6,0,B|132:276|216:324|176:380,1,160,6|10,0:0|0:1,0:0:0:0:
92,344,103368,1,10,0:1:0:0:
260,248,103529,1,10,0:1:0:0:
75,198,103690,6,0,P|87:138|151:86,1,120,6|0,0:0|0:0,0:0:0:0:
200,60,104013,2,0,L|304:60,1,80,10|0,0:0|0:0,0:0:0:0:
112,326,115626,5,0,0:0:0:0:
112,326,115948,6,0,L|100:190,1,128,8|8,0:1|0:1,0:0:0:0:
33,85,116432,2,0,P|67:106|113:107,1,64,0|8,0:0|0:1,0:0:0:0:
223,31,116755,2,0,P|197:36|158:62,1,64,0|8,0:0|0:1,0:0:0:0:
309,141,117077,2,0,L|328:-1,1,128,0|0,0:0|0:0,0:0:0:0:
163,54,117561,2,0,P|190:37|222:31,1,64,8|0,0:1|0:0,0:0:0:0:
323,151,117884,2,0,P|351:165|408:161,1,64,8|0,0:1|0:0,0:0:0:0:
512,90,118206,1,8,0:1:0:0:
512,90,118529,6,0,P|448:78|369:69,1,128,8|8,0:1|0:1,0:0:0:0:
242,127,119013,2,0,P|243:156|255:205,1,64,0|8,0:0|0:1,0:0:0:0:
404,198,119335,2,0,P|400:234|389:277,1,64,0|8,0:0|0:1,0:0:0:0:
330,335,119658,1,0,0:0:0:0:
411,271,119819,1,8,0:1:0:0:
280,217,119980,1,0,0:0:0:0:
253,218,120061,1,0,0:0:0:0:
233,231,120142,1,8,0:1:0:0:
142,345,120303,1,0,0:0:0:0:
101,172,120464,2,0,L|87:240,1,64,8|0,0:1|0:0,0:0:0:0:
57,56,120787,1,8,0:1:0:0:
57,56,121109,6,0,P|129:69|182:15,1,128,8|8,0:1|0:1,0:0:0:0:
262,94,121593,2,0,P|277:61|281:26,1,64,0|8,0:0|0:1,0:0:0:0:
189,159,121916,1,0,0:0:0:0:
109,229,122077,2,0,P|91:199|90:142,1,64,8|0,0:1|0:0,0:0:0:0:
308,209,122400,2,0,P|271:142|300:78,1,128,8|8,0:1|0:1,0:0:0:0:
189,159,122884,2,0,P|151:156|104:146,1,64,0|8,0:0|0:1,0:0:0:0:
357,139,123206,1,0,0:0:0:0:
295,226,123368,1,8,0:1:0:0:
259,85,123529,1,0,0:0:0:0:
390,253,123690,6,0,L|376:114,1,128,8|8,0:1|0:1,0:0:0:0:
306,305,124174,1,0,0:0:0:0:
385,274,124335,1,8,0:1:0:0:
278,230,124497,1,0,0:0:0:0:
211,358,124658,1,8,0:0:0:0:
72,283,124819,6,0,L|64:137,1,128,6|4,0:0|0:3,0:0:0:0:
125,92,125303,1,4,0:3:0:0:
154,170,125464,1,8,0:1:0:0:
36,71,125626,1,12,0:0:0:0:
36,71,125787,1,2,0:0:0:0:
178,6,125948,1,12,0:0:0:0:
182,10,126109,1,2,0:0:0:0:
351,104,126271,6,0,P|301:111|258:141,1,71.9999978027344,12|0,0:1|0:0,0:0:0:0:
239,192,126593,1,8,0:0:0:0:
121,154,126755,1,0,0:0:0:0:
121,154,126835,1,0,0:0:0:0:
121,154,126916,1,8,0:1:0:0:
50,97,127077,2,0,P|33:136|39:187,1,71.9999978027344,8|8,0:1|0:0,0:0:0:0:
102,285,127400,1,0,0:0:0:0:
245,227,127561,6,0,L|171:216,1,71.9999978027344,8|8,0:1|0:1,0:0:0:0:
297,321,127884,2,0,L|214:333,1,71.9999978027344,8|0,0:0|0:0,0:0:0:0:
359,240,128206,1,8,0:1:0:0:
318,336,128368,1,8,0:1:0:0:
495,308,128529,2,0,L|414:322,1,71.9999978027344,8|0,0:0|0:0,0:0:0:0:
347,237,128851,5,8,0:1:0:0:
489,160,129013,1,0,0:0:0:0:
479,150,129093,1,0,0:0:0:0:
470,142,129174,2,0,L|383:133,1,71.9999978027344,8|0,0:0|0:0,0:0:0:0:
388,134,129416,1,0,0:0:0:0:
379,133,129497,1,8,0:1:0:0:
308,82,129658,1,8,0:1:0:0:
189,204,129819,2,0,L|179:110,1,71.9999978027344,8|0,0:0|0:0,0:0:0:0:
58,71,130142,6,0,L|66:158,1,71.9999978027344,8|0,0:1|0:0,0:0:0:0:
181,132,130464,1,8,0:0:0:0:
106,231,130626,1,0,0:0:0:0:
106,231,130706,1,0,0:0:0:0:
106,231,130787,1,0,0:0:0:0:
181,132,130948,1,8,0:1:0:0:
151,321,131109,1,8,0:0:0:0:
254,257,131271,1,0,0:0:0:0:
347,378,131432,6,0,P|387:343|368:241,1,143.999995605469,6|8,0:0|0:0,0:0:0:0:
288,172,131916,1,0,0:0:0:0:
288,172,131997,1,0,0:0:0:0:
288,172,132077,1,8,0:1:0:0:
420,83,132239,2,0,L|435:171,1,71.9999978027344,8|8,0:1|0:0,0:0:0:0:
200,131,132561,6,0,P|241:83|343:101,1,143.999995605469,0|8,0:0|0:1,0:0:0:0:
135,230,133045,2,0,L|60:217,1,71.9999978027344,8|0,0:0|0:0,0:0:0:0:
271,295,133368,1,8,0:1:0:0:
170,338,133529,1,8,0:1:0:0:
351,244,133690,2,0,P|369:284|359:326,1,71.9999978027344,10|2,0:0|0:0,0:0:0:0:
222,108,134013,5,8,0:1:0:0:
327,29,134174,1,2,0:0:0:0:
324,51,134255,1,2,0:0:0:0:
319,74,134335,1,8,0:0:0:0:
259,241,134497,1,2,0:0:0:0:
258,222,134577,1,8,0:0:0:0:
258,197,134658,6,0,L|313:206,1,35.9999989013672,10|2,0:1|0:0,0:0:0:0:
417,232,134819,2,0,L|352:220,1,35.9999989013672,10|2,0:1|0:0,0:0:0:0:
330,120,134980,2,0,L|377:129,1,35.9999989013672,10|0,0:0|0:0,0:0:0:0:
468,80,135142,6,0,L|452:173,1,71.9999978027344,6|0,0:0|0:0,0:0:0:0:
353,25,135464,1,10,0:1:0:0:
370,27,135545,1,2,0:0:0:0:
385,29,135626,2,0,L|369:73,1,35.9999989013672,8|0,0:0|0:0,0:0:0:0:
285,186,135787,1,2,0:0:0:0:
277,159,135868,1,2,0:0:0:0:
272,135,135948,5,10,0:1:0:0:
182,218,136109,1,8,0:1:0:0:
96,110,136271,2,0,L|90:167,1,35.9999989013672,8|0,0:0|0:0,0:0:0:0:
65,224,136432,2,0,L|76:281,1,35.9999989013672,0|0,0:0|0:0,0:0:0:0:
95,355,136593,6,0,P|163:315|230:347,1,143.999995605469,12|8,0:1|0:0,0:0:0:0:
401,261,137077,1,0,0:0:0:0:
384,263,137158,1,0,0:0:0:0:
366,266,137239,2,0,L|354:352,1,71.9999978027344,8|8,0:1|0:1,0:0:0:0:
310,205,137561,1,8,0:0:0:0:
430,133,137722,1,0,0:0:0:0:
257,265,137884,6,0,P|234:236|235:187,1,71.9999978027344,8|8,0:1|0:1,0:0:0:0:
117,325,138206,2,0,L|133:241,1,71.9999978027344,8|0,0:0|0:0,0:0:0:0:
114,155,138448,1,8,0:0:0:0:
114,155,138529,2,0,L|96:243,1,71.9999978027344,8|8,0:1|0:1,0:0:0:0:
191,109,138851,1,8,0:0:0:0:
37,62,139013,1,0,0:0:0:0:
216,0,139174,6,0,L|233:146,1,143.999995605469,8|8,0:1|0:0,0:0:0:0:
296,212,139658,1,0,0:0:0:0:
452,96,139819,2,0,P|396:135|309:104,1,143.999995605469,8|8,0:1|0:0,0:0:0:0:
232,143,140303,1,8,0:0:0:0:
146,296,140464,6,0,L|243:276,1,71.9999978027344,4|0,0:0|0:0,0:0:0:0:
367,223,140787,2,0,L|292:211,1,71.9999978027344,4|0,0:0|0:0,0:0:0:0:
129,112,141109,2,0,P|111:156|111:190,1,71.9999978027344,4|0,0:0|0:0,0:0:0:0:
317,121,141432,2,0,P|335:81|337:36,1,71.9999978027344,8|8,0:0|0:0,0:0:0:0:
241,30,141674,1,8,0:0:0:0:
241,30,141755,6,0,L|396:17,1,143.999995605469,12|0,0:1|0:0,0:0:0:0:
224,128,142239,1,8,0:1:0:0:
224,128,142400,2,0,L|54:107,1,143.999995605469,12|0,0:0|0:0,0:0:0:0:
273,213,142884,1,8,0:1:0:0:
273,213,143045,6,0,P|318:162|294:68,1,143.999995605469,8|0,0:1|0:0,0:0:0:0:
396,216,143529,2,0,L|405:293,1,71.9999978027344,8|12,0:1|0:0,0:0:0:0:
488,135,143851,1,0,0:0:0:0:
386,206,144013,1,0,0:0:0:0:
224,128,144174,1,0,0:0:0:0:
65,245,144335,6,0,P|126:234|196:225,1,107.999996704102,12|0,0:1|0:0,0:0:0:0:
203,253,144658,1,8,0:1:0:0:
203,253,144819,1,8,0:1:0:0:
292,200,144980,1,8,0:0:0:0:
292,200,145142,1,8,0:0:0:0:
397,286,145303,1,8,0:0:0:0:
397,286,145464,1,8,0:0:0:0:
492,172,145626,5,8,0:0:0:0:
208,87,145787,1,8,0:0:0:0:
412,23,146109,5,8,3:1:0:0:
360,151,146271,2,0,P|353:137|348:103,1,35.9999989013672,8|8,0:0|0:3,0:0:0:0:
423,101,146432,2,0,P|432:124|436:144,1,35.9999989013672,4|8,0:3|0:3,0:0:0:0:
387,258,146593,2,0,P|381:237|379:209,1,35.9999989013672,8|0,0:0|0:0,0:0:0:0:
454,205,146755,2,0,P|460:230|465:253,1,35.9999989013672,2|0,0:0|0:0,0:0:0:0:
439,324,146916,6,0,P|358:289|286:352,1,191.999994140625,12|0,0:1|0:0,0:0:0:0:
207,292,147400,1,2,0:0:0:0:
42,169,147561,2,0,P|92:220|209:168,1,191.999994140625,10|8,0:1|0:0,0:0:0:0:
127,131,148045,1,2,0:0:0:0:
349,67,148206,6,0,P|309:123|380:221,1,191.999994140625,10|8,0:1|0:0,0:0:0:0:
393,136,148690,1,2,0:0:0:0:
324,292,148851,1,8,0:1:0:0:
441,269,149013,1,2,0:0:0:0:
253,228,149174,1,8,0:0:0:0:
213,382,149335,1,2,0:0:0:0:
222,149,149497,5,10,0:1:0:0:
222,149,149658,1,0,0:0:0:0:
258,233,149819,5,8,0:0:0:0:
258,233,149980,1,0,0:0:0:0:
287,79,150142,5,10,0:1:0:0:
287,79,150303,1,0,0:0:0:0:
228,324,150464,5,8,0:0:0:0:
228,324,150626,1,0,0:0:0:0:
405,195,150787,6,0,P|302:170|256:243,1,191.999994140625,10|8,0:1|0:0,0:0:0:0:
337,247,151271,1,0,0:0:0:0:
162,170,151432,2,0,P|146:227|151:274,1,95.9999970703126,6|0,0:0|0:0,0:0:0:0:
244,67,151755,1,12,0:0:0:0:
244,67,151835,1,0,0:0:0:0:
244,67,151916,1,0,0:0:0:0:
254,322,152077,6,0,L|47:296,1,191.999994140625,12|8,0:1|0:0,0:0:0:0:
254,230,152561,1,0,0:0:0:0:
412,371,152722,2,0,P|421:324|432:267,1,95.9999970703126,10|0,0:1|0:0,0:0:0:0:
349,73,153045,2,0,L|330:171,1,95.9999970703126,8|0,0:0|0:0,0:0:0:0:
259,235,153287,1,0,0:0:0:0:
259,235,153368,6,0,P|205:207|152:215,1,95.9999970703126,10|0,0:1|0:0,0:0:0:0:
403,238,153690,2,0,P|426:198|428:131,1,95.9999970703126,8|0,0:0|0:0,0:0:0:0:
235,25,154013,2,0,L|251:131,1,95.9999970703126,10|0,0:1|0:0,0:0:0:0:
307,335,154335,1,8,0:0:0:0:
259,235,154497,1,0,0:0:0:0:
64,373,154658,6,0,L|82:207,1,143.999995605469,6|0,0:0|0:0,0:0:0:0:
108,200,154980,1,10,0:0:0:0:
255,121,155142,1,2,0:0:0:0:
255,121,155303,1,0,0:0:0:0:
81,42,155464,1,10,0:0:0:0:
81,42,155626,1,0,0:0:0:0:
219,222,155787,6,0,P|287:158|373:203,1,191.999994140625,6|4,0:0|0:3,0:0:0:0:
438,93,156271,1,4,0:3:0:0:
317,39,156432,1,8,0:1:0:0:
377,199,156593,2,0,L|483:181,1,95.9999970703126,8|2,0:1|0:0,0:0:0:0:
251,155,156916,2,0,P|239:192|248:219,1,47.9999985351563,10|2,0:0|0:0,0:0:0:0:
302,261,157077,2,0,P|311:293|303:322,1,47.9999985351563,2|2,0:0|0:0,0:0:0:0:
230,352,157239,6,0,P|141:373|86:286,1,191.999994140625,12|8,0:1|0:0,0:0:0:0:
174,279,157722,1,2,0:0:0:0:
419,199,157884,2,0,P|379:265|262:230,1,191.999994140625,10|8,0:1|0:0,0:0:0:0:
337,187,158368,1,2,0:0:0:0:
92,88,158529,6,0,P|141:155|254:111,1,191.999994140625,10|8,0:1|0:0,0:0:0:0:
180,70,159013,1,2,0:0:0:0:
101,239,159174,1,8,0:1:0:0:
231,313,159335,1,2,0:0:0:0:
182,207,159497,1,8,0:0:0:0:
122,372,159658,1,2,0:0:0:0:
282,168,159819,5,10,0:1:0:0:
282,168,159980,1,0,0:0:0:0:
253,251,160142,5,8,0:0:0:0:
253,251,160303,1,0,0:0:0:0:
250,98,160464,5,10,0:1:0:0:
250,98,160626,1,0,0:0:0:0:
272,335,160787,5,8,0:0:0:0:
272,335,160948,1,0,0:0:0:0:
499,214,161109,6,0,L|291:196,1,191.999994140625,10|8,0:1|0:0,0:0:0:0:
240,158,161593,1,8,0:0:0:0:
94,260,161755,1,12,0:0:0:0:
100,272,161835,1,8,0:0:0:0:
107,285,161916,1,8,0:0:0:0:
173,76,162077,1,8,0:0:0:0:
165,116,162158,1,8,0:0:0:0:
158,159,162239,1,8,0:1:0:0:
367,298,162400,6,0,P|291:331|212:262,1,191.999994140625,12|8,0:1|0:1,0:0:0:0:
294,248,162884,1,8,0:1:0:0:
153,342,163045,5,8,0:1:0:0:
153,342,163206,1,8,0:1:0:0:
92,279,163368,5,8,0:1:0:0:
92,279,163529,1,8,0:1:0:0:
101,177,163690,5,8,0:1:0:0:
101,177,163851,1,8,0:0:0:0:
170,63,164013,5,8,0:0:0:0:
170,63,164174,1,8,0:0:0:0:
335,51,164335,5,8,0:0:0:0:
265,122,164497,1,8,0:0:0:0:
401,168,164658,1,8,0:0:0:0:
239,226,164819,1,8,0:0:0:0:
391,325,164980,6,0,P|442:324|485:285,1,95.9999970703126,12|8,0:0|0:1,0:0:0:0:
239,226,165303,1,8,0:1:0:0:
60,344,165464,2,0,L|82:244,1,95.9999970703126,12|8,0:0|0:1,0:0:0:0:
239,226,165787,1,8,0:1:0:0:
64,65,165948,1,12,0:1:0:0:
254,200,166916,5,8,0:0:0:0:
254,200,167077,1,8,0:0:0:0:
402,331,167561,5,12,0:1:0:0:
356,200,167722,2,0,L|343:279,2,64,0|0|0,0:0|0:0|0:0,0:0:0:0:
483,123,168206,2,0,P|414:134|366:89,1,128,0|0,0:0|0:0,0:0:0:0:
302,44,168690,2,0,P|237:50|154:55,1,128,0|0,0:0|0:0,0:0:0:0:
93,15,169174,1,0,0:0:0:0:
94,248,169497,1,0,0:0:0:0:
94,248,169658,2,0,P|141:246|184:229,1,64,0|0,0:0|0:0,0:0:0:0:
225,296,169980,6,0,P|239:269|243:229,1,64,0|4,0:0|0:0,0:0:0:0:
195,163,170303,1,0,0:0:0:0:
272,118,170464,2,0,P|205:74|141:94,2,128,0|0|0,0:0|0:0|0:0,0:0:0:0:
435,26,171432,2,0,L|447:165,1,128,0|0,0:0|0:0,0:0:0:0:
390,339,172077,1,4,0:3:0:0:
389,340,172400,1,4,0:3:0:0:
389,340,172722,5,4,0:0:0:0:
256,286,172884,2,0,L|320:273,2,64,0|0|0,0:0|0:0|0:0,0:0:0:0:
217,361,173368,2,0,P|177:321|188:249,1,128,0|0,0:0|0:0,0:0:0:0:
243,191,173851,1,8,0:0:0:0:
81,84,174335,1,4,0:0:0:0:
81,84,174658,1,0,0:0:0:0:
81,84,174980,2,0,L|86:45,2,32
185,37,175303,5,6,0:0:0:0:
169,118,175464,1,8,0:0:0:0:
153,206,175626,1,8,0:0:0:0:
185,37,175948,5,8,0:0:0:0:
169,118,176109,1,8,0:0:0:0:
153,206,176271,1,8,0:1:0:0:
136,292,176432,1,12,0:0:0:0:
381,155,176755,5,4,3:0:0:0:
290,199,176916,1,4,0:3:0:0:
377,256,177077,1,8,0:1:0:0:
236,136,177239,6,0,P|207:182|220:248,1,96,12|8,0:0|0:0,0:0:0:0:
234,270,177561,1,0,0:0:0:0:
94,174,177722,1,8,0:0:0:0:
198,38,177884,6,0,P|284:51|358:19,1,160,12|8,0:1|0:0,0:0:0:0:
350,24,178368,1,2,0:0:0:0:
236,136,178529,2,0,P|187:129|137:138,1,80,8|2,0:1|0:0,0:0:0:0:
74,224,178851,1,8,0:0:0:0:
210,344,179013,6,0,B|173:294|192:224|192:224|213:244|239:252,1,160,2|2,0:0|0:0,0:0:0:0:
219,243,179416,1,2,0:0:0:0:
219,243,179497,1,8,0:0:0:0:
368,205,179658,2,0,L|414:200,2,40,2|0|8,0:0|0:0|0:1,0:0:0:0:
236,136,179980,1,2,0:0:0:0:
387,85,180142,2,0,B|488:94|488:94|460:104,1,120,8|0,0:0|0:0,0:0:0:0:
408,171,180464,6,0,P|407:211|418:263,1,80,10|0,0:1|0:0,0:0:0:0:
478,359,180787,1,8,0:0:0:0:
326,258,180948,2,0,P|319:218|320:178,1,80,2|8,0:0|0:1,0:0:0:0:
387,85,181271,2,0,L|472:92,1,80,2|8,0:0|0:0,0:0:0:0:
293,25,181593,6,0,P|231:25|169:132,1,160,6|8,0:0|0:0,0:0:0:0:
217,220,182077,1,8,0:0:0:0:
111,184,182239,2,0,L|74:184,4,20,12|0|2|0|2,0:0|0:0|0:0|0:0|0:0,0:0:0:0:
224,234,182561,2,0,L|326:226,1,80,8|2,0:0|0:0,0:0:0:0:
158,325,182884,2,0,L|56:317,1,80,12|0,0:1|0:0,0:0:0:0:
251,349,183206,5,10,0:1:0:0:
251,349,183287,1,8,0:1:0:0:
251,349,183368,2,0,L|265:304,3,40,8|0|2|2,0:0|0:0|0:0|0:0,0:0:0:0:
327,248,183690,2,0,L|313:203,3,40,10|2|10|2,0:1|0:0|0:1|0:0,0:0:0:0:
273,129,184013,1,10,0:0:0:0:
273,129,184093,1,10,0:0:0:0:
273,129,184174,6,0,P|212:141|106:147,1,160,6|10,0:0|0:1,0:0:0:0:
16,44,184658,2,0,P|95:47|174:62,1,160,8|10,0:0|0:1,0:0:0:0:
15,163,185142,1,10,0:1:0:0:
202,216,185303,1,8,0:0:0:0:
25,301,185464,6,0,P|69:338|189:345,1,160,12|8,0:1|0:1,0:0:0:0:
168,351,185868,1,8,0:1:0:0:
168,351,185948,1,8,0:0:0:0:
288,251,186109,1,2,0:0:0:0:
288,251,186190,1,0,0:0:0:0:
288,251,186271,2,0,L|333:256,1,40,10|2,0:1|0:0,0:0:0:0:
396,330,186432,2,0,L|441:325,1,40,2|2,0:0|0:0,0:0:0:0:
500,244,186593,1,10,0:0:0:0:
500,244,186674,1,8,0:0:0:0:
500,244,186755,6,0,P|503:162|473:77,1,160,6|0,0:0|0:0,0:0:0:0:
350,33,187239,5,10,0:1:0:0:
307,42,187319,1,2,0:0:0:0:
263,51,187400,1,10,0:1:0:0:
220,61,187480,1,2,0:0:0:0:
179,77,187561,6,0,L|189:119,3,40,10|10|10|10,0:1|0:0|0:0|0:0,0:0:0:0:
221,147,187884,2,0,L|211:189,3,40,8|8|8|8,0:0|0:0|0:0|0:0,0:0:0:0:
183,229,188206,6,0,P|151:227|97:238,1,80,12|2,0:1|0:0,0:0:0:0:
5,179,188529,2,0,P|3:211|14:265,1,80,8|2,0:0|0:0,0:0:0:0:
130,379,188851,1,8,0:1:0:0:
198,295,189013,1,2,0:0:0:0:
56,317,189174,1,8,0:0:0:0:
209,270,189335,6,0,P|281:253|368:282,1,160,2|2,0:0|0:0,0:0:0:0:
458,357,189819,2,0,P|472:319|447:258,1,80,8|2,0:0|0:0,0:0:0:0:
388,187,190142,1,8,0:1:0:0:
489,84,190303,2,0,L|479:173,2,80,2|8|2,0:0|0:0|0:0,0:0:0:0:
357,30,190787,6,0,P|257:26|199:60,1,160,10|8,0:1|0:0,0:0:0:0:
120,130,191271,1,2,0:0:0:0:
120,130,191432,2,0,P|124:190|132:234,1,80,10|2,0:1|0:0,0:0:0:0:
220,304,191755,1,8,0:0:0:0:
246,168,191916,6,0,B|299:133|360:190|408:164,1,160,2|2,0:0|0:0,0:0:0:0:
489,88,192400,2,0,P|495:49|492:0,1,80,8|2,0:0|0:0,0:0:0:0:
401,166,192722,6,0,P|390:218|436:296,1,132.00000402832,6|2,0:0|0:0,0:0:0:0:
454,320,193045,2,0,B|388:304|389:352|318:324,1,132.00000402832,12|0,0:0|0:0,0:0:0:0:
293,296,193368,6,0,P|302:250|296:194,1,80,12|0,0:1|0:0,0:0:0:0:
213,115,193690,1,8,0:0:0:0:
213,115,193851,2,0,B|101:135|101:135|42:118,1,160,2|2,0:0|0:0,0:0:0:0:
22,25,194335,1,8,0:0:0:0:
138,49,194497,1,2,0:0:0:0:
14,189,194658,6,0,B|5:252|32:303|32:303|61:281|66:243,1,160,10|8,0:1|0:0,0:0:0:0:
144,188,195142,1,0,0:0:0:0:
149,332,195303,2,0,P|203:316|262:337,1,120,10|0,0:1|0:0,0:0:0:0:
295,361,195626,2,0,P|301:304|311:274,1,80,8|0,0:0|0:0,0:0:0:0:
382,178,195948,6,0,L|431:188,3,40,8|8|8|8,0:1|0:1|0:1|0:1,0:1:0:0:
469,193,196271,6,0,P|487:149|442:85,1,95.9999970703126,12|0,0:0|0:0,0:0:0:0:
362,79,196593,6,0,L|313:89,3,40,8|8|8|8,0:1|0:1|0:1|0:1,0:1:0:0:
275,100,196916,6,0,P|257:144|302:208,1,95.9999970703126,12|0,0:0|0:0,0:0:0:0:
393,304,197239,5,6,0:0:0:0:
236,294,197400,1,0,0:0:0:0:
368,198,197561,1,8,0:0:0:0:
311,356,197722,2,0,P|262:326|216:326,1,95.9999970703126,4|8,0:0|0:1,0:0:0:0:
79,367,198045,1,8,0:0:0:0:
139,215,198206,2,0,P|188:185|277:189,1,143.999995605469,8|0,0:0|0:0,0:0:0:0:
301,229,198529,6,0,B|296:270|296:270|312:311,1,80,12|2,0:1|0:0,0:0:0:0:
462,313,198851,2,0,B|467:272|467:272|451:231,1,80,8|2,0:0|0:0,0:0:0:0:
347,129,199174,1,8,0:1:0:0:
380,267,199335,1,2,0:0:0:0:
347,129,199497,1,8,0:0:0:0:
203,208,199658,6,0,P|180:132|200:41,1,160,2|0,0:0|0:0,0:0:0:0:
300,13,200142,1,8,0:0:0:0:
152,76,200303,2,0,P|96:95|42:98,1,80,2|8,0:0|0:1,0:0:0:0:
234,175,200626,2,0,P|273:182|310:196,1,80,2|8,0:0|0:0,0:0:0:0:
374,296,200948,1,2,0:0:0:0:
202,353,201109,6,0,B|193:308|170:279|170:279|194:246|209:185,1,160,10|8,0:1|0:0,0:0:0:0:
102,94,201593,2,0,P|173:48|255:65,1,160,2|2,0:0|0:0,0:0:0:0:
366,130,202077,2,0,P|354:179|336:228,1,80,8|2,0:0|0:0,0:0:0:0:
171,279,202400,5,8,0:1:0:0:
248,170,202561,1,2,3:2:0:0:
272,325,202722,1,8,0:0:0:0:
248,170,202884,1,8,0:1:0:0:
85,280,203045,6,0,P|56:321|138:331,1,143.999995605469,12|0,0:0|0:0,0:0:0:0:
171,279,203368,2,0,P|154:221|156:184,1,95.9999970703126,12|0,0:0|0:0,0:0:0:0:
194,69,203690,6,0,L|269:77,1,64,8|0,0:1|0:0,0:0:0:0:
287,165,204013,2,0,L|362:157,1,64,8|0,0:1|0:0,0:0:0:0:
348,65,204335,2,0,L|423:73,1,64,8|0,0:1|0:0,0:0:0:0:
441,161,204658,2,0,L|516:153,1,64,8|0,0:1|0:0,0:0:0:0:
404,250,204980,6,0,P|356:243|328:248,1,71.9999978027344,8|8,0:1|0:0,0:0:0:0:
250,363,205303,2,0,P|257:315|252:287,1,71.9999978027344,8|8,0:0|0:0,0:0:0:0:
137,209,205626,2,0,P|185:216|213:211,1,71.9999978027344,8|8,0:0|0:0,0:0:0:0:
291,96,205948,2,0,P|284:144|289:172,1,71.9999978027344,8|8,0:0|0:0,0:0:0:0:
404,250,206271,6,0,L|395:342,1,80,12|8,0:0|0:1,0:0:0:0:
250,363,206593,1,8,0:1:0:0:
137,209,206755,2,0,L|146:301,1,80,12|8,0:0|0:1,0:0:0:0:
287,166,207077,1,8,0:1:0:0:
52,90,207239,6,0,B|50:143|7:174|7:174|56:235|56:235|37:320|37:320|147:253|144:368|247:299,1,479.999985351563,4|0,0:0|0:0,0:0:0:0:
81,130,215303,6,0,P|78:186|82:216,1,64,8|0,0:1|0:0,0:0:0:0:
182,172,215626,2,0,P|179:228|183:258,1,64,8|0,0:1|0:0,0:0:0:0:
332,235,215948,2,0,P|333:203|330:172,1,64,8|0,0:1|0:0,0:0:0:0:
433,193,216271,2,0,P|434:161|431:130,1,64,8|0,0:1|0:0,0:0:0:0:
281,42,216593,6,0,L|206:59,1,64,8|8,0:1|0:0,0:0:0:0:
129,151,216916,2,0,L|204:168,1,64,8|8,0:1|0:0,0:0:0:0:
334,216,217239,1,10,0:0:0:0:
200,284,217400,1,8,0:0:0:0:
341,309,217561,1,10,0:0:0:0:
207,377,217722,1,8,0:0:0:0:
425,313,217884,5,10,0:0:0:0:
196,189,218045,1,8,0:0:0:0:
453,230,218368,5,10,0:0:0:0:
224,106,218529,1,8,0:0:0:0:
481,147,218851,5,10,0:0:0:0:
252,23,219012,1,8,0:0:0:0:
122,55,220464,6,0,P|117:96|111:132,1,64,8|0,0:0|0:0,0:0:0:0:
102,216,220787,2,0,P|89:214|65:205,2,32,8|8|4,0:0|0:3|0:3,0:0:0:0:
221,126,221109,2,0,L|215:170,1,32,8|4,0:3|0:3,0:0:0:0:
263,226,221271,2,0,L|273:273,1,32,4|8,0:3|0:1,0:0:0:0:
206,359,221432,2,0,P|264:344|318:342,1,96,6|0,0:0|0:0,0:0:0:0:
353,353,221755,6,0,P|428:313|408:212,1,191.999994140625,12|8,0:1|0:0,0:0:0:0:
341,158,222239,1,2,0:0:0:0:
450,136,222400,1,8,0:1:0:0:
338,78,222561,1,2,0:0:0:0:
272,212,222722,1,8,0:0:0:0:
218,116,222884,1,2,0:0:0:0:
415,218,223045,5,10,0:1:0:0:
415,218,223206,1,0,0:0:0:0:
336,274,223368,5,8,0:0:0:0:
336,274,223529,1,0,0:0:0:0:
227,212,223690,5,10,0:1:0:0:
227,212,223851,1,0,0:0:0:0:
124,300,224013,5,8,0:0:0:0:
124,300,224174,1,0,0:0:0:0:
55,166,224335,6,0,P|113:85|208:112,1,191.999994140625,10|8,0:1|0:0,0:0:0:0:
144,169,224819,1,0,0:0:0:0:
284,75,224980,1,6,0:0:0:0:
243,209,225142,1,0,0:0:0:0:
243,209,225222,1,0,0:0:0:0:
243,209,225303,1,12,0:0:0:0:
288,354,225464,1,0,0:0:0:0:
465,241,225626,6,0,P|415:161|328:178,1,191.999994140625,12|8,0:1|0:0,0:0:0:0:
381,240,226109,1,0,0:0:0:0:
270,83,226271,2,0,L|175:71,1,95.9999970703126,10|0,0:1|0:0,0:0:0:0:
82,196,226593,2,0,L|198:185,1,95.9999970703126,8|0,0:0|0:0,0:0:0:0:
228,177,226835,1,0,0:0:0:0:
228,177,226916,6,0,L|216:281,1,95.9999970703126,10|0,0:1|0:0,0:0:0:0:
400,293,227239,2,0,P|356:258|279:266,1,95.9999970703126,8|0,0:0|0:0,0:0:0:0:
155,351,227561,2,0,P|204:377|272:360,1,95.9999970703126,10|0,0:1|0:0,0:0:0:0:
400,293,227884,1,8,0:0:0:0:
345,156,228045,1,0,0:0:0:0:
482,342,228206,6,0,L|256:297,1,191.999994140625,6|8,0:0|0:0,0:0:0:0:
199,246,228690,1,2,0:0:0:0:
199,246,228851,1,0,0:0:0:0:
299,139,229013,1,8,0:0:0:0:
299,139,229174,1,0,0:0:0:0:
182,27,229335,6,0,P|122:62|140:187,1,191.999994140625,6|4,0:0|0:3,0:0:0:0:
269,248,229819,1,4,0:3:0:0:
214,154,229980,1,8,0:1:0:0:
86,285,230142,1,8,0:1:0:0:
125,173,230303,1,2,0:0:0:0:
193,334,230464,2,0,L|245:341,1,47.9999985351563,10|2,0:0|0:0,0:0:0:0:
327,282,230626,2,0,L|388:272,1,47.9999985351563,2|2,0:0|0:0,0:0:0:0:
463,347,230787,6,0,P|521:313|495:193,1,191.999994140625,12|8,0:1|0:0,0:0:0:0:
453,264,231271,1,2,0:0:0:0:
396,66,231432,2,0,P|303:50|250:131,1,191.999994140625,10|8,0:1|0:0,0:0:0:0:
336,133,231916,1,2,0:0:0:0:
188,234,232077,6,0,P|173:315|258:364,1,191.999994140625,10|8,0:1|0:0,0:0:0:0:
250,286,232561,1,2,0:0:0:0:
114,178,232722,1,8,0:1:0:0:
216,113,232884,1,2,0:0:0:0:
188,234,233045,1,8,0:0:0:0:
78,87,233206,1,2,0:0:0:0:
19,229,233368,5,10,0:1:0:0:
19,229,233529,1,0,0:0:0:0:
131,176,233690,5,8,0:0:0:0:
131,176,233851,1,0,0:0:0:0:
243,229,234013,5,10,0:1:0:0:
243,229,234174,1,0,0:0:0:0:
354,163,234335,5,8,0:0:0:0:
354,163,234497,1,0,0:0:0:0:
449,295,234658,6,0,L|477:99,1,191.999994140625,10|8,0:1|0:0,0:0:0:0:
393,48,235142,1,8,0:0:0:0:
293,223,235303,1,12,0:0:0:0:
317,217,235384,1,8,0:0:0:0:
341,212,235464,1,8,0:0:0:0:
161,137,235626,1,8,0:0:0:0:
200,145,235706,1,8,0:0:0:0:
237,154,235787,1,8,0:1:0:0:
94,326,235948,6,0,P|136:253|244:278,1,191.999994140625,12|8,0:1|0:1,0:0:0:0:
179,329,236432,1,8,0:1:0:0:
316,381,236593,5,8,0:1:0:0:
316,381,236755,1,8,0:1:0:0:
413,336,236916,5,8,0:1:0:0:
413,336,237077,1,8,0:1:0:0:
477,236,237239,5,8,0:1:0:0:
477,236,237400,1,8,0:0:0:0:
438,107,237561,5,8,0:0:0:0:
438,107,237722,1,8,0:0:0:0:
315,36,237884,5,8,0:0:0:0:
238,176,238045,1,8,0:0:0:0:
230,51,238206,1,8,0:0:0:0:
332,168,238368,1,8,0:0:0:0:
224,289,238529,6,0,L|117:273,1,95.9999970703126,12|8,0:0|0:1,0:0:0:0:
332,168,238851,1,8,0:1:0:0:
444,350,239013,2,0,P|428:300|424:251,1,95.9999970703126,12|8,0:0|0:1,0:0:0:0:
464,98,239335,1,8,0:1:0:0:
276,26,239497,1,12,0:1:0:0:
332,168,240464,5,8,0:0:0:0:
81,120,240626,1,8,0:0:0:0:
96,298,241109,6,0,L|83:237,5,47.9999985351563,12|0|0|0|8|0,0:1|0:0|0:0|0:0|0:1|0:0,0:0:0:0:
179,355,241593,2,0,L|235:346,1,47.9999985351563,12|8,0:0|0:0,0:0:0:0:
294,324,241754,2,0,L|223:309,1,47.9999985351563,8|8,0:0|0:0,0:0:0:0:
190,276,241916,2,0,L|246:264,1,47.9999985351563,8|0,0:0|0:0,0:0:0:0:
349,210,242077,6,0,L|337:270,5,47.9999985351563,12|0|0|0|8|0,0:1|0:0|0:1|0:0|0:0|0:0,0:0:0:0:
422,122,242561,2,0,L|370:129,1,47.9999985351563,12|0,0:0|0:0,0:0:0:0:
297,86,242722,2,0,L|359:99,1,47.9999985351563,8|0,0:1|0:0,0:0:0:0:
413,44,242884,2,0,L|352:55,1,47.9999985351563,8|0,0:0|0:0,0:0:0:0:
245,159,243045,6,0,P|195:166|136:131,1,95.9999970703126,12|2,0:0|0:0,0:0:0:0:
107,90,243287,1,2,0:0:0:0:
107,90,243368,2,0,L|117:204,1,95.9999970703126,8|0,0:0|0:0,0:0:0:0:
135,318,243690,6,0,P|240:270|177:364,1,287.999991210938,12|0,0:1|0:0,0:0:0:0:
24,281,244819,6,0,L|46:91,1,191.999994140625,12|10,0:0|0:1,0:0:0:0:
135,154,245303,1,8,0:0:0:0:
122,125,245384,1,8,0:0:0:0:
133,99,245464,1,8,0:0:0:0:
148,87,245545,1,8,0:0:0:0:
163,85,245626,1,12,0:0:0:0:
189,306,245787,1,12,0:0:0:0:
189,306,246109,6,0,P|261:264|335:305,1,160,12|2,0:1|0:0,0:0:0:0:
234,169,246593,1,8,0:0:0:0:
354,112,246755,1,2,0:0:0:0:
354,112,246835,1,2,0:0:0:0:
354,112,246916,2,0,L|346:159,1,40,8|0,0:1|0:0,0:0:0:0:
422,226,247077,2,0,L|427:273,1,40,2|2,0:0|0:0,0:0:0:0:
330,324,247239,2,0,L|321:375,1,40,10|0,0:0|0:0,0:0:0:0:
268,220,247400,6,0,L|99:248,2,160,6|10|2,0:0|0:1|0:0,0:0:0:0:
368,172,248206,1,8,0:1:0:0:
284,113,248368,1,2,0:0:0:0:
268,220,248529,1,8,0:0:0:0:
407,89,248690,6,0,P|461:143|444:218,1,160,12|10,0:1|0:1,0:0:0:0:
412,255,249093,1,0,0:0:0:0:
412,255,249174,2,0,L|322:248,1,80,8|2,0:0|0:0,0:0:0:0:
175,177,249497,2,0,L|125:170,1,40,10|0,0:1|0:0,0:0:0:0:
57,278,249658,2,0,L|111:269,1,40,2|2,0:0|0:0,0:0:0:0:
192,359,249819,1,10,0:0:0:0:
192,359,249900,1,0,0:0:0:0:
192,359,249980,2,0,L|183:269,1,80,6|0,0:0|0:0,0:0:0:0:
336,124,250303,5,10,0:1:0:0:
332,135,250384,1,2,0:0:0:0:
328,147,250464,1,10,0:0:0:0:
250,89,250626,1,8,0:0:0:0:
418,185,250787,1,2,0:0:0:0:
397,48,250948,1,8,0:0:0:0:
250,89,251109,1,2,0:0:0:0:
397,48,251271,6,0,L|375:208,1,160,12|8,0:1|0:1,0:0:0:0:
398,304,251755,2,0,P|350:308|310:276,1,80,8|0,0:0|0:0,0:0:0:0:
281,142,252077,1,10,0:1:0:0:
375,206,252239,1,10,0:1:0:0:
254,256,252400,1,8,0:0:0:0:
422,122,252561,6,0,P|468:167|440:281,1,160,6|10,0:0|0:1,0:0:0:0:
340,365,253045,1,8,0:0:0:0:
340,365,253126,1,8,0:0:0:0:
340,365,253206,2,0,L|329:251,1,80,8|10,0:0|0:1,0:0:0:0:
223,141,253529,2,8,L|232:91,2,40,8|0|0,0:0|0:0|0:0,0:0:0:0:
69,291,253851,6,0,B|68:263|112:239|112:239|211:270,1,160,12|10,0:1|0:1,0:0:0:0:
297,346,254335,2,0,L|317:257,1,80,8|0,0:0|0:0,0:0:0:0:
276,186,254658,1,8,0:1:0:0:
355,99,254819,1,2,0:1:0:0:
277,7,254980,1,8,0:0:0:0:
359,103,255142,6,0,L|167:85,1,160,6|10,0:0|0:1,0:0:0:0:
145,238,255626,2,0,L|128:331,1,80,10|10,0:1|0:1,0:0:0:0:
376,220,255948,1,6,0:0:0:0:
287,326,256109,1,2,0:0:0:0:
235,123,256271,1,12,0:0:0:0:
256,192,256916,12,0,264174,0:0:0:0:
