osu file format v14

[General]
AudioFilename: audio.mp3
AudioLeadIn: 0
PreviewTime: 67380
Countdown: 0
SampleSet: Normal
StackLeniency: 0.7
Mode: 1
LetterboxInBreaks: 0
WidescreenStoryboard: 0

[Editor]
Bookmarks: 11493,14074,16493,26977,47622,63106,65687,93912,104719,106654,107461,107945,108106,108267,108751,108912,109074,109235,110041,110525,110687,110767,110848,110955,111009,111090,111332,111412,111493,111735,111977
DistanceSpacing: 1.5
BeatDivisor: 2
GridSize: 32
TimelineZoom: 1.4

[Metadata]
Title:Unhappy End World
TitleUnicode:アンハッピーエンドワールド
Artist:Naoki Miki (CV: Takahashi Rie) & Ebisuzawa Kurumi (CV: Ozawa Ari)
ArtistUnicode:直樹美紀(CV: 高橋李依)&恵飛須沢胡桃(CV: 小澤亜李)
Creator:Tyistiana
Version:Futsuu
Source:がっこうぐらし!
Tags:school live gakkou gurashi! character song sotsugyou album graduate 卒業あるばむ blackener
BeatmapID:1715843
BeatmapSetID:818296

[Difficulty]
HPDrainRate:6
CircleSize:5
OverallDifficulty:4
ApproachRate:5
SliderMultiplier:1.4
SliderTickRate:1

[Events]
//Background and Video events
0,0,"bg.jpg",0,0
//Break Periods
//Storyboard Layer 0 (Background)
//Storyboard Layer 1 (Fail)
//Storyboard Layer 2 (Pass)
//Storyboard Layer 3 (Foreground)
//Storyboard Sound Samples

[TimingPoints]
1171,322.58064516129,4,1,0,60,1,0
12783,-100,4,1,0,40,0,0
13429,-100,4,1,0,60,0,0
14074,-100,4,1,0,80,0,0
16493,-100,4,1,0,100,0,0
27138,-100,4,1,0,60,0,0
47622,-100,4,1,0,80,0,0
68267,-100,4,1,0,100,0,1
77138,-100,4,1,0,100,0,0
78590,-100,4,1,0,100,0,1
88912,-100,4,1,0,100,0,0
91654,-100,4,1,0,80,0,0
92622,-100,4,1,0,100,0,0
105364,-100,4,1,0,80,0,0
106009,-100,4,1,0,60,0,0
106654,-100,4,1,0,40,0,0

[HitObjects]
256,192,1171,5,0,0:0:0:0:
256,192,1816,1,0,0:0:0:0:
256,192,2461,1,0,0:0:0:0:
256,192,3429,1,0,0:0:0:0:
256,192,3751,1,8,0:0:0:0:
256,192,4396,1,8,0:0:0:0:
256,192,5041,1,0,0:0:0:0:
256,192,5687,1,0,0:0:0:0:
256,192,6009,1,8,0:0:0:0:
256,192,6332,1,0,0:0:0:0:
256,192,6977,1,8,0:0:0:0:
256,192,8267,1,0,0:0:0:0:
256,192,8590,1,0,0:0:0:0:
256,192,8912,1,8,0:0:0:0:
256,192,9558,1,0,0:0:0:0:
256,192,10203,1,0,0:0:0:0:
256,192,10848,1,8,0:0:0:0:
256,192,11170,1,8,0:0:0:0:
256,192,11493,1,0,0:0:0:0:
256,192,12783,1,8,0:0:0:0:
256,192,13429,1,8,0:0:0:0:
256,192,13751,1,0,0:0:0:0:
256,192,14074,5,4,0:0:0:0:
256,192,14558,1,4,0:0:0:0:
256,192,15041,1,12,0:0:0:0:
256,192,15687,1,8,0:0:0:0:
256,192,16009,1,0,0:0:0:0:
256,192,16170,1,8,0:0:0:0:
256,192,16493,5,12,0:0:0:0:
256,192,16977,1,8,0:0:0:0:
256,192,17783,1,0,0:0:0:0:
256,192,18106,1,8,0:0:0:0:
256,192,18429,1,0,0:0:0:0:
256,192,18751,1,8,0:0:0:0:
256,192,18912,1,0,0:0:0:0:
256,192,19074,1,0,0:0:0:0:
256,192,19558,1,0,0:0:0:0:
256,192,19880,1,8,0:0:0:0:
256,192,20364,1,0,0:0:0:0:
256,192,21009,1,0,0:0:0:0:
256,192,21332,1,8,0:0:0:0:
256,192,21654,1,4,0:0:0:0:
256,192,22461,1,0,0:0:0:0:
256,192,22783,1,0,0:0:0:0:
256,192,22945,1,8,0:0:0:0:
256,192,23267,1,8,0:0:0:0:
256,192,23429,1,8,0:0:0:0:
256,192,23590,1,0,0:0:0:0:
256,192,23912,1,8,0:0:0:0:
256,192,24235,1,4,0:0:0:0:
256,192,24719,1,0,0:0:0:0:
256,192,25525,1,8,0:0:0:0:
256,192,26009,1,8,0:0:0:0:
256,192,26332,1,0,0:0:0:0:
256,192,26654,1,8,0:0:0:0:
256,192,26977,1,4,0:0:0:0:
256,192,28267,5,0,0:0:0:0:
256,192,29558,1,0,0:0:0:0:
256,192,30203,1,8,0:0:0:0:
256,192,30848,1,0,0:0:0:0:
256,192,31170,1,8,0:0:0:0:
256,192,31493,1,0,0:0:0:0:
256,192,31816,1,8,0:0:0:0:
256,192,32138,1,0,0:0:0:0:
256,192,33429,1,0,0:0:0:0:
256,192,34074,1,0,0:0:0:0:
256,192,34396,1,0,0:0:0:0:
256,192,34719,1,8,0:0:0:0:
256,192,35364,1,8,0:0:0:0:
256,192,35687,1,0,0:0:0:0:
256,192,36009,1,8,0:0:0:0:
256,192,36654,1,0,0:0:0:0:
256,192,36977,1,8,0:0:0:0:
256,192,37300,1,4,0:0:0:0:
256,192,38590,1,0,0:0:0:0:
256,192,39235,1,8,0:0:0:0:
256,192,39880,1,8,0:0:0:0:
256,192,40525,1,0,0:0:0:0:
256,192,41170,1,8,0:0:0:0:
256,192,41493,1,8,0:0:0:0:
256,192,41816,1,0,0:0:0:0:
256,192,42138,1,8,0:0:0:0:
256,192,42461,1,0,0:0:0:0:
256,192,43751,1,8,0:0:0:0:
256,192,44396,1,0,0:0:0:0:
256,192,45041,1,0,0:0:0:0:
256,192,46170,1,12,0:0:0:0:
256,192,46977,1,12,0:0:0:0:
256,192,47300,1,4,0:0:0:0:
256,192,47622,1,12,0:0:0:0:
256,192,48267,5,8,0:0:0:0:
256,192,48912,1,0,0:0:0:0:
256,192,49235,1,0,0:0:0:0:
256,192,49558,1,8,0:0:0:0:
256,192,49880,1,8,0:0:0:0:
256,192,50041,1,8,0:0:0:0:
256,192,50203,1,0,0:0:0:0:
256,192,50525,1,8,0:0:0:0:
256,192,50848,1,8,0:0:0:0:
256,192,51493,1,0,0:0:0:0:
256,192,51816,1,8,0:0:0:0:
256,192,52138,1,0,0:0:0:0:
256,192,52461,1,8,0:0:0:0:
256,192,52783,1,4,0:0:0:0:
256,192,53429,1,0,0:0:0:0:
256,192,54074,1,8,0:0:0:0:
256,192,54396,1,0,0:0:0:0:
256,192,54719,1,8,0:0:0:0:
256,192,55041,1,8,0:0:0:0:
256,192,55364,1,0,0:0:0:0:
256,192,56009,1,0,0:0:0:0:
256,192,56332,1,0,0:0:0:0:
256,192,56493,1,8,0:0:0:0:
256,192,57300,1,8,0:0:0:0:
256,192,57622,1,0,0:0:0:0:
256,192,57945,1,12,0:0:0:0:
256,192,58590,1,0,0:0:0:0:
256,192,59235,1,0,0:0:0:0:
256,192,59558,1,8,0:0:0:0:
256,192,59880,1,8,0:0:0:0:
256,192,60203,1,0,0:0:0:0:
256,192,60364,1,0,0:0:0:0:
256,192,60525,1,8,0:0:0:0:
256,192,60848,1,8,0:0:0:0:
256,192,61170,1,8,0:0:0:0:
256,192,61816,1,4,0:0:0:0:
256,192,62461,1,12,0:0:0:0:
256,192,62783,1,12,0:0:0:0:
256,192,63106,5,4,0:0:0:0:
256,192,63751,1,12,0:0:0:0:
256,192,64396,1,0,0:0:0:0:
256,192,64719,1,0,0:0:0:0:
256,192,65041,1,12,0:0:0:0:
256,192,65687,1,0,0:0:0:0:
256,192,66009,1,0,0:0:0:0:
256,192,66170,1,0,0:0:0:0:
256,192,66332,1,0,0:0:0:0:
256,192,66654,1,0,0:0:0:0:
256,192,66977,1,8,0:0:0:0:
256,192,67138,1,8,0:0:0:0:
256,192,68267,5,12,0:0:0:0:
256,192,68751,1,8,0:0:0:0:
256,192,68912,1,0,0:0:0:0:
256,192,69396,1,0,0:0:0:0:
256,192,69558,1,8,0:0:0:0:
256,192,70203,1,0,0:0:0:0:
256,192,70525,1,8,0:0:0:0:
256,192,70687,1,8,0:0:0:0:
256,192,70848,1,0,0:0:0:0:
256,192,71170,1,8,0:0:0:0:
256,192,71493,1,0,0:0:0:0:
256,192,71816,1,8,0:0:0:0:
256,192,72138,1,0,0:0:0:0:
256,192,72783,1,8,0:0:0:0:
256,192,72945,1,0,0:0:0:0:
256,192,73106,1,8,0:0:0:0:
256,192,73429,1,0,0:0:0:0:
256,192,74074,1,8,0:0:0:0:
256,192,74396,1,0,0:0:0:0:
256,192,74719,1,8,0:0:0:0:
256,192,75041,1,0,0:0:0:0:
256,192,75203,1,0,0:0:0:0:
256,192,75364,1,8,0:0:0:0:
256,192,75687,1,0,0:0:0:0:
256,192,76009,1,12,0:0:0:0:
256,192,76493,1,4,0:0:0:0:
256,192,76816,1,12,0:0:0:0:
256,192,77138,1,12,0:0:0:0:
256,192,77783,1,8,0:0:0:0:
256,192,77945,1,0,0:0:0:0:
256,192,78267,1,0,0:0:0:0:
256,192,78590,5,12,0:0:0:0:
256,192,79074,1,8,0:0:0:0:
256,192,79235,1,0,0:0:0:0:
256,192,79719,1,0,0:0:0:0:
256,192,79880,1,8,0:0:0:0:
256,192,80525,1,8,0:0:0:0:
256,192,80848,1,0,0:0:0:0:
256,192,81009,1,0,0:0:0:0:
256,192,81170,1,8,0:0:0:0:
256,192,81493,1,0,0:0:0:0:
256,192,81816,1,8,0:0:0:0:
256,192,82138,1,0,0:0:0:0:
256,192,82461,1,8,0:0:0:0:
256,192,83106,1,8,0:0:0:0:
256,192,83429,1,0,0:0:0:0:
256,192,83751,1,12,0:0:0:0:
256,192,84396,1,0,0:0:0:0:
256,192,84719,1,0,0:0:0:0:
256,192,85041,1,0,0:0:0:0:
256,192,85687,1,8,0:0:0:0:
256,192,86009,1,0,0:0:0:0:
256,192,86332,1,12,0:0:0:0:
256,192,86816,1,4,0:0:0:0:
256,192,87300,1,12,0:0:0:0:
256,192,88267,1,0,0:0:0:0:
256,192,88429,1,0,0:0:0:0:
256,192,88912,5,4,0:0:0:0:
256,192,89396,1,12,0:0:0:0:
256,192,89880,1,0,0:0:0:0:
256,192,90364,1,12,0:0:0:0:
256,192,90848,1,0,0:0:0:0:
256,192,91170,1,12,0:0:0:0:
256,192,91493,1,4,0:0:0:0:
256,192,92622,1,12,0:0:0:0:
256,192,93106,1,8,0:0:0:0:
256,192,93429,1,0,0:0:0:0:
256,192,93590,1,0,0:0:0:0:
256,192,93912,5,12,0:0:0:0:
256,192,94396,1,8,0:0:0:0:
256,192,95203,1,0,0:0:0:0:
256,192,95525,1,8,0:0:0:0:
256,192,95848,1,0,0:0:0:0:
256,192,96170,1,8,0:0:0:0:
256,192,96332,1,0,0:0:0:0:
256,192,96493,1,0,0:0:0:0:
256,192,96977,1,0,0:0:0:0:
256,192,97300,1,8,0:0:0:0:
256,192,97783,1,0,0:0:0:0:
256,192,98429,1,0,0:0:0:0:
256,192,98751,1,8,0:0:0:0:
256,192,99074,1,4,0:0:0:0:
256,192,99880,1,0,0:0:0:0:
256,192,100203,1,0,0:0:0:0:
256,192,100364,1,8,0:0:0:0:
256,192,100687,1,8,0:0:0:0:
256,192,100848,1,8,0:0:0:0:
256,192,101009,1,0,0:0:0:0:
256,192,101332,1,8,0:0:0:0:
256,192,101654,1,4,0:0:0:0:
256,192,102138,1,0,0:0:0:0:
256,192,102945,1,8,0:0:0:0:
256,192,103429,1,8,0:0:0:0:
256,192,103751,1,0,0:0:0:0:
256,192,104074,1,8,0:0:0:0:
256,192,104719,12,0,111977,0:0:0:0:
