osu file format v14

[General]
AudioFilename: audio.mp3
AudioLeadIn: 0
PreviewTime: -1
Countdown: 0
SampleSet: None
StackLeniency: 0.7
Mode: 0
LetterboxInBreaks: 0
WidescreenStoryboard: 0

[Editor]
Bookmarks: 11639,11760,11881,20730,23639,26548,28002,29457,41093,42548,52730,64366,76002,77457,78911,80366,81820,83275,84730,86911,87457,89093,103639
DistanceSpacing: 0.8
BeatDivisor: 4
GridSize: 4
TimelineZoom: 3.699999

[Metadata]
Title:Red Zone
TitleUnicode:Red Zone
Artist:Naoki & Tatsh
ArtistUnicode:Naoki & Tatsh
Creator:Mechanizen
Version:Overdrive
Source:
Tags:
BeatmapID:1394827
BeatmapSetID:658569

[Difficulty]
HPDrainRate:5
CircleSize:4
OverallDifficulty:9
ApproachRate:9.5
SliderMultiplier:2
SliderTickRate:1

[Events]
//Background and Video events
0,0,"maxresdefault.jpg",0,0
//Break Periods
//Storyboard Layer 0 (Background)
//Storyboard Layer 1 (Fail)
//Storyboard Layer 2 (Pass)
//Storyboard Layer 3 (Foreground)
//Storyboard Sound Samples

[TimingPoints]
4730,363.636363636364,4,2,0,100,1,0
4730,-66.6666666666667,4,2,0,100,0,1
10548,-57.1428571428571,4,2,0,100,0,1
11275,-90.9090909090909,4,2,0,100,0,0
11639,-74.0740740740741,4,2,0,100,0,0
12002,-66.6666666666667,4,2,0,100,0,1
16366,-57.1428571428571,4,2,0,100,0,1
16911,-66.6666666666667,4,2,0,100,0,1
17820,-100,4,2,0,100,0,1
20730,-66.6666666666667,4,2,0,100,0,1
23639,-100,4,2,0,100,0,0
26548,-66.6666666666667,4,2,0,100,0,1
28002,-100,4,2,0,100,0,1
29457,-45.4545454545455,4,2,0,100,0,1
30184,-50,4,2,0,100,0,1

[HitObjects]
72,44,4730,6,0,P|24:16|8:0,1,75.0000028610231
176,64,4911,2,0,P|224:36|248:28,1,75.0000028610231
112,140,5093,2,0,P|104:208|64:280,1,150.000005722046
188,352,5366,2,0,P|196:284|236:212,1,150.000005722046
312,136,5639,2,0,P|374:108|457:107,1,150.000005722046
420,328,5911,1,0,0:0:0:0:
420,328,6002,2,0,P|436:280|440:240,1,75.0000028610231
456,48,6184,5,0,0:0:0:0:
368,40,6275,1,0,0:0:0:0:
280,32,6366,1,0,0:0:0:0:
192,24,6457,2,0,P|152:32|92:80,1,75.0000028610231
44,148,6639,2,0,P|36:188|54:266,1,75.0000028610231
216,64,6820,5,0,0:0:0:0:
216,64,6911,2,0,P|179:82|133:143,1,75.0000028610231
105,222,7093,2,0,P|107:262|145:333,1,75.0000028610231
272,352,7275,2,0,P|269:311|231:240,1,75.0000028610231
192,188,7457,2,0,P|155:169|74:167,1,75.0000028610231
92,336,7639,1,0,0:0:0:0:
148,356,7730,1,0,0:0:0:0:
208,352,7820,1,0,0:0:0:0:
256,320,7911,1,0,0:0:0:0:
304,288,8002,1,0,0:0:0:0:
364,284,8092,1,0,0:0:0:0:
420,304,8183,1,0,0:0:0:0:
456,352,8275,1,0,0:0:0:0:
456,352,8366,2,0,P|472:296|472:268,1,75.0000028610231
480,144,8548,2,0,P|465:87|451:63,1,75.0000028610231
276,20,8730,5,0,0:0:0:0:
276,20,8820,2,0,P|268:112|276:144,1,75.0000028610231
256,264,9002,1,0,0:0:0:0:
256,264,9092,6,0,P|264:172|256:140,2,75.0000028610231
152,332,9366,1,0,0:0:0:0:
152,332,9457,2,0,P|112:332|56:316,1,75.0000028610231
108,80,9639,1,0,0:0:0:0:
108,80,9730,2,0,P|148:80|204:96,1,75.0000028610231
0,232,9911,1,0,0:0:0:0:
0,232,10002,2,0,P|1:194|10:158,1,75.0000028610231
266,190,10184,2,0,P|264:227|256:264,1,75.0000028610231
152,332,10366,2,0,P|112:332|56:316,1,75.0000028610231
0,232,10548,6,0,P|1:194|16:144,1,87.500000834465
124,64,10730,2,0,P|164:64|232:88,1,87.500000834465
280,196,10911,2,0,P|316:203|374:198,1,87.500000834465
416,32,11093,2,0,P|408:68|412:128,1,87.500000834465
420,288,11275,6,0,B|464:328|464:328|520:344,1,110.000003356934
328,296,11639,2,0,B|304:336|304:336|304:380,2,90.0000003433228
456,192,12002,6,0,P|472:116|460:72,1,75.0000028610231
316,40,12184,2,0,P|300:116|312:160,1,75.0000028610231
476,184,12366,6,0,P|478:98|457:53,1,75.0000028610231
296,46,12548,2,0,P|293:131|314:176,1,75.0000028610231
500,172,12730,6,0,P|486:78|458:41,1,75.0000028610231
276,54,12912,2,0,P|289:147|310:182,1,75.0000028610231
184,176,13093,2,0,P|242:249|278:269,1,75.0000028610231
168,332,13275,2,0,P|255:367|296:366,1,75.0000028610231
384,368,13457,5,0,0:0:0:0:
428,328,13548,1,0,0:0:0:0:
452,276,13639,1,0,0:0:0:0:
444,216,13730,1,0,0:0:0:0:
408,172,13820,1,0,0:0:0:0:
400,112,13911,1,0,0:0:0:0:
424,60,14002,1,0,0:0:0:0:
468,21,14093,1,0,0:0:0:0:
444,77,14184,1,0,0:0:0:0:
400,112,14275,1,0,0:0:0:0:
342,126,14366,1,0,0:0:0:0:
284,116,14457,1,0,0:0:0:0:
240,80,14548,2,0,P|208:60|156:48,1,75.0000028610231
32,100,14730,2,0,P|12:132|0:184,1,75.0000028610231
64,320,14911,5,0,0:0:0:0:
64,320,15002,2,0,P|96:340|148:352,1,75.0000028610231
244,260,15184,1,0,0:0:0:0:
244,260,15275,2,0,P|245:222|229:171,1,75.0000028610231
96,144,15457,1,0,0:0:0:0:
96,144,15548,2,0,P|62:161|26:200,1,75.0000028610231
136,244,15730,6,0,P|160:280|188:312,1,75.0000028610231
308,352,15911,2,0,P|351:349|392:340,2,75.0000028610231
292,216,16184,1,0,0:0:0:0:
292,216,16275,2,0,P|328:209|366:207,1,75.0000028610231
416,240,16457,6,0,P|392:148|404:56,1,175.00000166893
432,52,16730,2,0,P|357:54|252:24,1,175.00000166893
176,0,17002,2,0,P|156:56|152:80,1,75.0000028610231
61,154,17184,2,0,P|63:116|72:80,1,75.0000028610231
140,168,17366,2,0,P|140:227|144:251,1,75.0000028610231
68,344,17548,2,0,P|63:306|65:269,1,75.0000028610231
224,264,17730,2,0,P|228:301|226:338,1,75.0000028610231
392,228,18002,6,0,P|424:172|460:144,1,100
316,140,18366,1,0,0:0:0:0:
248,40,18548,2,0,P|216:96|180:124,1,100
192,220,18911,1,0,0:0:0:0:
192,220,19002,1,0,0:0:0:0:
192,220,19093,2,0,P|128:231|83:221,1,100
88,124,19457,5,0,0:0:0:0:
88,124,19548,1,0,0:0:0:0:
88,124,19639,2,0,P|51:90|29:45,1,100
148,32,19911,1,0,0:0:0:0:
148,32,20002,2,0,P|208:48|268:48,1,100
348,36,20275,1,0,0:0:0:0:
348,36,20366,2,0,P|384:24|408:20,2,50
416,192,20730,5,0,0:0:0:0:
416,192,20820,2,0,P|408:240|420:332,1,75.0000028610231
332,320,21002,1,0,0:0:0:0:
324,304,21092,2,0,P|316:256|328:164,1,75.0000028610231
240,160,21275,1,0,0:0:0:0:
228,184,21365,2,0,P|220:232|232:324,1,75.0000028610231
148,336,21548,1,0,0:0:0:0:
132,304,21638,2,0,P|124:256|136:164,1,75.0000028610231
128,112,21820,2,0,P|126:74|119:37,1,75.0000028610231
272,24,22002,2,0,P|273:61|280:98,1,75.0000028610231
332,208,22184,6,0,P|351:239|375:268,1,75.0000028610231
468,332,22366,1,0,0:0:0:0:
488,284,22457,1,0,0:0:0:0:
488,232,22548,1,0,0:0:0:0:
468,184,22639,1,0,0:0:0:0:
429,148,22730,1,0,0:0:0:0:
380,129,22820,1,0,0:0:0:0:
327,128,22911,2,0,P|272:136|236:152,1,75.0000028610231
244,248,23093,2,0,P|208:259|171:262,1,75.0000028610231
118,261,23274,1,0,0:0:0:0:
69,242,23364,1,0,0:0:0:0:
30,206,23455,1,0,0:0:0:0:
10,158,23548,2,0,P|8:104|20:64,1,75.0000028610231
178,48,23820,6,0,P|174:24|168:0,2,50
312,36,24184,2,0,P|300:112|304:152,1,100
380,200,24548,1,0,0:0:0:0:
464,268,24730,2,0,P|476:192|472:152,1,100
472,136,25002,6,0,P|500:124|516:112,2,50
368,156,25275,1,0,0:0:0:0:
268,132,25457,2,0,P|240:120|224:108,1,50
196,88,25639,2,0,P|184:164|192:224,1,100
16,272,26002,2,0,P|44:260|60:248,1,50
88,228,26184,2,0,P|100:304|92:364,1,100
224,328,26548,5,0,0:0:0:0:
280,312,26639,1,0,0:0:0:0:
328,280,26730,1,0,0:0:0:0:
372,272,26820,1,0,0:0:0:0:
385,215,26911,1,0,0:0:0:0:
382,157,27002,1,0,0:0:0:0:
400,116,27093,1,0,0:0:0:0:
357,76,27184,1,0,0:0:0:0:
305,50,27275,1,0,0:0:0:0:
284,12,27366,2,0,P|217:10|121:42,1,150.000005722046
32,120,27639,2,0,P|24:192|32:220,1,75.0000028610231
56,320,27820,1,0,0:0:0:0:
56,320,28730,5,0,0:0:0:0:
76,320,28820,1,0,0:0:0:0:
100,320,28911,1,0,0:0:0:0:
128,320,29002,1,0,0:0:0:0:
161,320,29093,1,0,0:0:0:0:
200,320,29184,1,0,0:0:0:0:
246,320,29275,1,0,0:0:0:0:
301,320,29366,1,0,0:0:0:0:
366,320,29457,2,0,B|412:288|436:244|436:244|448:192|416:100,1,220.000006713867
216,68,29820,2,0,B|170:100|146:144|146:144|134:196|166:288,1,220.000006713867
296,312,30184,6,0,P|348:336|416:340,1,100
512,344,30366,1,0,0:0:0:0:
512,344,30457,2,0,P|432:268|320:260,1,200
208,312,30730,6,0,P|268:320|316:312,1,100
160,228,30911,2,0,P|123:275|106:321,1,100
248,228,31093,2,0,P|224:172|194:134,1,100
136,32,31275,6,0,B|218:83|250:-4|326:51,1,200
392,192,31639,1,0,0:0:0:0:
392,192,31730,2,0,P|372:292|360:304,1,100
288,372,31911,2,0,P|186:378|171:370,1,100
88,320,32093,5,0,0:0:0:0:
80,276,32184,1,0,0:0:0:0:
56,244,32275,5,0,0:0:0:0:
48,200,32366,2,0,P|52:96|56:80,1,100
164,32,32548,2,0,P|169:81|167:131,1,100
276,240,32730,2,0,P|280:136|284:120,1,100
380,12,32911,2,0,P|385:61|383:111,1,100
428,212,33093,5,0,0:0:0:0:
428,212,33184,2,0,P|428:288|408:328,1,100
348,212,33366,2,0,P|324:316|224:344,1,200
184,188,33639,2,0,L|264:260,1,100
84,224,33820,5,0,0:0:0:0:
56,156,33911,1,0,0:0:0:0:
80,84,34002,1,0,0:0:0:0:
156,116,34093,5,0,2:0:0:0:
183,47,34184,1,0,2:0:0:0:
