osu file format v14

[General]
AudioFilename: audio.mp3
AudioLeadIn: 0
PreviewTime: 0
Countdown: 1
SampleSet: Soft
StackLeniency: 0.7
Mode: 1
LetterboxInBreaks: 0
WidescreenStoryboard: 0

[Editor]
DistanceSpacing: 0.8
BeatDivisor: 8
GridSize: 32
TimelineZoom: 1.3

[Metadata]
Title:Tate no Yuusha no Nariagari Fight Scene #1
TitleUnicode:Tate no Yuusha no Nariagari Fight Scene #1
Artist:Naofumi Iwatani
ArtistUnicode:岩谷 尚文
Creator:DukeDukeDura
Version:Raphtalia
Source:盾の勇者の成り上がり
Tags:The Rising of the Shield Hero
BeatmapID:1940225
BeatmapSetID:928962

[Difficulty]
HPDrainRate:5
CircleSize:5
OverallDifficulty:5
ApproachRate:5
SliderMultiplier:1.1
SliderTickRate:1

[Events]
//Background and Video events
0,0,"bg.jpg",0,0
//Break Periods
//Storyboard Layer 0 (Background)
//Storyboard Layer 1 (Fail)
//Storyboard Layer 2 (Pass)
//Storyboard Layer 3 (Foreground)
//Storyboard Sound Samples

[TimingPoints]
0,478.08764940239,8,2,0,100,1,0
0,-50,8,2,0,100,0,0
2074,478.08764940239,4,2,0,100,1,0
5898,468.75,4,2,0,100,1,0
8761,-102.040816326531,4,2,0,100,0,0
8761,-102.040816326531,4,2,0,100,0,0
9648,480,4,2,0,100,1,0
9648,-99.009900990099,4,2,0,100,0,0
13488,472.44094488189,4,2,0,100,1,0
13488,-101.010101010101,4,2,0,100,0,0
13488,-101.010101010101,4,2,0,100,0,0
17267,476.190476190476,4,2,0,100,1,0
21076,478.08764940239,4,2,0,100,1,0
24900,476.190476190476,4,2,0,100,1,0
28709,478.08764940239,4,2,0,100,1,0
32533,474.308300395257,4,2,0,100,1,0
35556,-94.3396226415094,4,2,0,100,0,0
35675,-89.2857142857143,4,2,0,100,0,0
35793,-84.7457627118644,4,2,0,100,0,0
35912,-80.6451612903226,4,2,0,100,0,0
36031,-76.9230769230769,4,2,0,100,0,0
36149,-73.5294117647059,4,2,0,100,0,0
36327,480,8,2,0,100,1,0
36327,-66.6666666666667,4,2,0,100,0,0
39195,-100,4,2,0,100,0,0
40167,465.116279069767,8,2,0,100,1,0
40167,-64.5161290322581,4,2,0,100,0,0
42957,-100,4,2,0,100,0,0
43887,480,8,2,0,100,1,0
43887,-66.6666666666667,4,2,0,100,0,0
46767,-100,4,2,0,100,0,0
47727,-66.6666666666667,4,2,0,100,0,0
48687,-100,4,2,0,100,0,0
49647,-66.6666666666667,4,2,0,100,0,0
50607,483.870967741935,8,2,0,100,1,0
52784,483.870967741935,8,2,0,100,1,0

[HitObjects]
256,192,0,12,0,956,0:0:0:0:
256,192,2074,5,8,0:0:0:0:
256,192,2552,1,0,0:0:0:0:
256,192,3030,1,8,0:0:0:0:
256,192,3269,1,0,0:0:0:0:
256,192,3508,1,8,0:0:0:0:
256,192,3747,1,8,0:0:0:0:
256,192,3926,1,8,0:0:0:0:
256,192,3986,1,0,0:0:0:0:
256,192,4225,1,0,0:0:0:0:
256,192,4464,1,8,0:0:0:0:
256,192,4703,1,0,0:0:0:0:
256,192,4763,1,8,0:0:0:0:
256,192,4942,1,8,0:0:0:0:
256,192,5181,1,0,0:0:0:0:
256,192,5420,1,8,0:0:0:0:
256,192,5540,1,0,0:0:0:0:
256,192,5659,1,8,0:0:0:0:
256,192,5898,1,0,0:0:0:0:
256,192,5956,1,0,0:0:0:0:
256,192,6015,1,0,0:0:0:0:
256,192,6132,1,8,0:0:0:0:
256,192,6249,1,0,0:0:0:0:
256,192,6366,1,8,0:0:0:0:
256,192,6483,1,8,0:0:0:0:
256,192,6601,1,0,0:0:0:0:
256,192,6718,1,8,0:0:0:0:
256,192,6835,1,0,0:0:0:0:
256,192,6952,1,0,0:0:0:0:
256,192,7069,1,8,0:0:0:0:
256,192,7187,1,0,0:0:0:0:
256,192,7304,1,8,0:0:0:0:
256,192,7421,1,8,0:0:0:0:
256,192,7538,1,0,0:0:0:0:
256,192,7655,1,8,0:0:0:0:
256,192,7773,1,0,0:0:0:0:
256,192,7831,1,0,0:0:0:0:
256,192,7890,1,8,0:0:0:0:
256,192,8007,1,8,0:0:0:0:
256,192,8124,1,8,0:0:0:0:
256,192,8241,1,0,0:0:0:0:
256,192,8358,1,8,0:0:0:0:
256,192,8476,1,0,0:0:0:0:
256,192,8593,1,0,0:0:0:0:
256,192,8710,1,8,0:0:0:0:
256,192,8827,1,0,0:0:0:0:
256,192,8944,1,0,0:0:0:0:
256,192,9062,1,0,0:0:0:0:
256,192,9179,1,8,0:0:0:0:
256,192,9296,1,0,0:0:0:0:
256,192,9413,1,8,0:0:0:0:
256,192,9530,1,8,0:0:0:0:
256,192,9648,1,0,0:0:0:0:
256,192,9708,1,8,0:0:0:0:
256,192,9768,1,0,0:0:0:0:
256,192,9888,1,0,0:0:0:0:
256,192,10008,1,8,0:0:0:0:
256,192,10128,1,8,0:0:0:0:
256,192,10248,1,8,0:0:0:0:
256,192,10368,1,8,0:0:0:0:
256,192,10488,1,0,0:0:0:0:
256,192,10608,1,8,0:0:0:0:
256,192,10728,1,0,0:0:0:0:
256,192,10848,1,0,0:0:0:0:
256,192,10968,1,0,0:0:0:0:
256,192,11088,1,8,0:0:0:0:
256,192,11208,1,8,0:0:0:0:
256,192,11328,1,8,0:0:0:0:
256,192,11448,1,0,0:0:0:0:
256,192,11568,1,8,0:0:0:0:
256,192,11628,1,8,0:0:0:0:
256,192,11688,1,8,0:0:0:0:
256,192,11808,1,0,0:0:0:0:
256,192,11928,1,0,0:0:0:0:
256,192,12048,1,8,0:0:0:0:
256,192,12168,1,0,0:0:0:0:
256,192,12288,1,0,0:0:0:0:
256,192,12408,1,0,0:0:0:0:
256,192,12528,1,8,0:0:0:0:
256,192,12648,1,0,0:0:0:0:
256,192,12768,1,8,0:0:0:0:
256,192,12888,1,8,0:0:0:0:
256,192,13008,1,0,0:0:0:0:
256,192,13128,1,8,0:0:0:0:
256,192,13248,1,0,0:0:0:0:
256,192,13368,1,0,0:0:0:0:
256,192,13488,1,8,0:0:0:0:
256,192,13547,1,8,0:0:0:0:
256,192,13606,1,0,0:0:0:0:
256,192,13724,1,0,0:0:0:0:
256,192,13842,1,0,0:0:0:0:
256,192,13960,1,8,0:0:0:0:
256,192,14019,1,0,0:0:0:0:
256,192,14137,1,0,0:0:0:0:
256,192,14196,1,8,0:0:0:0:
256,192,14314,1,8,0:0:0:0:
256,192,14373,1,8,0:0:0:0:
256,192,14432,1,0,0:0:0:0:
256,192,14550,1,8,0:0:0:0:
256,192,14610,1,0,0:0:0:0:
256,192,14728,1,8,0:0:0:0:
256,192,14846,1,0,0:0:0:0:
256,192,14905,1,8,0:0:0:0:
256,192,14964,1,8,0:0:0:0:
256,192,15023,1,8,0:0:0:0:
256,192,15082,1,8,0:0:0:0:
256,192,15200,1,8,0:0:0:0:
256,192,15259,1,0,0:0:0:0:
256,192,15377,1,8,0:0:0:0:
256,192,15436,1,0,0:0:0:0:
256,192,15554,1,0,0:0:0:0:
256,192,15613,1,8,0:0:0:0:
256,192,15732,1,8,0:0:0:0:
256,192,15850,1,0,0:0:0:0:
256,192,15968,1,8,0:0:0:0:
256,192,16086,1,8,0:0:0:0:
256,192,16145,1,8,0:0:0:0:
256,192,16204,1,8,0:0:0:0:
256,192,16263,1,0,0:0:0:0:
256,192,16322,1,8,0:0:0:0:
256,192,16440,1,8,0:0:0:0:
256,192,16558,1,0,0:0:0:0:
256,192,16676,1,8,0:0:0:0:
256,192,16795,1,8,0:0:0:0:
256,192,16854,1,8,0:0:0:0:
256,192,16913,1,8,0:0:0:0:
256,192,16972,1,0,0:0:0:0:
256,192,17090,1,0,0:0:0:0:
256,192,17149,1,8,0:0:0:0:
256,192,17267,1,8,0:0:0:0:
256,192,17386,1,0,0:0:0:0:
256,192,17505,1,8,0:0:0:0:
256,192,17624,1,0,0:0:0:0:
256,192,17743,1,8,0:0:0:0:
256,192,17862,1,8,0:0:0:0:
256,192,17921,1,8,0:0:0:0:
256,192,17981,1,0,0:0:0:0:
256,192,18100,1,0,0:0:0:0:
256,192,18219,1,8,0:0:0:0:
256,192,18278,1,8,0:0:0:0:
256,192,18397,1,0,0:0:0:0:
256,192,18457,1,8,0:0:0:0:
256,192,18576,1,0,0:0:0:0:
256,192,18695,1,8,0:0:0:0:
256,192,18814,1,0,0:0:0:0:
256,192,18874,1,0,0:0:0:0:
256,192,18933,1,8,0:0:0:0:
256,192,19052,1,8,0:0:0:0:
256,192,19171,1,8,0:0:0:0:
256,192,19231,1,0,0:0:0:0:
256,192,19350,1,0,0:0:0:0:
256,192,19409,1,8,0:0:0:0:
256,192,19528,1,0,0:0:0:0:
256,192,19647,1,8,0:0:0:0:
256,192,19767,1,8,0:0:0:0:
256,192,19826,1,8,0:0:0:0:
256,192,19886,1,0,0:0:0:0:
256,192,20005,1,8,0:0:0:0:
256,192,20124,1,0,0:0:0:0:
256,192,20243,1,8,0:0:0:0:
256,192,20362,1,8,0:0:0:0:
256,192,20421,1,0,0:0:0:0:
256,192,20540,1,0,0:0:0:0:
256,192,20600,1,0,0:0:0:0:
256,192,20659,1,0,0:0:0:0:
256,192,20719,1,8,0:0:0:0:
256,192,20838,1,0,0:0:0:0:
256,192,20957,1,8,0:0:0:0:
256,192,21076,1,8,0:0:0:0:
256,192,21135,1,8,0:0:0:0:
256,192,21195,1,0,0:0:0:0:
256,192,21315,1,8,0:0:0:0:
256,192,21374,1,0,0:0:0:0:
256,192,21494,1,0,0:0:0:0:
256,192,21554,1,8,0:0:0:0:
256,192,21673,1,8,0:0:0:0:
256,192,21733,1,8,0:0:0:0:
256,192,21793,1,0,0:0:0:0:
256,192,21912,1,8,0:0:0:0:
256,192,22032,1,8,0:0:0:0:
256,192,22091,1,0,0:0:0:0:
256,192,22151,1,0,0:0:0:0:
256,192,22211,1,0,0:0:0:0:
256,192,22330,1,0,0:0:0:0:
256,192,22450,1,0,0:0:0:0:
256,192,22510,1,8,0:0:0:0:
256,192,22570,1,8,0:0:0:0:
256,192,22629,1,0,0:0:0:0:
256,192,22749,1,0,0:0:0:0:
256,192,22868,1,8,0:0:0:0:
256,192,22988,1,8,0:0:0:0:
256,192,23048,1,8,0:0:0:0:
256,192,23107,1,0,0:0:0:0:
256,192,23167,1,0,0:0:0:0:
256,192,23227,1,8,0:0:0:0:
256,192,23346,1,0,0:0:0:0:
256,192,23406,1,0,0:0:0:0:
256,192,23466,1,8,0:0:0:0:
256,192,23585,1,8,0:0:0:0:
256,192,23645,1,8,0:0:0:0:
256,192,23705,1,0,0:0:0:0:
256,192,23825,1,8,0:0:0:0:
256,192,23944,1,8,0:0:0:0:
256,192,24004,1,0,0:0:0:0:
256,192,24064,1,0,0:0:0:0:
256,192,24123,1,0,0:0:0:0:
256,192,24243,1,0,0:0:0:0:
256,192,24362,1,0,0:0:0:0:
256,192,24422,1,8,0:0:0:0:
256,192,24542,1,0,0:0:0:0:
256,192,24601,1,0,0:0:0:0:
256,192,24661,1,0,0:0:0:0:
256,192,24781,1,8,0:0:0:0:
256,192,24900,1,8,0:0:0:0:
256,192,24959,1,8,0:0:0:0:
256,192,25019,1,0,0:0:0:0:
256,192,25138,1,8,0:0:0:0:
256,192,25197,1,0,0:0:0:0:
256,192,25316,1,0,0:0:0:0:
256,192,25376,1,8,0:0:0:0:
256,192,25495,1,8,0:0:0:0:
256,192,25554,1,8,0:0:0:0:
256,192,25614,1,0,0:0:0:0:
256,192,25733,1,0,0:0:0:0:
256,192,25852,1,8,0:0:0:0:
256,192,25911,1,0,0:0:0:0:
256,192,25971,1,8,0:0:0:0:
256,192,26030,1,8,0:0:0:0:
256,192,26150,1,8,0:0:0:0:
256,192,26269,1,0,0:0:0:0:
256,192,26328,1,8,0:0:0:0:
256,192,26447,1,8,0:0:0:0:
256,192,26507,1,8,0:0:0:0:
256,192,26566,1,0,0:0:0:0:
256,192,26685,1,0,0:0:0:0:
256,192,26804,1,0,0:0:0:0:
256,192,26923,1,8,0:0:0:0:
256,192,27042,1,0,0:0:0:0:
256,192,27102,1,0,0:0:0:0:
256,192,27161,1,8,0:0:0:0:
256,192,27221,1,8,0:0:0:0:
256,192,27280,1,0,0:0:0:0:
256,192,27400,1,8,0:0:0:0:
256,192,27459,1,8,0:0:0:0:
256,192,27519,1,0,0:0:0:0:
256,192,27578,1,8,0:0:0:0:
256,192,27697,1,0,0:0:0:0:
256,192,27757,1,8,0:0:0:0:
256,192,27816,1,8,0:0:0:0:
256,192,27876,1,8,0:0:0:0:
256,192,27935,1,0,0:0:0:0:
256,192,28054,1,8,0:0:0:0:
256,192,28173,1,0,0:0:0:0:
256,192,28233,1,8,0:0:0:0:
256,192,28352,1,8,0:0:0:0:
256,192,28411,1,0,0:0:0:0:
256,192,28530,1,0,0:0:0:0:
256,192,28590,1,8,0:0:0:0:
256,192,28709,1,8,0:0:0:0:
256,192,28828,1,0,0:0:0:0:
256,192,28888,1,8,0:0:0:0:
256,192,29007,1,0,0:0:0:0:
256,192,29127,1,0,0:0:0:0:
256,192,29187,1,8,0:0:0:0:
256,192,29306,1,8,0:0:0:0:
256,192,29426,1,0,0:0:0:0:
256,192,29545,1,0,0:0:0:0:
256,192,29605,1,8,0:0:0:0:
256,192,29724,1,8,0:0:0:0:
256,192,29784,1,8,0:0:0:0:
256,192,29844,1,0,0:0:0:0:
256,192,29963,1,0,0:0:0:0:
256,192,30023,1,8,0:0:0:0:
256,192,30083,1,8,0:0:0:0:
256,192,30143,1,8,0:0:0:0:
256,192,30203,1,8,0:0:0:0:
256,192,30262,1,0,0:0:0:0:
256,192,30382,1,0,0:0:0:0:
256,192,30501,1,8,0:0:0:0:
256,192,30561,1,8,0:0:0:0:
256,192,30621,1,0,0:0:0:0:
256,192,30740,1,0,0:0:0:0:
256,192,30860,1,8,0:0:0:0:
256,192,30979,1,0,0:0:0:0:
256,192,31039,1,8,0:0:0:0:
256,192,31099,1,8,0:0:0:0:
256,192,31159,1,0,0:0:0:0:
256,192,31278,1,0,0:0:0:0:
256,192,31338,1,8,0:0:0:0:
256,192,31458,1,8,0:0:0:0:
256,192,31577,1,0,0:0:0:0:
256,192,31637,1,0,0:0:0:0:
256,192,31697,1,0,0:0:0:0:
256,192,31756,1,8,0:0:0:0:
256,192,31876,1,0,0:0:0:0:
256,192,31936,1,8,0:0:0:0:
256,192,32055,1,8,0:0:0:0:
256,192,32115,1,0,0:0:0:0:
256,192,32234,1,0,0:0:0:0:
256,192,32354,1,8,0:0:0:0:
256,192,32414,1,8,0:0:0:0:
256,192,32473,1,0,0:0:0:0:
256,192,32533,1,8,0:0:0:0:
256,192,32651,1,0,0:0:0:0:
256,192,32770,1,8,0:0:0:0:
256,192,32888,1,0,0:0:0:0:
256,192,32948,1,0,0:0:0:0:
256,192,33007,1,8,0:0:0:0:
256,192,33125,1,8,0:0:0:0:
256,192,33185,1,0,0:0:0:0:
256,192,33303,1,0,0:0:0:0:
256,192,33363,1,8,0:0:0:0:
256,192,33481,1,8,0:0:0:0:
256,192,33540,1,0,0:0:0:0:
256,192,33600,1,8,0:0:0:0:
256,192,33718,1,8,0:0:0:0:
256,192,33778,1,0,0:0:0:0:
256,192,33896,1,0,0:0:0:0:
256,192,34015,1,8,0:0:0:0:
256,192,34133,1,0,0:0:0:0:
256,192,34252,1,8,0:0:0:0:
256,192,34311,1,8,0:0:0:0:
256,192,34370,1,8,0:0:0:0:
256,192,34430,1,0,0:0:0:0:
256,192,34489,1,0,0:0:0:0:
256,192,34548,1,0,0:0:0:0:
256,192,34608,1,8,0:0:0:0:
256,192,34726,1,8,0:0:0:0:
256,192,34785,1,0,0:0:0:0:
256,192,34904,1,0,0:0:0:0:
256,192,34963,1,8,0:0:0:0:
256,192,35023,1,8,0:0:0:0:
256,192,35082,1,8,0:0:0:0:
256,192,35200,1,8,0:0:0:0:
256,192,35260,1,0,0:0:0:0:
256,192,35319,1,8,0:0:0:0:
256,192,35378,1,8,0:0:0:0:
256,192,35438,1,0,0:0:0:0:
256,192,35556,1,8,0:0:0:0:
256,192,35675,1,0,0:0:0:0:
256,192,35793,1,8,0:0:0:0:
256,192,35912,1,8,0:0:0:0:
256,192,36031,1,0,0:0:0:0:
256,192,36149,1,8,0:0:0:0:
256,192,36327,1,4,0:0:0:0:
256,192,36807,1,4,0:0:0:0:
256,192,37287,1,4,0:0:0:0:
256,192,37767,1,4,0:0:0:0:
256,192,38247,1,4,0:0:0:0:
256,192,38727,1,4,0:0:0:0:
256,192,39207,1,8,0:0:0:0:
256,192,39267,1,8,0:0:0:0:
256,192,39327,1,8,0:0:0:0:
256,192,39387,1,8,0:0:0:0:
256,192,39447,1,0,0:0:0:0:
256,192,39687,1,0,0:0:0:0:
256,192,39927,1,8,0:0:0:0:
256,192,40167,1,4,0:0:0:0:
256,192,40632,1,4,0:0:0:0:
256,192,41097,1,4,0:0:0:0:
256,192,41562,1,4,0:0:0:0:
256,192,42027,1,4,0:0:0:0:
256,192,42492,1,4,0:0:0:0:
256,192,43015,1,8,0:0:0:0:
256,192,43073,1,8,0:0:0:0:
256,192,43132,1,8,0:0:0:0:
256,192,43190,1,0,0:0:0:0:
256,192,43422,1,0,0:0:0:0:
256,192,43655,1,8,0:0:0:0:
256,192,43887,1,4,0:0:0:0:
256,192,44367,1,4,0:0:0:0:
256,192,44847,1,4,0:0:0:0:
256,192,45327,1,4,0:0:0:0:
256,192,45807,1,4,0:0:0:0:
256,192,46287,1,4,0:0:0:0:
256,192,46887,1,8,0:0:0:0:
256,192,46947,1,8,0:0:0:0:
256,192,47007,1,0,0:0:0:0:
256,192,47247,1,0,0:0:0:0:
256,192,47487,1,8,0:0:0:0:
256,192,47727,1,4,0:0:0:0:
256,192,48207,1,4,0:0:0:0:
256,192,48687,1,8,0:0:0:0:
256,192,48747,1,8,0:0:0:0:
256,192,48807,1,0,0:0:0:0:
256,192,48927,1,8,0:0:0:0:
256,192,49167,1,0,0:0:0:0:
256,192,49407,1,8,0:0:0:0:
256,192,49647,1,4,0:0:0:0:
256,192,50127,1,4,0:0:0:0:
256,192,50607,2,0,L|416:256,1,165
256,192,51816,1,0,0:0:0:0:
256,192,52058,1,8,0:0:0:0:
256,192,52784,1,0,0:0:0:0:
256,192,53389,1,8,0:0:0:0:
256,192,53631,1,8,0:0:0:0:
256,192,53752,1,8,0:0:0:0:
256,192,53873,1,0,0:0:0:0:
256,192,54115,1,8,0:0:0:0:
256,192,54465,2,0,L|416:256,1,165
256,192,55445,1,8,0:0:0:0:
256,192,55687,5,4,0:0:0:0:
